#TITLE:Swallowing An Avalanche;
#SUBTITLE:(New Mix);
#ARTIST:Nosrac;
#TITLETRANSLIT:;
#SUBTITLETRANSLIT:;
#ARTISTTRANSLIT:;
#CREDIT:~Zero~;
#BANNER:SwallowinganAvalanche-Bn.jpg;
#BACKGROUND:SwallowinganAvalanche-Bg.jpg;
#LYRICSPATH:;
#CDTITLE:cdtitle =).png;
#MUSIC:Swallowing An Avalanche (New Mix).mp3;
#OFFSET:0.146;
#SAMPLESTART:89.500;
#SAMPLELENGTH:11.820;
#SELECTABLE:YES;
#BPMS:0.000=180.000;
#STOPS:;
#BGCHANGES:;
// cache tags:
#FIRSTBEAT:11.000;
#LASTBEAT:427.750;
#SONGFILENAME:Songs/KBU/Swallowing An Avalanche -New Mix- (~Zero~)/Swallowing An Avalanche (New Mix).sm;
#HASMUSIC:1;
#HASBANNER:1;
#MUSICLENGTH:143.516;
// end cache tags

//---------------dance-single - ----------------
#NOTES:
     dance-single:
     :
     Challenge:
     12:
     1.000,1.000,1.000,0.000,1.000,1130.000,298.000,0.000,0.000,0.000:
0000
0000
0000
0000
,
0000
0000
0000
0000
,
0000
0000
0000
1001
,
0101
0010
1000
0001
0010
0100
0011
0000
1001
0000
1000
0100
0010
0001
1010
0000
,
1001
0000
0000
0000
0001
0000
1000
0000
0100
0000
1000
0000
0011
0000
0000
0000
1000
0000
0001
0000
0100
0010
1000
0001
0110
0000
0000
0000
0000
0000
0000
0000
,
1001
0000
0010
0001
0100
0010
1100
0000
1010
0000
0100
0010
0001
1000
0110
0000
,
1001
0000
0000
0000
0100
0000
0001
0000
0010
0000
0100
0000
1001
0000
0000
0000
0010
0000
0100
0000
0001
1000
0100
0010
1001
0000
0000
0000
0000
0000
0000
0000
,
1001
0000
0100
0001
0010
0001
1100
0000
0010
0001
1000
0010
0100
0001
1010
0000
,
1001
0000
0000
0000
0001
0000
1000
0000
0100
0000
0010
0000
1001
0000
0000
0000
0100
0000
0001
0000
1000
0100
0010
0001
1100
0000
0000
0000
0000
0000
0000
0000
,
1100
0000
0010
0001
1000
0010
0101
0000
1010
0000
0001
0010
0001
0100
1001
0000
,
1000
0100
1000
0000
0001
1000
0001
0000
1000
0010
1000
0000
0001
0100
0010
0000
,
1001
0000
0010
0100
0001
1000
0011
0000
0100
0010
1000
0100
0010
0001
0110
0000
,
1001
0000
0100
0010
1000
0001
0110
0000
1000
0100
0010
0001
0100
1000
0100
1000
,
0110
0000
0001
0010
0100
0010
1001
0000
1010
0000
0100
0010
0001
1000
0100
1000
,
0011
0000
0000
0000
1000
0000
0010
0000
0100
0000
0001
0000
1010
0000
0000
0000
0100
0000
0010
0000
1000
0100
0010
0001
1100
0000
0000
0000
0010
0000
0100
0000
,
0011
0000
1000
0100
0010
0001
0110
0000
1000
0010
0100
0001
1000
0100
1010
0000
,
1010
0000
0000
0000
0100
0000
0010
0000
0001
0000
1000
0000
0011
0000
0000
0000
0100
0000
1000
0000
0010
0001
0100
0010
1100
0000
0000
0000
0000
0000
0000
0000
,
1001
0010
0100
0010
0001
1000
0101
0000
1001
0010
0100
1000
0100
0000
0011
0000
,
1000
0001
0100
0000
0001
0010
0001
0000
1001
0000
0010
0100
0010
1000
0010
0100
,
0001
0010
0001
0000
1001
0000
0000
0000
0110
0000
1000
0100
0010
0001
1010
0000
,
0101
0000
0010
1000
0010
0100
0011
0000
1001
0000
0100
0010
1000
0010
0101
0000
,
0010
0000
0100
0000
0001
1000
0010
0100
0011
0000
0000
0000
0000
0000
0000
0000
1001
0000
0000
0000
0100
0000
0010
0000
1000
0000
0001
0000
1010
0000
0000
0000
,
0101
0000
0010
1000
0100
0010
1001
0000
0101
0000
0010
1000
0100
1000
0101
0000
,
0010
0000
1000
0000
0010
0100
0001
1000
0110
0000
0000
0000
0000
0000
0000
0000
1001
0000
0000
0000
0010
0000
0100
0000
0001
0000
1000
0000
0110
0000
0000
0000
,
0101
0000
0010
1000
0010
0100
0011
0000
1001
0000
0100
0010
0001
1000
0011
0000
,
0100
0000
0010
0000
0100
1000
0001
0010
1100
0000
0000
0000
0000
0000
0000
0000
1001
0000
0000
0000
0010
0000
0100
0000
0001
0000
1000
0000
0011
0000
0000
0000
,
1001
0000
0100
0010
1001
0000
0101
0000
1000
0010
0100
0000
0001
0010
0001
0000
,
1000
0001
0100
0000
0010
0001
1000
0000
1001
0000
0010
0100
0001
1000
0011
0000
,
1010
0000
0100
0001
1000
0000
1010
0000
1001
0000
0010
0001
0100
0010
1100
0000
,
0010
0000
1000
0000
0100
0010
0001
0100
1010
0000
0000
0000
0000
0000
0000
0000
1001
0000
0000
0000
0010
0000
0100
0000
0001
0000
1000
0000
0110
0000
0000
0000
,
0001
0100
0010
1000
0011
0000
1000
0000
1010
0000
0100
0010
0001
1000
0110
0000
,
0001
0000
1000
0000
0010
0100
0001
0010
1001
0000
0000
0000
1010
0000
0000
0000
0101
0000
0000
0000
0010
0000
1000
0000
0010
0000
0100
0000
0011
0000
0000
0000
,
1001
0000
0100
0010
1000
0001
0110
0000
1001
0000
0010
0001
1000
0010
0101
0000
,
1000
0100
1000
0100
1001
0000
0000
0000
0110
0000
0001
0010
0100
1000
0011
0000
,
0101
0000
0010
1000
0100
0000
0011
0000
1000
0010
0100
0000
0010
0100
0010
0000
,
1000
0000
0000
0000
0000
0000
0000
0000
1001
0000
0100
0010
1001
0000
0110
0000
,
0100
0000
0000
0000
0110
0000
0001
0010
0100
0010
1100
0000
0000
0000
0010
0100
,
1001
0000
1000
0100
0010
0100
1001
0000
1001
0000
0010
0000
0101
0000
1010
0000
,
0010
0000
0000
0000
0011
0000
1000
0010
0100
0001
1010
0000
0000
0000
0100
0001
,
1100
0000
0010
0100
0001
0010
1100
0000
0010
0000
0000
0000
0010
0000
0010
0000
,
0110
0000
1000
0000
1001
0000
0000
0000
0010
0001
1010
0000
0000
0000
1000
0100
,
0011
0000
0100
0010
1001
0000
0010
0100
0010
1000
0011
0000
1001
0010
0100
0010
,
1000
0001
0110
0000
1001
0100
1000
0000
0010
0100
0001
0000
1000
0001
0100
0000
,
0010
0100
0010
0000
1001
0000
0010
0001
1010
0000
1001
0000
0010
0000
0000
0000
,
0110
0000
1000
0010
0100
0001
0110
0000
0000
0000
1000
0100
0011
0000
0100
1000
,
0010
0100
1001
0000
0101
0000
0010
0000
1001
0000
1010
0000
1000
0000
0000
0000
,
1001
0000
0010
0100
0001
1000
0110
0000
0000
0000
0001
0010
1100
0000
0000
0000
,
0100
0000
1100
0000
1001
0101
0011
0000
,
1001
0000
0100
0010
1000
0001
0110
0000
1000
0010
0100
0001
0110
0000
1000
0010
,
0100
0001
1100
0000
1001
0000
0000
0000
0101
0000
0000
0000
1000
0000
0001
0000
,
1000
0000
0010
0000
0000
0000
0000
0100
0000
0000
0010
0000
0001
0000
0100
0000
0010
0000
1000
0000
0010
0000
0100
0000
0001
0000
0000
0000
1001
0000
0000
0000
,
1000
0000
0000
0000
1001
0000
0100
0010
1000
0001
1010
0000
0100
0010
0001
0100
,
0010
0000
0000
0000
1010
0000
0000
0000
1001
0000
0000
0000
0010
0000
0100
0000
0001
0000
1000
0000
0110
0000
0000
0000
1000
0000
0100
0000
0010
0001
1000
0100
,
0011
0000
0000
0000
1001
0000
0010
0100
0001
1000
0011
0000
0010
0000
0101
0000
,
0010
1000
0110
0000
1001
0000
0010
0100
0001
1000
0110
0000
0001
1000
0010
0100
,
0001
0010
0001
0010
1001
0000
0100
0010
1000
0010
1001
0000
0010
0000
0101
0000
,
1000
0010
0101
0000
1001
0000
0010
0100
0001
1000
0101
0000
1000
0100
1000
0100
,
1001
0000
0100
0010
1001
0000
1000
0100
0010
0100
1001
0000
0100
0010
0001
1000
,
0010
0100
0011
0000
1000
0010
0100
0000
0001
0100
0010
0000
1000
0001
1000
0000
,
0001
0000
0000
0000
1001
0000
0010
1000
0100
0010
1001
0000
0010
0100
0001
1000
,
0100
0000
1000
0000
0011
0000
0000
0000
0101
0000
0000
0000
0010
0000
1000
0000
0010
0000
0100
0000
1001
0000
0000
0000
0010
0000
0100
0000
0001
0010
0100
1000
,
0011
0000
0000
0000
1010
0000
0100
0001
0010
0001
1100
0000
0010
0001
0100
0010
,
1000
0000
0010
0000
0101
0000
0000
0000
1010
0000
0000
0000
0100
0000
0010
0000
1000
0000
0001
0000
0110
0000
0000
0000
0001
0000
1000
0000
0010
0100
0001
1000
,
0110
0000
0000
0000
0101
0000
0010
1000
0100
0010
1001
0000
1010
0000
0100
0010
,
0100
0000
0001
0000
0110
0000
0000
0000
1001
0000
0000
0000
0100
0000
0010
0000
1000
0000
0001
0000
1010
0000
0000
0000
0100
0000
0010
0000
1000
0010
0100
0001
,
1100
0000
0000
0000
0010
0100
0010
1000
0001
1000
0100
0010
0001
0100
0010
1000
,
0010
0000
0000
0000
,
0000
0000
0000
0000
1001
0000
0000
0000
1001
0000
1100
0000
1010
0000
0100
1000
,
0011
0000
0100
1000
0010
0100
0011
0000
0000
0000
1000
0001
0110
0000
1000
0010
,
0100
0001
1010
0000
0101
0000
0000
0000
1001
0000
0110
0000
1000
0000
0010
0100
,
0011
0000
1000
0010
0100
0001
1010
0000
0100
0010
0001
1000
0110
0000
0001
1000
,
0010
0100
1010
0000
0001
0010
1001
0000
1010
0000
0000
0000
0100
0000
0010
0000
,
1001
0000
0100
0010
1000
0001
1100
0000
0010
0100
0010
0100
0011
0000
0100
0010
,
1000
0100
1001
0000
0101
0010
1000
0000
0001
0010
0100
0000
1000
0001
0010
0000
,
0100
1000
0010
0000
0100
0001
1000
0010
0101
0000
1000
0010
1001
0000
0101
0000
,
1001
0000
0000
0000
1010
0000
0000
0000
0110
0000
1001
0000
0100
0010
0100
0001
,
1010
0000
0000
0000
0100
0000
0101
0000
0000
0000
1001
0000
1000
0000
0010
0100
,
0010
0000
1000
0001
0110
0000
1000
0010
0100
0000
1001
0010
0100
0000
0000
0000
,
0110
0000
0000
0000
0001
0010
1100
0000
0011
0000
0000
0000
1001
0000
0100
1000
,
0101
0000
0000
0000
1010
0000
0000
0000
1001
0000
0101
0000
0100
1000
0100
1000
,
0110
0000
0001
0010
0001
1000
0011
0000
0100
0000
1001
0010
0100
0000
0010
0001
,
0010
0000
0010
1000
0110
0000
0000
0000
1001
0000
0000
0000
0010
0000
0100
0000
,
0010
0000
1000
0000
0000
0000
0000
0001
0000
0000
0000
0000
1001
0000
0000
0000
0000
0000
0000
0000
0000
0000
0000
0000
0001
0000
0100
0000
0010
0000
1000
0000
,
0011
0000
0000
0000
1001
0000
0000
0000
0110
0000
1001
0000
0010
0100
0001
1000
,
0110
0000
0001
1000
0010
0001
0110
0000
1000
0010
0101
0000
0011
0000
0100
1000
,
0001
0000
1000
0010
0101
0000
0000
0000
1001
0000
1010
0000
0100
0000
0001
0010
,
1100
0000
0010
0001
0100
0010
1001
0100
1000
0000
0010
0100
0001
1000
0100
0010
,
1100
0000
0010
0100
0011
0000
0000
0000
1001
0000
1010
0000
0100
0010
0100
0001
,
1010
0000
0100
0010
0100
0010
1001
0000
0100
0000
1100
0001
0100
0000
0010
1000
,
0010
0000
0100
0001
1010
0000
0100
0010
1001
0100
0011
0000
0100
0010
1000
0000
,
1001
0000
0000
0010
0000
0000
0001
0000
0000
0100
0000
0000
0010
0000
0000
1000
0100
0010
0001
0000
0000
0000
0000
0000
0000
0000
0000
0000
0000
0000
1001
0000
0000
0000
0000
0000
0010
0000
0000
0100
0000
0000
0001
0000
0000
1000
0100
0010
,
0001
0000
0110
0000
1001
0000
0000
0000
0011
0000
0000
0000
1000
0010
0100
0010
,
1001
0000
0000
0000
0010
0100
0010
1000
0001
0000
1001
0100
1000
0000
0100
0010
,
1000
0000
0001
0010
1100
0000
0000
0000
0010
0000
0010
0000
0010
0000
0010
0000
,
0110
0000
0000
0000
1001
0100
0010
0100
1000
0001
0100
0010
1000
0001
0010
0100
,
0011
0000
1000
0000
1001
0000
0100
0000
1100
0000
0001
0000
1001
0100
0010
0100
,
1001
0000
0000
0000
0100
0000
0100
0000
0100
0000
0110
0000
0010
0000
0100
0010
,
1000
0000
0001
0010
1100
0000
0000
0000
1001
0000
0000
0000
0101
0000
0010
0000
,
0100
0000
0010
0000
0000
0000
0000
1000
0000
0000
0000
0000
0010
0000
0000
0000
0000
0000
0000
0000
0000
0000
0000
0000
0001
0000
0010
0000
0001
0000
0010
0000
,
1001
0000
0000
0000
0110
0000
0000
0000
1001
0000
0000
0000
0101
0010
1000
0010
,
0101
0000
0000
0000
0010
1000
0110
0000
1000
0010
1001
0000
0011
0000
0100
1000
,
0010
0000
0100
0001
1100
0000
0010
0100
1001
0000
0010
0000
0110
0000
1000
0010
,
0101
0000
1000
0000
0001
0100
0001
0000
1001
0000
1000
0010
1000
0100
0010
0001
,
1100
0000
0000
0000
0110
0000
0000
0000
0011
0000
0000
0000
1000
0010
0100
0001
,
1100
0000
0001
0010
0100
0000
1001
0000
0010
0000
0101
0000
1001
0000
0010
0001
,
0100
0000
0000
0000
1000
0000
0001
0000
0010
0000
0000
0000
0000
0000
0000
0000
0110
0000
0000
0000
0000
0000
0010
0000
0000
0000
0000
1000
0000
0000
0001
0000
,
0010
0000
0000
0000
0000
0000
0000
1000
0000
0000
0000
0000
0010
0000
0000
0000
0000
0000
0100
0000
0000
0000
0001
0000
1000
0000
0000
0000
0000
0000
0010
0000
;
