#TITLE:Ideal;
#SUBTITLE:;
#ARTIST:Hiroshi Iuchi;
#TITLETRANSLIT:;
#SUBTITLETRANSLIT:;
#ARTISTTRANSLIT:;
#CREDIT:Darkmage;
#BANNER:ideal-bn.png;
#BACKGROUND:ideal-bg.png;
#LYRICSPATH:;
#CDTITLE:!darkmagetitle2.png;
#MUSIC:Ideal.ogg;
#OFFSET:1.540;
#SAMPLESTART:23.293;
#SAMPLELENGTH:15.000;
#SELECTABLE:YES;
#BPMS:0.000=140.000,52.000=93.000,56.000=155.000;
#STOPS:;
#BGCHANGES:0.000=ideal-bg.png=1.000=0=0=1,
99999=-nosongbg-=1.000=0=0=0 // don't automatically add -songbackground-
;
// cache tags:
#FIRSTBEAT:4.000;
#LASTBEAT:328.000;
#SONGFILENAME:Songs/Archmage and Dark0wl Hammer of Thor UltraHyperMegaPack/Ideal/Ideal.sm;
#HASMUSIC:1;
#HASBANNER:1;
#MUSICLENGTH:105.000;
// end cache tags

//---------------dance-single - Darkmage----------------
#NOTES:
     dance-single:
     Darkmage:
     Challenge:
     12:
     1.000,1.000,1.000,0.057,1.000,772.000,207.000,6.000,0.000,1.000:
0000
0000
0000
0000
,
1001
0000
0000
0000
0000
0000
0000
0000
0000
1010
1001
0101
,
0011
1010
1001
0000
,
0000
0000
0101
0101
1010
0000
1100
0000
,
0011
0000
0000
0000
,
0101
0000
0011
0000
0110
0000
1100
0000
0000
0000
0011
0000
,
0101
0000
0000
0000
0000
0000
0000
0000
0101
0000
0000
0000
0000
0110
0000
0000
,
1010
0000
0000
0000
0000
1100
0000
0000
0011
0000
0000
0000
1001
0000
0000
0000
,
1010
0000
0110
0000
0101
0000
0011
0000
0000
0000
1100
0000
,
0011
0000
0000
0000
0000
0000
0011
0000
0110
0000
0101
0000
,
1010
0000
0000
0000
0101
0000
1010
0000
0000
0000
0000
0000
,
1100
0000
0011
0000
0101
0000
1010
0000
0000
0000
0110
0000
,
1001
0000
1001
0000
,
2002
0000
0000
0000
0000
0000
0000
3003
,
1001
0100
0010
0100
0010
0001
1000
0010
0100
0001
0100
0001
1000
0100
0010
0100
,
1000
0010
1000
0010
0100
0001
0010
0100
1000
0010
0100
0010
1000
0100
0010
0001
,
1000
0010
1000
0010
0100
0001
0010
0100
0010
0100
1000
0001
0100
0010
0100
0010
,
1000
0100
0010
0001
1000
0010
0100
0001
0010
0100
1000
0010
0101
0000
0101
0000
,
1010
0000
0000
0000
0000
0000
1100
0000
0010
0001
0100
0000
1010
0000
1100
0000
,
1000
0100
1000
0000
0000
0000
1000
0010
1000
0000
0000
0000
1010
0000
0110
0000
,
0101
0000
0000
0000
0000
0000
0011
0000
0100
1000
0010
0000
1010
0000
1010
0000
,
0010
0100
0010
0000
0000
0000
0100
0010
0100
0000
0000
0000
0101
0000
0011
0000
,
1100
0000
0000
0000
0000
0000
0011
0000
0010
0001
0100
0000
1010
0000
0110
0000
,
0100
0001
0100
0000
0000
0000
0001
0100
0001
0000
0000
0000
0110
0000
0101
0000
,
0011
0000
0000
0000
0000
0000
1100
0000
1000
0010
0100
0000
1010
0000
1100
0000
,
1000
0010
0100
0000
0000
0000
0100
0001
0011
0000
0110
0000
1100
0000
0110
0000
,
0011
0100
1000
0000
0000
0000
0011
0000
0100
1000
0010
0000
0101
0000
0011
0000
,
1100
0100
1000
0000
0000
0000
1000
0100
1000
0000
0000
0000
1100
0000
0110
0000
,
0101
0010
1000
0000
0000
0000
0101
0000
0010
0100
0001
0000
0011
0000
0110
0000
,
1100
0100
0010
0000
0000
0000
0010
0100
0010
0000
0000
0000
0011
0000
0011
0000
,
1001
0010
0100
0000
0000
0000
0101
0000
0010
1000
0001
0000
0101
0000
0011
0000
,
1100
0100
1000
0000
0000
0000
1000
0001
1000
0000
0000
0000
0101
0000
1010
0000
,
1001
0100
1000
0000
0000
0000
1010
0000
0100
0010
1000
0000
1100
0000
0110
0000
,
0011
0001
0100
0000
0000
0000
0100
0001
0201
0000
2300
0000
3201
0000
0320
0000
,
0031
0100
1000
0100
0010
1000
0001
0010
1000
0010
0100
1000
,
0001
0100
1000
0100
0010
1000
0001
0010
1000
0010
0100
1000
,
0001
0100
0010
0100
1000
0100
0010
0001
0010
0100
0001
0010
,
0100
1000
0100
0001
0100
0010
0100
0010
0001
0010
0100
1000
,
0001
0100
1000
0100
0010
1000
0001
0010
1000
0010
0100
1000
,
0001
0100
0010
0100
1000
0100
0010
0100
0001
0010
1000
0010
,
0100
1000
0100
0001
0100
0010
0011
0000
0000
0101
0000
0000
,
1001
0100
1000
0000
0000
0000
0001
1000
0001
0000
0000
0000
0101
0000
0110
0000
,
1010
0001
0100
0000
0000
0000
0001
0010
0001
0000
1000
0010
0100
0000
0101
0000
,
0011
0100
1000
0000
0000
0000
1000
0010
0100
0000
0000
0000
0110
0000
1010
0000
,
1100
0010
0001
0000
0000
0000
1000
0010
0100
0000
0001
0000
1100
0000
0011
0000
,
1100
0100
1000
0000
0000
0000
0001
0100
0001
0000
0000
0000
0110
0000
1001
0000
,
0101
0010
1000
0000
0000
0000
1100
0000
0011
0000
0100
1000
0010
0000
0101
0000
,
1010
0010
0100
0000
0000
0000
0100
0001
0010
0000
0000
0000
1100
0000
1100
0000
,
0011
0100
0010
0000
0000
0000
0100
1000
0100
0000
1010
0000
0101
0000
0011
0000
,
1100
0010
0100
0000
0000
0000
0001
0100
0010
0000
0000
0000
1010
0000
0110
0000
,
0101
0000
0000
0000
0000
0000
0011
0000
0010
0001
0100
0000
0110
0000
1010
0000
,
1001
0001
0100
0000
0000
0000
0100
0001
0100
0000
0000
0000
0101
0000
0101
0000
,
1001
0000
0000
0000
0000
0000
0110
0000
0001
0100
1000
0000
1010
0000
0101
0000
,
0011
0010
0100
0000
0000
0000
0100
0010
0100
0000
0000
0000
1100
0000
1100
0000
,
0011
0000
0000
0000
0000
0000
0101
0000
0010
0100
0001
0000
0101
0000
0110
0000
,
1100
0100
1000
0000
0000
0000
0001
1000
0001
0000
0000
0000
0101
0000
0101
0000
,
1010
0000
0000
0000
0000
0000
1100
0000
0010
0001
0100
0000
1010
0000
0101
0000
,
0011
0001
1000
0000
0000
0000
0001
0100
0110
0000
1010
0000
1100
0000
0011
0000
,
1001
0000
0000
0000
0000
0000
0101
0000
0010
0100
0001
0000
0011
0000
0110
0000
,
1100
0100
1000
0000
0000
0000
1000
0010
0100
0000
0000
0000
0101
0000
0101
0000
,
0110
0000
0000
0000
0000
0000
1010
0000
0001
0100
1000
0000
0110
0000
1010
0000
,
1100
0010
0001
0000
0000
0000
0001
0100
0001
0000
0000
0000
1010
0000
1010
0000
,
1001
0000
0000
0000
0000
0000
0011
0000
0100
1000
0010
0000
0110
0000
1010
0000
,
1100
0010
0100
0000
0000
0000
0001
0010
0001
0000
0000
0000
0101
0000
0101
0000
,
1010
0000
0000
0000
0000
0000
1100
0000
0010
0100
1000
0000
1010
0000
1001
0000
,
0101
0001
1000
0000
0000
0000
1000
0001
1100
0000
1000
0001
0101
0000
0001
1000
,
1010
0100
0010
1000
0001
0010
0100
0001
0100
0010
0001
1000
0010
0100
0001
0100
,
0010
1000
0001
0010
1000
0010
0001
1000
0010
0100
0001
0100
0010
1000
0001
0010
,
0100
0001
0100
1000
0001
0100
0010
0100
1000
0100
0010
1000
0001
0010
0100
1000
,
0100
0010
0001
1000
0010
0100
1000
0100
0010
1000
0001
0010
1000
0010
0001
1000
,
1001
0100
0010
0001
1000
0010
0101
1000
0010
0100
0001
0010
1100
0010
0001
1000
,
0010
0100
0001
0100
0010
1000
0001
0010
0100
0010
0001
1000
0010
0100
0001
1000
,
1100
0100
1000
0010
0100
0001
0011
0010
0100
1000
0001
0100
0110
0010
1000
0001
,
0010
0100
1000
0100
0010
0001
1000
0010
0100
0001
0100
0010
1100
0000
1010
0000
,
1001
0100
0010
1000
0001
0010
0101
0010
0001
1000
0010
0100
1010
0100
0001
0010
,
0100
1000
0100
0010
0001
1000
0010
0100
0010
1000
0001
0010
0100
1000
0001
0100
,
1010
0100
0001
1000
0100
0010
0011
0100
1000
0010
0100
0001
1010
0100
0010
1000
,
0001
0010
0100
0010
0001
1000
0010
0100
1010
0100
0001
0010
0101
0010
0001
0100
,
1001
0100
1000
0100
1000
0100
1000
0100
1000
0010
1000
0010
1000
0010
1000
0010
,
0100
0001
0100
0001
0100
0001
0100
0001
0010
0001
0010
0001
0010
0001
0010
0001
,
1000
0100
1000
0100
1000
0100
1000
0100
0001
0100
0001
0100
0001
0100
0001
0100
,
1000
0010
1000
0010
1000
0010
1000
0010
0100
0001
0100
0001
0100
0001
0100
0001
,
1000
0000
0000
0000
;
