#TITLE:Radio Girl. Escapist;
#SUBTITLE:;
#ARTIST:DJKurara;
#TITLETRANSLIT:;
#SUBTITLETRANSLIT:;
#ARTISTTRANSLIT:;
#CREDIT:;
#BANNER:../Jawn - ban.png;
#BACKGROUND:../Jawn - bg.png;
#LYRICSPATH:;
#CDTITLE:;
#MUSIC:Radio Girl. Escapist.ogg;
#OFFSET:0.009;
#SAMPLESTART:51.000;
#SAMPLELENGTH:15.000;
#SELECTABLE:YES;
#BPMS:0.000=240.000;
#STOPS:;
#BGCHANGES:;
// cache tags:
#FIRSTBEAT:4.000;
#LASTBEAT:652.500;
#SONGFILENAME:Songs/Jimmy Jawns/Radio Girl. Escapist - [Aoreo]/Radio Girl. Escapist.sm;
#HASMUSIC:1;
#HASBANNER:1;
#MUSICLENGTH:165.000;
// end cache tags

//---------------dance-single - J. Nero (18+)----------------
#NOTES:
     dance-single:
     J. Nero (18+):
     Challenge:
     18:
     1.000,1.000,0.115,0.764,1.000,1660.000,19.000,126.000,0.000,0.000:
0000
0000
0000
0000
,
1000
0100
1000
0001
1000
0010
0100
0001
,
1000
0001
0010
0100
1000
0010
1000
0001
,
0100
0001
1000
0001
0010
0100
1000
0001
,
0100
0010
0100
0001
1000
0100
0010
0001
,
0100
0001
1000
0010
0100
0010
1000
0001
,
0100
0001
1000
0100
0010
0001
1000
0010
,
2000
3000
0000
0000
0000
0000
0000
0000
2020
3030
0000
0000
0000
0000
0000
0000
,
0220
0330
0000
0000
0202
0303
0000
0000
2002
3003
0000
0000
2000
0000
3000
0000
,
0001
0100
0001
1000
0010
0100
0010
1000
0001
0100
0001
1000
0100
0010
0100
1000
,
0001
1000
0001
0010
0100
1000
0001
0010
0001
1000
0010
0100
0010
1000
0001
0100
,
0001
0100
0010
1000
0001
0100
0001
1000
0100
0010
0001
1000
0010
1000
0001
0100
,
0001
1000
0100
1000
0001
0010
0100
1000
0001
0010
0001
1000
0010
1000
0001
0100
,
0001
1000
0100
0010
0001
1000
0100
1000
0001
0100
0010
0100
0001
1000
0100
0010
,
0001
1000
0001
0100
0010
0100
0001
1000
0001
0010
0100
1000
0001
0010
0001
1000
,
0100
1000
0001
1000
0010
0100
0010
1000
0001
0100
0001
1000
0001
0010
0100
1000
,
0001
0100
0001
1000
0100
0010
0001
0100
0001
1000
0010
0100
0010
1000
0001
0010
,
0200
0300
1000
0000
0001
0000
0100
0000
0010
0000
0100
0000
0001
0000
1000
0000
,
0100
0010
0001
0100
0001
0010
0100
1000
,
2002
3003
0001
0000
0100
0000
0001
0000
1000
0000
0100
0000
0010
0000
0001
0000
,
0100
0000
0001
0000
2000
0000
3010
0000
0100
0000
0001
1000
0001
0000
0010
0000
,
0100
1000
0001
0100
0001
1000
0010
0100
0001
0100
0010
1000
0001
0010
0001
1000
,
0100
0010
0001
1000
0100
1000
0001
1000
0010
0100
0010
1000
0001
0100
0001
1000
,
0001
0010
0100
1000
0001
0100
0001
1000
0010
0100
0010
1000
0001
1000
0100
0010
,
0001
1000
0001
0100
0010
0100
0001
1000
0001
0010
0100
0010
0001
1000
0100
1000
,
0001
1000
0010
0100
0010
1000
0001
0100
0010
0100
0001
1000
0001
1000
0010
0100
,
0001
0100
0010
1000
0001
0010
0100
0010
0001
1000
0100
0010
0001
1000
0100
1000
,
0001
0100
0001
1000
0010
0100
0010
1000
0001
0100
0001
1000
0100
0010
0001
1000
,
0010
1000
0001
0000
1000
0100
0010
0000
0002
0000
0003
0000
2000
0000
3000
0000
,
0001
0100
0001
1000
0001
0100
0010
0100
0001
1000
0100
1000
0001
0010
0100
0010
,
0001
1000
0100
1000
0001
1000
0010
0100
0010
1000
0001
0100
0001
1000
0010
0100
,
0010
1000
0001
0100
0001
1000
0100
0010
0001
1000
0100
1000
0001
0100
0001
1000
,
0001
0100
0010
0100
0001
1000
0001
1000
0010
0100
0001
1000
0100
0010
0001
1000
,
0100
1000
0001
0100
0010
0100
0001
1000
0001
0010
0100
1000
0001
0100
0001
1000
,
0100
1000
0001
0010
0100
1000
0001
0100
0010
0100
0001
1000
0100
0010
0001
1000
,
0001
0100
0010
1000
0010
0000
1000
0100
0010
0001
1000
0000
0001
0000
0100
0000
,
0001
0010
0100
0000
1000
0100
0040
0000
0000
0000
0030
0000
0001
0000
0000
0000
,
1000
0000
0000
0000
0200
0300
0000
0000
2000
3000
0000
0000
0020
0030
2000
3000
,
0200
0300
0020
0030
0100
0000
2000
3000
0001
0000
0200
0300
0002
0003
0020
0030
,
0200
0300
0000
0000
2000
3000
0200
0300
1000
0000
0002
0003
0200
0300
0000
0000
,
0001
0000
0000
0000
1000
0000
0000
0000
0001
0000
0000
0000
0020
0030
0002
0003
,
0200
0300
0000
0000
0010
0000
0000
0000
1000
0000
0200
0300
2000
3000
0002
0003
,
0200
0300
0000
0000
0001
0000
0000
0000
0010
0000
0000
0000
0200
0300
2000
3000
,
0002
0003
0000
0000
0100
0000
0000
0000
0020
0030
2000
3000
0200
0300
0020
0030
,
0002
0003
0000
0000
1001
0000
0000
0000
1010
0000
0000
0000
0010
0000
0400
0000
,
0301
1000
0100
0010
0100
1000
0010
0100
,
0010
1000
0100
0010
0001
1000
0010
1000
,
0100
0010
0001
1000
0001
0100
0001
1000
,
0010
0000
0100
0000
0010
0000
1000
0000
0002
0003
2000
0000
3400
0300
0040
0030
,
0002
0003
2000
0000
0002
3000
0103
0000
0010
0000
1000
0000
0100
0000
0010
0000
,
0002
0000
0203
0000
0302
0000
0203
0000
0310
1000
0010
0100
0001
0000
1000
0000
,
0001
0010
0001
1000
0000
0001
0010
0001
,
0000
1001
0000
0000
0000
0000
0000
0000
,
0000
0000
0000
0000
0000
1001
0000
0000
,
1000
0100
1000
0001
1000
0010
0100
0010
1000
0001
0100
0001
1000
0010
0100
0001
,
0100
0001
1000
0010
0100
0001
1000
0001
1000
0010
0100
0001
1000
0001
0010
0100
,
1000
0001
0010
0001
1000
0100
1000
0001
1000
0010
0100
0010
1000
0001
0100
0001
,
1000
0100
0010
0001
1000
0100
1000
0001
0100
0001
1000
0100
0010
0001
1000
0010
,
1000
0001
0010
0100
1000
0001
1000
0001
0100
0010
0100
0001
1000
0001
0010
0100
,
1000
0001
0100
0001
1000
0010
0100
0010
1000
0001
0100
0001
1000
0100
0010
0001
,
1000
0100
1000
0001
0010
0001
1000
0100
1000
0001
1000
0010
0100
0010
1000
0001
,
1000
0100
0010
0001
0100
0001
1000
0010
0100
0010
1000
0001
0010
0100
1000
0010
,
1000
0001
0100
0001
1000
0010
0100
0001
0100
0001
1000
0010
0100
0001
1000
0001
,
0010
0100
1000
0001
0100
0010
0100
0001
1000
0100
1000
0001
0100
0001
1000
0100
,
0010
0001
1000
0010
1000
0001
0100
0010
0100
0001
1000
0100
0010
0001
1000
0100
,
1000
0001
0100
0010
0100
0001
1000
0100
0010
0001
1000
0010
1000
0001
0010
0100
,
1000
0001
0100
0001
1000
0010
0100
0010
1000
0001
0010
0001
1000
0100
0010
0001
,
1000
0001
0100
0010
0100
0001
1000
0010
1000
0001
0010
0100
1000
0001
0010
0001
,
1000
0010
1000
0001
0100
0001
1000
0010
1000
0001
0010
0100
0010
0001
1000
0001
,
0100
0010
0100
0001
1000
0001
0100
0010
1000
0001
0010
0001
1000
0100
0010
0001
,
1000
0100
1000
0010
0100
0010
1000
0001
0100
0001
0010
0100
1000
0001
0100
0001
,
1000
0100
0010
0001
1000
0010
1000
0001
0100
0001
0010
0100
1000
0001
0100
0010
,
2000
0000
3000
0000
,
0000
0000
0000
0000
,
0001
0100
0001
1000
0000
0100
0010
0001
,
0000
1000
0010
0100
0000
0000
0000
0000
,
0001
0100
0001
0010
0000
0100
1000
0010
,
0000
0100
0001
0010
0000
0000
0000
0000
,
0100
1000
0001
0100
0000
0001
1000
0100
,
0000
0010
0001
1000
0000
0000
0000
0000
,
0001
0100
0001
1000
0000
0010
1000
0010
,
0000
0100
0001
1000
0000
0000
0000
0000
,
0000
0000
0000
0000
0001
0000
1000
0100
,
0000
0000
1000
0000
0001
0000
0100
0001
,
0000
1000
0001
0010
0100
0000
1000
0000
,
0100
1000
0000
0010
0000
0000
1000
0010
,
0000
0100
0001
0010
0100
0000
1000
0000
,
0001
0100
0001
1000
,
0100
0000
0010
0000
0001
1000
0001
0100
,
0010
0000
0100
0000
0001
0000
1000
0000
0100
0010
0001
1000
0001
0100
0010
0100
,
0001
0000
0000
0000
0000
0000
0000
0000
1000
0100
1000
0001
0100
0001
0100
0010
,
1000
0001
0100
0001
1000
0100
0010
0001
1000
0100
1000
0001
0100
0001
1000
0010
,
0100
0010
1000
0001
1000
0010
0100
0010
1000
0001
0010
0100
1000
0001
0010
0001
,
1000
0100
1000
0001
0100
0001
1000
0001
0100
0010
0100
0001
1000
0100
1000
0001
,
0100
0001
0100
0010
1000
0001
1000
0100
0010
0001
1000
0001
1000
0010
0100
0010
,
1000
0001
0100
0001
1000
0010
0100
0010
1000
0001
1000
0100
1000
0001
0010
0001
,
1000
0100
0010
0001
1000
0100
1000
0001
0100
0010
0100
0001
1000
0001
0100
0010
,
0100
0001
1000
0010
1000
0001
0010
0100
1000
0001
0100
0001
1000
0010
1000
0001
,
0100
0000
0001
0000
0000
0000
1000
0000
0001
0100
0001
1000
0010
0100
0010
1000
,
0001
1000
0100
0010
0001
1000
0100
1000
0001
1000
0010
0100
0010
1000
0001
0100
,
0001
0100
0010
1000
0001
0100
0010
0100
0001
1000
0001
0100
0010
1000
0001
0100
,
0001
1000
0100
0010
0001
1000
0100
1000
0001
0100
0001
1000
0001
0100
0010
0100
,
0001
1000
0001
0010
0100
1000
0001
1000
0010
0100
0010
1000
0001
0100
0001
1000
,
0100
0010
0100
1000
0001
0100
0001
1000
0001
0100
0010
0100
0001
1000
0100
0010
,
0001
1000
0001
1000
0010
0100
0010
1000
0001
0100
0001
1000
0100
0000
0010
0000
,
0001
1000
0001
0100
0010
0000
0100
0000
0002
0000
0000
0000
0003
0000
0000
0000
,
0000
0000
0000
0000
0000
0000
0000
0000
1000
0000
0000
0000
0200
0300
0000
0000
,
2000
3000
0000
0000
0002
0003
0200
0300
0001
0000
0020
0030
0200
0300
0000
0000
,
1000
0000
0000
0000
0001
0000
0000
0000
2000
3000
0000
0000
0020
0030
2000
3000
,
0001
0000
0020
0030
0002
0003
0000
0000
1000
0000
0000
0000
0010
0000
0000
0000
,
0100
0000
0002
0003
0020
0030
0200
0300
2000
3000
0000
0000
0010
0000
0200
0300
,
0002
0003
0000
0000
1000
0000
0000
0000
0010
0000
0000
0000
1000
0000
0000
0000
,
0100
0000
2000
3000
0020
0030
2000
3000
0002
0003
0000
0000
1000
0000
0020
0030
,
0200
0300
0000
0000
0010
0000
0000
0000
1000
0000
0001
0000
0010
0000
0100
0000
,
1000
0000
0001
0000
0100
0001
0010
0100
2000
3000
0001
0000
2000
3000
0020
0030
,
0100
0000
0010
0000
1000
0000
0100
0000
0010
0000
0002
0003
0100
0000
0001
0000
,
2000
3000
0010
0000
0200
0300
0010
0000
2000
3000
0001
0000
0200
0300
0001
0000
,
2000
3000
0100
0000
0020
0030
0002
0003
1000
0000
0010
0000
0100
0000
0010
0000
,
1000
0000
0001
0000
0100
0001
1000
0001
0020
0000
0230
0000
0320
0000
0230
0000
,
0320
0230
0320
0032
2003
3002
2003
3002
,
2003
0000
0000
0000
0000
0000
3020
0000
0000
0000
0000
0000
0030
0000
0000
0000
0000
0000
2000
0000
0000
0000
0000
0000
3200
0000
0000
0000
0300
0000
0020
0000
0000
0030
0000
0000
0002
0000
0000
0003
0000
0000
1000
0000
0000
0000
0000
0000
,
0010
1000
0010
0100
0001
0000
1000
0000
0200
0300
0000
0000
0200
0300
0000
0000
,
1000
0001
1000
0000
0001
0000
0100
0000
0202
0000
0303
0000
0000
0000
0000
0000
,
0000
0000
0000
0000
,
0000
0000
0000
0000
2002
3003
0000
0000
,
0000
0000
0000
0000
,
0000
0000
2000
3000
2000
3000
0000
0000
,
0000
0000
0000
0000
,
0000
0000
0000
0000
0002
0003
0000
0000
,
0000
0000
0000
0000
,
2000
3000
2000
3000
0200
0310
0001
1000
,
0001
0100
0010
0100
0001
0010
0100
1000
,
0001
0100
0010
0100
0001
1000
0100
0010
,
0001
1000
0001
0100
0010
0100
0001
1000
,
0001
0000
0010
0000
0100
1000
0001
0100
0001
1000
0010
0100
0010
1000
0001
1000
,
0001
0100
0010
0100
0001
1000
0100
0010
0001
1000
0100
1000
0001
0100
0001
1000
,
0010
0100
0010
1000
0001
1000
0001
0100
0010
1000
0001
0100
0010
0100
0001
1000
,
0100
0010
0001
1000
0100
1000
0001
0100
0001
1000
0100
0010
0001
1000
0001
0100
,
0002
0003
2000
3000
0002
0003
0200
0300
0010
1000
0001
0100
0001
1000
0001
0100
,
0010
0100
0001
1000
0001
1000
0010
0100
0010
1000
0001
0100
0001
1000
0100
0010
,
0001
1000
0100
1000
0001
0100
0001
1000
0010
0100
0010
1000
0001
0010
0100
0010
,
0001
1000
0100
1000
0001
1000
0010
0100
0010
1000
0001
0100
0001
1000
0100
0010
,
0001
1000
0100
1000
0001
0100
0010
0100
0001
1000
0001
0010
0100
1000
0001
0010
,
0001
1000
0010
1000
0001
0100
0001
0100
0010
1000
0001
0100
0001
1000
0100
0010
,
0001
1000
0100
1000
0001
0100
0001
1000
0010
0100
0010
1000
0001
0100
0001
1000
,
0100
0010
0001
1000
0100
1000
0001
0100
0001
0000
0000
0000
1000
0000
0001
0000
,
0100
0000
0000
0000
0100
0000
0001
0000
1000
0001
1000
0010
0100
0010
1000
0001
,
1000
0001
0100
0010
0100
0001
1000
0100
1000
0001
1000
0010
0100
0010
1000
0001
,
0100
0001
0100
0010
1000
0001
1000
0100
0010
0001
1000
0100
1000
0001
0100
0001
,
1000
0001
0100
0010
0100
0001
1000
0100
0010
0001
1000
0001
0100
0010
1000
0010
,
0100
0001
0100
0001
1000
0010
0100
0001
1000
0100
0010
0001
0100
0001
1000
0010
,
0100
0001
1000
0010
1000
0001
0100
0001
1000
0010
1000
0001
0010
0100
1000
0010
,
0100
0001
0100
0001
1000
0100
1000
0001
0010
0100
1000
0010
0100
0010
1000
0001
,
0010
0100
1000
0010
0100
0010
1000
0001
4000
3000
0400
0300
0040
0030
0004
0003
,
0400
0000
0300
0000
0001
0000
1000
0001
1000
0000
0001
0000
0100
0000
0001
0000
,
1000
0100
0010
0001
1000
0010
0100
0010
,
1000
0100
0010
0001
1001
1000
0100
1000
,
0010
0100
0010
1000
0001
0010
0100
1000
,
0001
0100
0010
0100
0101
0001
0010
0100
,
1000
0001
0100
0010
0100
0001
1000
0100
,
0010
0001
1000
0010
1010
0000
0000
1001
,
0000
0000
1100
0000
0000
0110
0000
0000
,
0011
0000
0001
2000
0000
0000
0000
0000
,
0000
3000
0000
0000
0000
0000
0000
0000
;
