#TITLE:SPEEDKORIS ME;
#SUBTITLE:The BOSS Song of owenviau1;
#ARTIST:DJKurara;
#TITLETRANSLIT:;
#SUBTITLETRANSLIT:;
#ARTISTTRANSLIT:;
#CREDIT:;
#BANNER:../owenviau1 Simfiles 6 (Science X Owen).png;
#BACKGROUND:BG.PNG;
#LYRICSPATH:;
#CDTITLE:;
#MUSIC:DJ Kurara - SPEEDKORIS ME.mp3;
#OFFSET:-0.138;
#SAMPLESTART:43.338;
#SAMPLELENGTH:29.999;
#SELECTABLE:YES;
#BPMS:0.000=400.000;
#STOPS:;
#BGCHANGES:;
// cache tags:
#FIRSTBEAT:0.000;
#LASTBEAT:1181.000;
#SONGFILENAME:Songs/owenviau1 Simfiles 6/SPEEDKORIS ME - [owenviau1] v1.0.5/SPEEDKORIS ME.sm;
#HASMUSIC:1;
#HASBANNER:1;
#MUSICLENGTH:177.629;
// end cache tags

//---------------dance-single - 24 (owenviau1)----------------
#NOTES:
     dance-single:
     24 (owenviau1):
     Hard:
     24:
     1.000,1.000,0.124,0.073,0.932,2440.000,22.000,13.000,63.000,0.000:
1000
0100
0010
0001
1000
0001
0100
0010
,
1000
0001
0010
0001
1000
0100
1000
0010
,
0100
0001
0100
0010
1000
0001
0010
0001
,
1000
0100
1000
0001
0100
0010
1000
0001
,
0010
0001
1000
0100
0010
0001
0100
0010
,
1000
0001
0100
0001
1000
0010
1000
0001
,
0100
0010
1000
0100
0010
0001
1000
0100
,
1000
0001
0100
0010
1000
0001
4000
0010
,
3100
0001
1000
0010
0100
0001
1000
0100
,
1000
0001
0100
0010
1000
0001
0010
0001
,
1000
0100
0010
0001
0100
0010
1000
0001
,
0100
0001
1000
0010
1000
0001
0100
0010
,
1000
0001
0010
0001
1000
0100
0010
0001
,
0100
0010
1000
0001
0010
0001
0100
0010
,
1000
0100
0010
0001
0100
0010
1000
0010
,
0100
0001
1000
0001
0040
0130
1000
0004
,
0103
0010
1000
0001
0010
0001
0100
0010
,
1000
0001
0010
0001
1000
0100
1000
0010
,
0100
0010
1000
0001
0100
0001
1000
0100
,
0010
0001
0010
0100
1000
0001
0010
0001
,
1000
0100
0010
0001
1000
0010
1000
0001
,
0100
0010
1000
0001
0010
0001
0100
0010
,
1000
0001
0010
0001
1000
0010
0100
0010
,
1000
0100
0010
0001
1000
0010
0100
0010
1000
0001
0100
0001
,
1000
0010
0100
0010
1000
0001
0100
0001
,
1000
0100
0010
0001
0100
0010
1000
0001
,
0010
0001
0100
0010
1000
0100
1000
0001
,
0100
0010
1000
0001
0010
0001
0100
0010
,
1000
0100
1000
0001
0100
0010
1000
0001
,
0010
0001
0100
0010
1000
0100
1000
0001
,
0100
0001
0100
0010
1000
0001
4000
3010
,
0100
0000
0000
0010
0000
0000
0001
0000
0000
0100
0000
0000
0010
0000
1000
0000
0010
0000
4000
0040
0000
0000
0000
0000
,
3031
0100
0001
1000
0010
0100
0010
1000
,
0001
0010
0001
0100
0010
1000
0100
0010
,
0001
0100
0010
1000
0001
0010
0001
1000
,
0010
1000
0001
0100
0010
1000
0001
0010
,
0001
1000
0100
1000
0001
0100
0010
1000
,
0001
0010
0001
0100
0010
1000
0100
0010
,
0001
1000
0010
1000
0001
0100
0001
1000
,
0010
0100
0010
1000
0001
0010
0001
1000
,
0100
0010
0001
0100
0010
0100
0001
1000
,
0010
0100
0010
1000
0001
1000
0010
0100
,
0001
1000
0100
0010
0001
1000
0100
1000
,
0001
0000
0000
0100
0000
0000
0010
0000
0000
1000
0000
0000
0001
0000
0000
0010
0000
0000
0100
0000
1000
0000
0100
0000
,
1000
0100
0010
0001
0100
0010
4000
3001
,
0100
0000
0000
0010
0000
0000
1000
0000
0000
0100
0000
0000
0010
0000
0000
0001
0000
0000
0010
0000
0100
0000
0010
0000
,
0100
0000
0000
0001
0000
0000
4000
0000
0000
0100
0000
0000
3010
0000
0000
0001
0000
0000
0100
0000
0010
0000
1000
0000
,
0001
0100
0001
1000
0100
0010
0001
0100
0010
1000
0001
0100
,
0001
1000
0010
1000
0001
0100
0010
1000
,
0001
0010
0001
0100
0010
1000
0100
1000
,
0001
0100
0010
1000
0100
0010
0001
1000
,
0010
1000
0001
0100
0010
1000
0010
0100
,
0001
1000
0100
1000
0001
0010
0001
0100
,
0010
1000
0010
0100
0001
1000
0100
0010
,
0001
0010
0100
1000
0001
0100
0001
1000
,
0010
1000
0001
0100
0010
1000
0001
0010
,
0001
1000
0100
0010
0001
0100
0010
0100
,
0001
1000
0100
0010
0001
1000
0010
1000
,
0100
0010
0001
0100
0001
1000
0010
0100
,
0010
1000
0001
0010
0001
1000
0100
1000
,
0010
0100
0001
0100
0010
1000
0001
0010
,
0001
1000
0100
0010
0001
0100
0010
0100
,
0001
1000
0001
0010
0100
1000
0001
1000
,
0010
0100
0001
0100
0010
1000
0001
0100
,
0000
0000
0000
0000
,
MMMM
M00M
M00M
M00M
M00M
M00M
M00M
M00M
MMMM
0000
0000
0000
0000
0000
0000
0000
,
0000
0000
MMMM
M000
M000
M000
MMMM
M000
M000
M000
M000
0000
0000
0000
0000
0000
,
0000
0000
0000
0000
,
0000
0000
0000
0000
,
0000
0000
0000
0000
,
0000
0000
0000
0000
0000
0000
0000
0000
MMMM
M000
M000
MMMM
M000
M000
M000
0000
,
0002
0000
0000
0003
0000
0000
1000
0001
1000
0001
1000
0001
,
1000
0010
0100
0001
1000
0001
0010
0100
,
1000
0000
0001
0000
0100
0000
0001
0000
1000
0000
0010
0000
0100
0000
0001
1000
,
0001
0100
0010
1000
0001
0010
0001
0100
,
0010
0000
1000
0000
0100
0000
1000
0000
0001
0000
0100
0000
0010
1000
0001
0100
,
0001
1000
0010
1000
0001
0100
0010
1000
,
0001
0000
0010
0000
0001
0000
0100
0000
0010
0000
1000
0001
1000
0000
0010
0100
,
0010
1000
0001
0100
0001
1000
0010
0100
,
0010
0000
1000
0000
0001
0000
0010
0000
0100
0000
1000
0010
1000
0000
0001
0100
,
0001
1000
0100
0010
0001
0100
0010
0100
,
0001
0000
0010
0000
0100
0000
1000
0000
0001
0000
0010
0000
0001
0000
1000
0010
,
0100
0001
0100
0010
1000
0001
0010
0001
,
0100
0000
0010
0000
1000
0000
0100
0000
0010
0000
0001
0000
1000
0010
0100
0001
,
1000
0010
0100
0010
1000
0001
0010
0001
,
0100
0000
0010
0000
1000
0000
0100
0000
0010
0000
0001
0100
0001
0000
1000
0100
,
1000
0010
0100
0001
1000
0001
0010
0001
,
0100
0000
0010
0000
1000
0000
0001
0000
0100
0010
1000
0001
4000
0000
0040
0000
,
3130
0001
1000
0010
0100
0010
1000
0001
,
0010
0000
0001
0000
0100
0000
0010
0000
1000
0000
0100
0000
0010
0000
0001
1000
,
0001
0100
0010
1000
0001
0010
0001
0100
,
0010
0000
1000
0000
0100
0000
1000
0000
0001
0000
0100
0000
0010
1000
0010
0100
,
0001
1000
0010
0100
0010
1000
0001
0100
,
0001
0000
1000
0000
0100
0000
0010
0000
0001
0000
1000
0100
1000
0000
0001
0010
,
0001
0100
0010
1000
0010
0100
0001
1000
,
0001
0000
0100
0000
0010
0000
1000
0000
0001
0000
1000
0000
0100
0000
0010
0000
0001
0000
0400
0000
0000
0040
0000
0000
,
1330
0001
1000
0010
0100
0001
1000
0010
,
0100
0000
0010
0000
1000
0000
0100
0000
0010
0000
0001
0000
0010
0000
0100
1000
,
0100
0010
0001
0100
0010
1000
0001
0100
,
0001
0000
0000
1000
0000
0000
0010
0000
0000
0100
0000
0000
0010
0000
1000
0000
0001
0000
0100
0000
0010
0000
1000
0000
,
0001
0100
0010
0100
0001
1000
0100
0010
,
0001
0000
0000
0100
0000
0000
0010
0000
0000
1000
0000
0000
0010
0000
0000
0100
0000
0000
0001
0000
1000
0000
0010
0000
,
0100
0000
0010
0000
1000
0000
0004
0000
0000
0400
0000
0000
0313
0000
0000
1000
0000
0000
0040
0000
0000
0400
0000
0000
,
0331
1000
0010
0100
0010
1000
0001
0100
0001
1000
0100
0010
,
0001
0010
0100
0010
1000
0001
0100
0001
,
1000
0100
0010
0001
0100
0010
1000
0001
,
0100
0001
1000
0010
0100
0010
1000
0001
,
0010
0001
0100
0010
1000
0001
0400
0040
,
1330
0001
0100
0010
1000
0001
0010
0001
,
0100
0010
1000
0001
0010
0001
0100
0010
,
1000
0001
0100
0001
1000
0010
0100
0001
,
4000
0000
3400
0000
0340
0000
0034
0000
0403
0000
0340
0000
4030
0000
3004
0000
0403
0000
0301
0000
0000
0010
0000
0000
,
0100
0001
1000
0010
0100
0010
1000
0001
,
0100
0001
1000
0100
0010
0001
0100
0010
,
1000
0001
0010
0001
0100
0010
1000
0100
,
1000
0000
0001
0000
0100
0000
0010
0000
1000
0100
0010
0001
0400
0040
0000
0000
,
1330
0001
0100
0001
1000
0010
0100
0010
,
1000
0001
0100
0001
1000
0100
0010
0001
,
0100
0010
1000
0001
0010
0001
0100
0010
,
1000
0100
0010
0001
1000
0010
0100
0010
1000
0001
0100
0001
,
1000
0001
0100
0010
1000
0001
0010
0001
,
0100
0010
1000
0100
1000
0001
0010
0001
,
0100
0010
1000
0100
0010
0001
0100
0010
,
1000
0001
0010
0001
0100
0010
4000
0004
,
3103
0010
1000
0010
0100
0001
1000
0100
,
1000
0001
0100
0010
1000
0001
0010
0001
,
0100
0010
1000
0100
1000
0001
0100
0010
,
1000
0000
0100
0000
0010
0000
0001
0000
0100
0000
0010
0000
1000
0000
0001
0000
0100
0000
0010
0000
0000
0001
0000
0000
,
0100
0010
1000
0001
0010
0001
0100
0010
,
1000
0001
0010
0001
0100
0010
1000
0001
,
0100
0001
1000
0010
0100
0010
1000
0001
,
0010
0001
0100
0010
1000
0001
4000
0040
,
3130
0001
1000
0010
0100
0010
1000
0001
,
0010
0001
0100
0010
1000
0100
0010
0001
,
0010
0000
0000
0100
0000
0000
4000
0000
0000
3001
0000
0000
0100
0000
0000
0001
0000
0000
4000
0000
0010
3000
0100
0000
,
0001
0010
0001
1000
0100
0010
0001
0100
0010
1000
0001
0100
,
0001
0100
0010
0001
1000
0001
0100
0010
,
1000
0001
0010
0001
1000
0100
1000
0010
,
0100
0001
0100
0010
1000
0001
0010
0001
,
1000
0100
1000
0001
0100
0010
1000
0001
,
0010
0001
1000
0100
0010
0001
0100
0010
,
1000
0001
0100
0001
1000
0010
1000
0001
,
0100
0010
1000
0100
0010
0001
1000
0100
,
1000
0001
0100
0010
1000
0001
0100
0001
,
1000
0010
0100
0010
1000
0001
0010
0001
,
0100
0010
1000
0100
1000
0001
0100
0010
,
1000
0001
0010
0001
0100
0010
1000
0100
,
0010
0001
0100
0001
1000
0010
0100
0010
,
1000
0001
0010
0001
0100
0010
1000
0100
,
0010
0001
0100
0001
1000
0010
0100
0010
,
1000
0001
0010
0001
0100
0010
1000
0100
,
1000
0001
0100
0010
1000
0010
0100
0001
,
1000
0001
0100
0010
1000
0001
0010
0001
,
1000
0100
1000
0010
0100
0001
0100
0010
,
1000
0001
0010
0001
1000
0100
1000
0001
,
0100
0010
1000
0001
0010
0001
1000
0100
,
0010
0001
0100
0010
1000
0001
0100
0001
,
1000
0010
1000
0001
0100
0010
1000
0100
,
0010
0001
1000
0100
1000
0001
0100
0010
,
1000
0001
0100
0001
1000
0010
0100
0010
,
1000
0001
0010
0001
0100
0010
1000
0100
,
1000
0001
0100
0010
1000
0001
0010
0001
,
0100
0010
1000
0100
0010
0001
0100
0001
,
1000
0010
0100
0010
1000
0001
0010
0001
,
0100
0010
1000
0100
0010
0001
0100
0001
,
1000
0010
0100
0010
1000
0001
0010
0001
,
1000
0100
0010
0001
1000
0010
0100
0010
1000
0001
0100
0001
,
1000
0100
0010
0001
0100
0010
1000
0001
0010
0001
0100
0010
,
1000
0001
0100
0010
1000
0001
0010
0001
,
1000
0100
1000
0010
0100
0001
0100
0010
,
1000
0001
0010
0001
1000
0100
1000
0001
,
0100
0010
1000
0001
0010
0001
1000
0100
,
0010
0001
0100
0010
1000
0001
0100
0001
,
1000
0010
1000
0001
0100
0010
1000
0100
,
0010
0001
1000
0100
1000
0001
0100
0010
,
1000
0001
0100
0001
1000
0010
0100
0010
,
1000
0001
0010
0001
0100
0010
1000
0100
,
1000
0001
0100
0010
1000
0001
0010
0001
,
0100
0010
1000
0100
0010
0001
0100
0001
,
1000
0010
0100
0010
1000
0001
0010
0001
,
0100
0010
1000
0100
0010
0001
0100
0001
,
1000
0010
0100
0010
1000
0001
0010
0001
,
0100
0010
1000
0100
1000
0001
0100
0010
,
1000
0010
0100
0001
1000
0001
0100
0010
,
2M00
3001
0010
0001
1000
0100
1000
0010
,
0100
0001
0100
0010
1000
0001
0010
0001
,
1000
0100
1000
0001
0100
0010
1000
0001
,
0010
0001
1000
0100
0010
0001
0100
0010
,
1000
0001
0100
0001
1000
0010
1000
0001
,
0100
0010
1000
0100
0010
0001
1000
0100
,
1000
0001
0100
0010
1000
0001
0100
0001
,
1000
0010
0100
0010
1000
0001
0010
0001
,
M200
0310
1000
0100
1000
0001
0100
0010
,
1000
0001
0010
0001
0100
0010
1000
0100
,
M020
0031
0100
0001
1000
0010
0100
0010
,
1000
0001
0010
0001
0100
0010
1000
0100
,
M020
0031
0100
0001
1000
0010
0100
0010
,
2M00
3001
0010
0001
0100
0010
1000
0100
,
20M0
3001
0100
0010
200M
3010
0100
0001
,
20M0
3100
M020
0031
M200
032M
4M30
0004
,
3103
0010
0100
0001
1000
0001
0010
0100
,
1000
0000
0001
0000
0100
0000
0001
0000
1000
0000
0010
0000
0100
0000
0001
1000
,
0001
0100
0010
1000
0001
0010
0001
0100
,
0010
0000
1000
0000
0100
0000
1000
0000
0001
0000
0100
0000
0010
1000
0001
0100
,
0001
1000
0010
1000
0001
0100
0010
1000
,
0001
0000
0010
0000
0001
0000
0100
0000
0010
0000
1000
0001
1000
0000
0010
0100
,
0010
1000
0001
0100
0001
1000
0010
0100
,
0010
0000
1000
0000
0001
0000
0010
0000
0100
0000
1000
0010
1000
0000
0001
0100
,
0001
1000
0100
0010
0001
0100
0010
0100
,
0001
0000
0010
0000
0100
0000
1000
0000
0001
0000
0010
0000
0001
0000
1000
0010
,
0100
0001
0100
0010
1000
0001
0010
0001
,
0100
0000
0010
0000
1000
0000
0100
0000
0010
0000
0001
0000
1000
0010
0100
0001
,
1000
0010
0100
0010
1000
0001
0010
0001
,
0100
0000
0010
0000
1000
0000
0100
0000
0010
0000
0001
0100
0001
0000
1000
0100
,
1000
0010
0100
0001
1000
0001
0010
0001
,
0100
0000
0010
0000
1000
0000
0001
0000
0100
0010
1000
0001
4000
0000
0040
0000
,
3130
0001
1000
0010
0100
0010
1000
0001
,
0010
0000
0001
0000
0100
0000
0010
0000
1000
0000
0100
0000
0010
0000
0001
1000
,
0001
0100
0010
1000
0001
0010
0001
0100
,
0010
0000
1000
0000
0100
0000
1000
0000
0001
0000
0100
0000
0010
1000
0010
0100
,
0001
1000
0010
0100
0010
1000
0001
0100
,
0001
0000
1000
0000
0100
0000
0010
0000
0001
0000
1000
0100
1000
0000
0001
0010
,
0001
0100
0010
1000
0010
0100
0001
1000
,
0001
0000
0100
0000
0010
0000
1000
0000
0001
0000
0010
0000
0001
0000
0100
0000
0010
0000
4000
0000
0000
0004
0000
0000
,
3103
0010
1000
0001
0100
0001
1000
0010
,
0100
0000
0010
0000
1000
0000
0100
0000
0010
0000
0001
0000
0010
0000
0100
1000
,
0100
0010
0001
0100
0010
1000
0001
0100
,
0001
0000
0000
1000
0000
0000
0010
0000
0000
0100
0000
0000
0010
0000
1000
0000
0001
0000
0100
0000
0010
0000
1000
0000
,
0010
0100
0001
0100
0010
1000
0001
0010
,
0001
0000
0000
0100
0000
0000
0010
0000
0000
1000
0000
0000
0010
0000
0000
0100
0000
0000
1000
0000
0001
0000
0100
0000
,
0010
0000
1000
0000
0001
0000
0400
0000
0000
0040
0000
0000
1330
0000
0000
0001
0000
0000
0400
0000
0000
0004
0000
0000
,
1303
0010
0100
0010
1000
0001
0100
0001
1000
0100
0010
0001
,
0100
0010
1000
0001
0010
0001
0100
0010
1000
0100
0010
0001
,
1000
0100
1000
0001
0100
0010
1000
0001
0010
0001
0100
0010
,
1000
0100
0010
0001
1000
0100
1000
0001
0100
0010
0100
0001
,
1000
0100
0010
0001
1000
0010
0100
0010
1000
0001
0100
0001
,
1000
0100
0010
0001
0100
0010
1000
0001
0010
0001
1000
0100
,
1000
0001
0100
0010
1000
0010
0100
0001
0010
0001
1000
0100
,
0010
0001
0100
0010
1000
0001
0100
0001
1000
0010
0100
0010
,
1000
0001
0010
0001
0100
0010
1000
0100
0010
0001
1000
0100
,
1000
0010
0100
0010
1000
0001
0100
0001
1000
0100
0010
0001
,
0100
0010
1000
0001
0010
0001
0100
0010
1000
0100
0010
0001
,
1000
0100
1000
0001
0100
0010
1000
0001
0010
0001
0100
0010
,
1000
0100
0010
0001
1000
0100
1000
0001
0100
0010
0100
0001
,
1000
0100
0010
0001
1000
0010
0100
0010
1000
0001
0100
0001
,
1000
0100
0010
0001
0100
0010
1000
0001
0010
0001
1000
0100
,
1000
0001
0100
0010
1000
0010
0100
0001
0010
0001
1000
0100
,
0010
0001
0100
0010
1000
0001
0100
0001
1000
0010
0100
0010
,
1000
0001
0100
0010
1000
0001
0010
0001
,
1000
0010
1000
0001
0010
0001
0100
0010
,
1000
0100
0010
0001
1000
0100
1000
0010
,
0100
0001
0010
0001
1000
0100
0010
0001
,
0010
0100
1000
0001
0010
0001
1000
0100
,
0010
0001
0100
0010
1000
0001
0100
0001
,
1000
0010
0100
0010
1000
0001
0010
0001
,
0100
0010
1000
0100
0010
0001
0100
0010
,
200M
0010
3100
0001
0010
0001
1000
0100
,
0010
0001
0100
0010
1000
0001
0010
0001
,
0100
0010
1000
0100
0010
0001
0100
0010
,
1000
0001
0100
0001
1000
0010
1000
0001
,
0100
0010
1000
0001
0010
0001
1000
0100
,
0010
0001
0100
0010
1000
0001
0100
0010
,
1000
0001
0100
0001
1000
0010
0100
0010
,
1000
0001
0010
0001
0100
0010
1000
0100
,
0010
0001
1000
0100
1000
0010
0100
0001
,
0010
0001
1000
0100
0010
0001
0010
0100
,
1000
0001
0010
0001
1000
0100
0010
0001
,
0100
0000
0000
0010
0000
0000
1000
0000
0000
0001
0000
0000
0100
0000
0000
0001
0000
0000
1000
0000
0010
0000
1000
0000
,
0010
0001
1000
0001
0010
0001
0100
0010
,
1000
0001
0100
0001
1000
0010
0100
0010
,
1000
0001
0010
0001
0100
0010
1000
0001
,
0100
0010
0100
0010
0100
0010
0100
0010
0100
0010
0001
1000
,
0010
0001
1000
0100
0010
0001
0010
0100
,
1000
0001
0010
0001
1000
0100
0010
0001
,
0100
0010
1000
0001
0100
0001
1000
0010
,
0100
0000
0000
0010
0000
0000
1000
0000
0000
0001
0000
0000
0010
0000
0000
0001
0000
0000
0100
0000
0010
0000
0100
0000
,
0010
0001
1000
0010
0100
0001
0100
0010
,
1000
0001
0010
0001
0100
0010
1000
0100
,
0010
0001
1000
0100
1000
0010
0100
0001
,
0010
0000
0100
0000
0010
0000
0100
0000
0001
0000
1000
0000
0100
0000
0000
0010
0000
0000
0001
0000
0010
0000
0100
0000
,
1000
0001
0010
0001
1000
0100
0010
0001
,
0100
0010
1000
0001
0100
0001
1000
0010
,
0100
0010
1000
0001
0010
0001
0100
0010
,
1000
0000
0000
0001
0000
0000
0100
0000
0000
0001
0000
0000
1000
0000
0000
0010
0000
0000
0100
0000
0001
0000
0100
0000
,
0001
0010
1000
0001
0100
0010
1000
0100
,
0010
0001
1000
0100
1000
0010
0100
0001
,
0010
0001
1000
0100
0010
0001
0010
0100
,
1000
0000
0010
0000
1000
0000
0001
0000
0100
0000
0010
0000
1000
0000
0001
0000
0010
0000
0100
0000
0000
0001
0000
0000
,
0100
0010
1000
0001
0100
0001
1000
0010
,
0100
0010
1000
0001
0010
0001
0100
0010
,
1000
0001
0100
0001
1000
0010
0100
0010
,
1000
0000
0000
0001
0000
0000
0010
0000
0000
0001
0000
0000
0100
0000
0000
0010
0000
0000
1000
0000
0001
0000
1000
0000
,
0001
0100
0010
0100
1000
0010
0100
0001
,
0010
0001
1000
0100
0010
0001
0010
0100
,
1000
0000
0000
0001
0000
0000
0100
0000
0010
0000
0100
0000
0010
0000
0000
1000
0000
0000
0001
0000
0100
0000
0001
0000
,
0100
0010
1000
0000
0000
0000
0000
0000
;

//---------------dance-single - 33+ (owenviau1)----------------
#NOTES:
     dance-single:
     33+ (owenviau1):
     Challenge:
     33:
     1.000,1.000,0.129,0.073,0.937,2578.000,23.000,13.000,63.000,0.000:
1000
0100
0010
0001
1000
0001
0100
0010
,
1000
0001
0010
0001
1000
0100
1000
0010
,
0100
0001
0100
0010
1000
0001
0010
0001
,
1000
0100
1000
0001
0100
0010
1000
0001
,
0010
0001
1000
0100
0010
0001
0100
0010
,
1000
0001
0100
0001
1000
0010
1000
0001
,
0100
0010
1000
0100
0010
0001
1000
0100
,
1000
0001
0100
0010
1000
0001
4000
0010
,
3100
0001
1000
0010
0100
0001
1000
0100
,
1000
0001
0100
0010
1000
0001
0010
0001
,
1000
0100
0010
0001
0100
0010
1000
0001
,
0100
0001
1000
0010
1000
0001
0100
0010
,
1000
0001
0010
0001
1000
0100
0010
0001
,
0100
0010
1000
0001
0010
0001
0100
0010
,
1000
0100
0010
0001
0100
0010
1000
0010
,
0100
0001
1000
0001
0040
0130
1000
0004
,
0103
0010
1000
0001
0010
0001
0100
0010
,
1000
0001
0010
0001
1000
0100
1000
0010
,
0100
0010
1000
0001
0100
0001
1000
0100
,
0010
0001
0010
0100
1000
0001
0010
0001
,
1000
0100
0010
0001
1000
0010
1000
0001
,
0100
0010
1000
0001
0010
0001
0100
0010
,
1000
0001
0010
0001
1000
0010
0100
0010
,
1000
0001
0100
0001
1000
0010
1000
0001
0100
0001
1000
0010
1000
0001
0100
0001
,
1000
0010
0100
0010
1000
0001
0100
0001
,
1000
0100
0010
0001
0100
0010
1000
0001
,
0010
0001
0100
0010
1000
0100
1000
0001
,
0100
0010
1000
0001
0010
0001
0100
0010
,
1000
0100
1000
0001
0100
0010
1000
0001
,
0010
0001
0100
0010
1000
0100
1000
0001
,
0100
0001
0100
0010
1000
0001
4000
3010
,
0100
0000
0000
0000
0000
0000
0010
0000
0000
0000
0000
0000
0001
0000
0000
0000
0000
0000
0100
0000
0000
0000
0000
0000
0010
0000
0000
1000
0000
0000
0010
0000
0000
1000
0000
0000
0040
0000
4000
0000
0000
0000
0000
0000
0000
0000
0000
0000
,
3031
0100
0001
1000
0010
0100
0010
1000
,
0001
0010
0001
0100
0010
1000
0100
0010
,
0001
0100
0010
1000
0001
0010
0001
1000
,
0010
1000
0001
0100
0010
1000
0001
0010
,
0001
1000
0100
1000
0001
0100
0010
1000
,
0001
0010
0001
0100
0010
1000
0100
0010
,
0001
1000
0010
1000
0001
0100
0001
1000
,
0010
0100
0010
1000
0001
0010
0001
1000
,
0100
0010
0001
0100
0010
0100
0001
1000
,
0010
0100
0010
1000
0001
1000
0010
0100
,
0001
1000
0100
0010
0001
1000
0100
1000
,
0001
0000
0100
0000
0010
0000
1000
0000
0001
0000
0010
0000
0100
1000
0100
1000
,
0100
0010
0001
0100
0010
1000
0004
0103
,
0010
0000
1000
0000
0010
0000
0100
0000
0001
0000
1000
0000
0010
0100
0010
0100
,
0010
0000
1000
0000
0004
0000
0100
0000
0013
0000
1000
0000
0010
0100
0001
0100
,
0010
1000
0001
0010
0001
1000
0100
0010
0001
0010
0100
1000
0001
0100
0001
1000
,
0010
0100
0001
1000
0001
0100
0010
1000
,
0001
0010
0001
0100
0010
1000
0100
1000
,
0001
0100
0010
1000
0100
0010
0001
1000
,
0010
1000
0001
0100
0010
1000
0010
0100
,
0001
1000
0100
1000
0001
0010
0001
0100
,
0010
1000
0010
0100
0001
1000
0100
0010
,
0001
0010
0100
1000
0001
0100
0001
1000
,
0010
1000
0001
0100
0010
1000
0001
0010
,
0001
1000
0100
0010
0001
0100
0010
0100
,
0001
1000
0100
0010
0001
1000
0010
1000
,
0100
0010
0001
0100
0001
1000
0010
0100
,
0010
1000
0001
0010
0001
1000
0100
1000
,
0010
0100
0001
0100
0010
1000
0001
0010
,
0001
1000
0100
0010
0001
0100
0010
0100
,
0001
1000
0001
0010
0100
1000
0001
1000
,
0010
0100
0001
0100
0010
1000
0001
0100
,
0000
0000
0000
0000
,
MMMM
M00M
M00M
M00M
M00M
M00M
M00M
M00M
MMMM
0000
0000
0000
0000
0000
0000
0000
,
0000
0000
MMMM
M000
M000
M000
MMMM
M000
M000
M000
M000
0000
0000
0000
0000
0000
,
0000
0000
0000
0000
,
0000
0000
0000
0000
,
0000
0000
0000
0000
,
0000
0000
0000
0000
0000
0000
0000
0000
MMMM
M000
M000
MMMM
M000
M000
M000
0000
,
0002
0000
0000
0000
0003
0000
0000
0000
1000
0001
1000
0001
1000
0001
1000
0001
,
1000
0010
0100
0001
1000
0001
0010
0100
,
1000
0000
0001
0000
0100
0000
0001
0000
1000
0000
0010
0000
0100
0000
0001
1000
,
0001
0100
0010
1000
0001
0010
0001
0100
,
0010
0000
1000
0000
0100
0000
1000
0000
0001
0000
0100
0000
0010
1000
0001
0100
,
0001
1000
0010
1000
0001
0100
0010
1000
,
0001
0000
0010
0000
0001
0000
0100
0000
0010
0000
1000
0001
1000
0000
0010
0100
,
0010
1000
0001
0100
0001
1000
0010
0100
,
0010
0000
1000
0000
0001
0000
0010
0000
0100
0000
1000
0010
1000
0000
0001
0100
,
0001
1000
0100
0010
0001
0100
0010
0100
,
0001
0000
0010
0000
0100
0000
1000
0000
0001
0000
0010
0000
0001
0000
1000
0010
,
0100
0001
0100
0010
1000
0001
0010
0001
,
0100
0000
0010
0000
1000
0000
0100
0000
0010
0000
0001
0000
1000
0010
0100
0001
,
1000
0010
0100
0010
1000
0001
0010
0001
,
0100
0000
0010
0000
1000
0000
0100
0000
0010
0000
0001
0100
0001
0000
1000
0100
,
1000
0010
0100
0001
1000
0001
0010
0001
,
0100
0000
0010
0000
1000
0000
0001
0000
0100
0010
1000
0001
4000
0000
0040
0000
,
3130
0001
1000
0010
0100
0010
1000
0001
,
0010
0000
0001
0000
0100
0000
0010
0000
1000
0000
0100
0000
0010
0000
0001
1000
,
0001
0100
0010
1000
0001
0010
0001
0100
,
0010
0000
1000
0000
0100
0000
1000
0000
0001
0000
0100
0000
0010
1000
0010
0100
,
0001
1000
0010
0100
0010
1000
0001
0100
,
0001
0000
1000
0000
0100
0000
0010
0000
0001
0000
1000
0100
1000
0000
0001
0010
,
0001
0100
0010
1000
0010
0100
0001
1000
,
0001
0100
0010
1000
0001
0010
0001
0100
0010
1000
0100
0010
0004
0000
4000
0000
,
3103
0010
1000
0001
0100
0001
1000
0010
,
0100
0000
0010
0000
1000
0000
0100
0000
0010
0000
0001
0000
0010
0000
0100
1000
,
0100
0010
0001
0100
0010
1000
0001
0100
,
0001
0000
1000
0000
0010
0000
0100
0000
0010
1000
0001
0100
0001
1000
0010
0100
,
0010
1000
0001
0100
0010
1000
0001
0010
,
0001
0000
0100
0000
0010
0000
1000
0000
0010
0000
0100
0001
1000
0010
0100
0001
,
0100
0010
1000
0001
0400
0000
0040
0000
1330
0000
0001
0000
0400
0000
0004
0000
,
1303
0010
1000
0001
0100
0010
1000
0001
0010
0001
0100
0010
1000
0100
0010
0001
,
1000
0010
0100
0010
1000
0001
0100
0001
,
1000
0100
0010
0001
0100
0010
1000
0001
,
0100
0001
1000
0010
0100
0010
1000
0001
,
0010
0001
0100
0010
1000
0001
0400
0040
,
1330
0001
0100
0010
1000
0001
0010
0001
,
0100
0010
1000
0001
0010
0001
0100
0010
,
1000
0001
0100
0001
1000
0010
0100
0001
,
4000
3400
0340
0034
0403
0340
4030
3004
0403
0304
0043
0430
1300
0000
0010
0000
,
0100
0001
1000
0010
0100
0010
1000
0001
,
0100
0001
1000
0100
0010
0001
0100
0010
,
1000
0001
0010
0001
0100
0010
1000
0100
,
1000
0000
0001
0000
0100
0000
0010
0000
1000
0100
0010
0001
0400
0040
0000
0000
,
1330
0001
0100
0001
1000
0010
0100
0010
,
1000
0001
0100
0001
1000
0100
0010
0001
,
0100
0010
1000
0001
0010
0001
0100
0010
,
1000
0001
0100
0010
1000
0100
0010
0001
0100
0010
1000
0010
0100
0001
0010
0100
,
1000
0001
0100
0010
1000
0001
0010
0001
,
0100
0010
1000
0100
1000
0001
0010
0001
,
0100
0010
1000
0100
0010
0001
0100
0010
,
1000
0001
0010
0001
0100
0010
4000
0004
,
3103
0010
1000
0010
0100
0001
1000
0100
,
1000
0001
0100
0010
1000
0001
0010
0001
,
0100
0010
1000
0100
1000
0001
0100
0010
,
1000
0001
0100
0001
1000
0010
0100
0001
0010
0100
1000
0001
1000
0000
0010
0000
,
0100
0010
1000
0001
0010
0001
0100
0010
,
1000
0001
0010
0001
0100
0010
1000
0001
,
0100
0001
1000
0010
0100
0010
1000
0001
,
0010
0001
0100
0010
1000
0001
4000
0040
,
3130
0001
1000
0010
0100
0010
1000
0001
,
0010
0001
0100
0010
1000
0100
0010
0001
,
0010
0000
0100
0000
4000
0000
3001
0000
0100
0000
0001
0000
4000
0010
3100
0010
,
1000
0001
0100
0001
1000
0100
0010
0001
0100
0010
1000
0001
0100
0001
0010
0100
,
1000
0100
0010
0001
1000
0001
0100
0010
,
1000
0001
0010
0001
1000
0100
1000
0010
,
0100
0001
0100
0010
1000
0001
0010
0001
,
1000
0100
1000
0001
0100
0010
1000
0001
,
0010
0001
1000
0100
0010
0001
0100
0010
,
1000
0001
0100
0001
1000
0010
1000
0001
,
0100
0010
1000
0100
0010
0001
1000
0100
,
1000
0001
0100
0010
1000
0001
0100
0001
,
1000
0010
0100
0010
1000
0001
0010
0001
,
0100
0010
1000
0100
1000
0001
0100
0010
,
1000
0001
0010
0001
0100
0010
1000
0100
,
0010
0001
0100
0001
1000
0010
0100
0010
,
1000
0001
0010
0001
0100
0010
1000
0100
,
0010
0001
0100
0001
1000
0010
0100
0010
,
1000
0001
0010
0001
0100
0010
1000
0100
,
1000
0001
0100
0010
1000
0010
0100
0001
,
1000
0001
0100
0010
1000
0001
0010
0001
,
1000
0100
1000
0010
0100
0001
0100
0010
,
1000
0001
0010
0001
1000
0100
1000
0001
,
0100
0010
1000
0001
0010
0001
1000
0100
,
0010
0001
0100
0010
1000
0001
0100
0001
,
1000
0010
1000
0001
0100
0010
1000
0100
,
0010
0001
1000
0100
1000
0001
0100
0010
,
1000
0001
0100
0001
1000
0010
0100
0010
,
1000
0001
0010
0001
0100
0010
1000
0100
,
1000
0001
0100
0010
1000
0001
0010
0001
,
0100
0010
1000
0100
0010
0001
0100
0001
,
1000
0010
0100
0010
1000
0001
0010
0001
,
0100
0010
1000
0100
0010
0001
0100
0001
,
1000
0010
0100
0010
1000
0001
0010
0001
,
1000
0100
0010
0001
0100
0010
1000
0001
0100
0001
1000
0010
0100
0010
1000
0001
,
0010
0001
0100
0010
1000
0100
0010
0001
0010
0100
1000
0001
0100
0010
0100
0001
,
1000
0001
0100
0010
1000
0001
0010
0001
,
1000
0100
1000
0010
0100
0001
0100
0010
,
1000
0001
0010
0001
1000
0100
1000
0001
,
0100
0010
1000
0001
0010
0001
1000
0100
,
0010
0001
0100
0010
1000
0001
0100
0001
,
1000
0010
1000
0001
0100
0010
1000
0100
,
0010
0001
1000
0100
1000
0001
0100
0010
,
1000
0001
0100
0001
1000
0010
0100
0010
,
1000
0001
0010
0001
0100
0010
1000
0100
,
1000
0001
0100
0010
1000
0001
0010
0001
,
0100
0010
1000
0100
0010
0001
0100
0001
,
1000
0010
0100
0010
1000
0001
0010
0001
,
0100
0010
1000
0100
0010
0001
0100
0001
,
1000
0010
0100
0010
1000
0001
0010
0001
,
0100
0010
1000
0100
1000
0001
0100
0010
,
1000
0010
0100
0001
1000
0001
0100
0010
,
2M00
3001
0010
0001
1000
0100
1000
0010
,
0100
0001
0100
0010
1000
0001
0010
0001
,
1000
0100
1000
0001
0100
0010
1000
0001
,
0010
0001
1000
0100
0010
0001
0100
0010
,
1000
0001
0100
0001
1000
0010
1000
0001
,
0100
0010
1000
0100
0010
0001
1000
0100
,
1000
0001
0100
0010
1000
0001
0100
0001
,
1000
0010
0100
0010
1000
0001
0010
0001
,
M200
0310
1000
0100
1000
0001
0100
0010
,
1000
0001
0010
0001
0100
0010
1000
0100
,
M020
0031
0100
0001
1000
0010
0100
0010
,
1000
0001
0010
0001
0100
0010
1000
0100
,
M020
0031
0100
0001
1000
0010
0100
0010
,
2M00
3001
0010
0001
0100
0010
1000
0100
,
20M0
3001
0100
0010
200M
3010
0100
0001
,
20M0
3100
M020
0031
M200
032M
4M30
0004
,
3103
0010
0100
0001
1000
0001
0010
0100
,
1000
0000
0001
0000
0100
0000
0001
0000
1000
0000
0010
0000
0100
0000
0001
1000
,
0001
0100
0010
1000
0001
0010
0001
0100
,
0010
0000
1000
0000
0100
0000
1000
0000
0001
0000
0100
0000
0010
1000
0001
0100
,
0001
1000
0010
1000
0001
0100
0010
1000
,
0001
0000
0010
0000
0001
0000
0100
0000
0010
0000
1000
0001
1000
0000
0010
0100
,
0010
1000
0001
0100
0001
1000
0010
0100
,
0010
0000
1000
0000
0001
0000
0010
0000
0100
0000
1000
0010
1000
0000
0001
0100
,
0001
1000
0100
0010
0001
0100
0010
0100
,
0001
0000
0010
0000
0100
0000
1000
0000
0001
0000
0010
0000
0001
0000
1000
0010
,
0100
0001
0100
0010
1000
0001
0010
0001
,
0100
0000
0010
0000
1000
0000
0100
0000
0010
0000
0001
0000
1000
0010
0100
0001
,
1000
0010
0100
0010
1000
0001
0010
0001
,
0100
0000
0010
0000
1000
0000
0100
0000
0010
0000
0001
0100
0001
0000
1000
0100
,
1000
0010
0100
0001
1000
0001
0010
0001
,
0100
0000
0010
0000
1000
0000
0001
0000
0100
0010
1000
0001
4000
0000
0040
0000
,
3130
0001
1000
0010
0100
0010
1000
0001
,
0010
0000
0001
0000
0100
0000
0010
0000
1000
0000
0100
0000
0010
0000
0001
1000
,
0001
0100
0010
1000
0001
0010
0001
0100
,
0010
0000
1000
0000
0100
0000
1000
0000
0001
0000
0100
0000
0010
1000
0010
0100
,
0001
1000
0010
0100
0010
1000
0001
0100
,
0001
0000
1000
0000
0100
0000
0010
0000
0001
0000
1000
0100
1000
0000
0001
0010
,
0001
0100
0010
1000
0010
0100
0001
1000
,
0001
0100
0010
1000
0001
0010
0001
0100
0010
1000
0100
0010
0004
0000
4000
0000
,
3103
0010
1000
0001
0100
0001
1000
0010
,
0100
0000
0010
0000
1000
0000
0100
0000
0010
0000
0001
0000
0010
0000
0100
1000
,
0100
0010
0001
0100
0010
1000
0001
0100
,
0001
0000
1000
0000
0010
0000
0100
0000
0010
1000
0001
0100
0001
1000
0010
0100
,
0010
1000
0001
0100
0010
1000
0001
0010
,
0001
0000
0100
0000
0010
0000
1000
0000
0010
0000
0100
0001
1000
0010
0100
0001
,
0100
0010
1000
0001
0400
0000
0040
0000
1330
0000
0001
0000
0400
0000
0004
0000
,
1303
0010
1000
0001
0100
0010
1000
0001
0010
0001
0100
0010
1000
0100
0010
0001
,
1000
0010
1000
0001
0100
0010
1000
0001
0010
0001
0100
0010
1000
0100
0010
0001
,
1000
0010
1000
0001
0100
0010
1000
0001
0010
0001
0100
0010
1000
0001
0100
0001
,
1000
0010
0100
0010
1000
0001
0100
0001
0010
0100
1000
0100
0010
0001
0100
0010
,
1000
0001
0010
0001
0100
0010
1000
0100
0010
0001
1000
0010
1000
0100
0010
0001
,
0100
0001
1000
0100
1000
0001
0100
0010
1000
0001
0010
0001
0100
0010
1000
0100
,
0010
0001
0100
0010
1000
0100
0010
0001
1000
0010
1000
0001
0100
0010
1000
0001
,
0010
0001
0100
0010
1000
0100
0010
0001
1000
0010
1000
0001
0100
0010
1000
0001
,
0010
0001
0100
0010
1000
0001
0100
0001
1000
0010
0100
0010
1000
0001
0100
0001
,
0010
0100
1000
0100
0010
0001
0100
0010
1000
0001
0010
0001
0100
0010
1000
0100
,
0010
0001
1000
0010
1000
0100
0010
0001
0100
0001
1000
0100
1000
0001
0100
0010
,
1000
0001
0010
0001
0100
0010
1000
0100
0010
0001
0100
0010
1000
0100
0010
0001
,
1000
0010
1000
0001
0100
0010
1000
0001
0010
0001
0100
0010
1000
0100
0010
0001
,
1000
0010
1000
0001
0100
0010
1000
0001
0010
0001
0100
0010
1000
0001
0100
0001
,
1000
0010
0100
0010
1000
0001
0100
0001
0010
0100
1000
0100
0010
0001
0100
0010
,
1000
0001
0010
0001
0100
0010
1000
0100
0010
0001
1000
0010
1000
0100
0010
0001
,
0100
0001
1000
0100
1000
0001
0100
0010
1000
0001
0010
0001
0100
0010
1000
0001
,
0100
0010
1000
0001
0100
0001
1000
0010
,
0100
0010
1000
0001
0010
0001
0100
0010
,
1000
0100
0010
0001
1000
0100
1000
0010
,
0100
0001
0010
0001
1000
0100
0010
0001
,
0010
0100
1000
0001
0010
0001
1000
0100
,
0010
0001
0100
0010
1000
0001
0100
0001
,
1000
0010
0100
0010
1000
0001
0010
0001
,
0100
0010
1000
0100
0010
0001
0100
0010
,
200M
0010
3100
0001
0010
0001
1000
0100
,
0010
0001
0100
0010
1000
0001
0010
0001
,
0100
0010
1000
0100
0010
0001
0100
0010
,
1000
0001
0100
0001
1000
0010
1000
0001
,
0100
0010
1000
0001
0010
0001
1000
0100
,
0010
0001
0100
0010
1000
0001
0100
0010
,
1000
0001
0100
0001
1000
0010
0100
0010
,
1000
0001
0010
0001
0100
0010
1000
0100
,
0010
0001
1000
0100
1000
0010
0100
0001
,
0010
0001
1000
0100
0010
0001
0010
0100
,
1000
0001
0010
0001
1000
0100
0010
0001
,
0100
0000
0010
0000
1000
0000
0001
0000
0100
0000
0001
0000
1000
0010
1000
0010
,
1000
0100
1000
0001
0010
0001
0100
0010
,
1000
0001
0100
0001
1000
0010
0100
0010
,
1000
0001
0010
0001
0100
0010
1000
0001
,
0100
0010
0100
0010
0100
0010
0100
0010
0100
0010
0100
0010
0100
0001
1000
0100
,
0010
0001
1000
0100
0010
0001
0010
0100
,
1000
0001
0010
0001
1000
0100
0010
0001
,
0100
0010
1000
0001
0100
0001
1000
0010
,
0100
0000
0010
0000
1000
0000
0001
0000
0010
0000
0001
0000
0100
0010
0100
0010
,
0100
0001
1000
0010
0100
0001
0100
0010
,
1000
0001
0010
0001
0100
0010
1000
0100
,
0010
0001
1000
0100
1000
0010
0100
0001
,
0010
0100
0010
0100
0010
0001
1000
0001
0100
0000
0010
0000
1000
0100
0010
0001
,
1000
0001
0010
0001
1000
0100
0010
0001
,
0100
0010
1000
0001
0100
0001
1000
0010
,
0100
0010
1000
0001
0010
0001
0100
0010
,
1000
0000
0001
0000
0100
0000
0001
0000
1000
0000
0010
0000
0100
0001
0100
0001
,
0100
0010
1000
0001
0100
0010
1000
0100
,
0010
0001
1000
0100
1000
0010
0100
0001
,
0010
0001
1000
0100
0010
0001
0010
0100
,
1000
0100
0010
0001
0100
0010
1000
0001
0100
0001
1000
0010
0100
0000
0001
0000
,
0100
0010
1000
0001
0100
0001
1000
0010
,
0100
0010
1000
0001
0010
0001
0100
0010
,
1000
0001
0100
0001
1000
0010
0100
0010
,
1000
0000
0001
0000
0010
0000
0001
0000
0100
0000
0010
0000
1000
0001
1000
0001
,
1000
0001
0010
0100
1000
0010
0100
0001
,
0010
0001
1000
0100
0010
0001
0010
0100
,
1000
0000
0001
0000
0010
0100
0010
0100
0010
0000
0001
0000
1000
0001
1000
0001
,
1000
0010
0100
0000
0000
0000
0000
0000
;
