#TITLE:Narcissus At Oasis;
#SUBTITLE:;
#ARTIST:Ryu*;
#TITLETRANSLIT:;
#SUBTITLETRANSLIT:;
#ARTISTTRANSLIT:;
#CREDIT:;
#BANNER:Narcissus At Oasis-bn.png;
#BACKGROUND:Narcissus At Oasis-bg.png;
#LYRICSPATH:;
#CDTITLE:!Dan23!.png;
#MUSIC:Narcissus At Oasis.mp3;
#OFFSET:-2.360;
#SAMPLESTART:81.260;
#SAMPLELENGTH:14.980;
#SELECTABLE:YES;
#BPMS:0.000=170.000,68.000=165.000,68.500=160.000,69.000=155.000,69.500=145.000,69.750=135.000,70.000=110.000,70.250=95.000,70.500=85.000,70.750=70.000,71.000=65.000,71.250=60.000,71.500=45.000,71.750=30.000,72.000=170.001,137.000=85.000,140.000=75.000,140.250=65.000,140.500=50.000,140.750=40.000,141.000=30.000,141.250=20.000,141.500=13.500,142.000=85.000,158.000=170.001,252.000=85.000;
#STOPS:186.000=0.700
;
#BGCHANGES:;
// cache tags:
#FIRSTBEAT:4.000;
#LASTBEAT:268.000;
#SONGFILENAME:Songs/StepmaniaFreak's Favorites/Dan23 - Narcissus At Oasis/Narcissus At Oasis.sm;
#HASMUSIC:1;
#HASBANNER:1;
#MUSICLENGTH:118.413;
// end cache tags

//---------------dance-single - ----------------
#NOTES:
     dance-single:
     :
     Hard:
     11:
     0.993,0.934,0.836,0.363,0.925,681.000,99.000,43.000,0.000,0.000:
0000
0000
0000
0000
,
1100
0010
0010
0101
1000
1000
0011
1000
,
1001
0100
0100
0011
1000
0100
0010
0101
,
1100
0010
0010
0101
1000
0100
1010
0100
,
0011
1000
1000
0101
0010
0010
1100
0010
,
0101
1000
1000
0110
0001
0001
1100
0010
,
0101
1000
1000
0101
1100
0010
0010
0101
,
1100
0010
0010
1001
0100
0100
1010
0001
,
1100
0010
0010
1001
0100
0010
1001
0100
,
1001
0100
0100
0011
1000
1000
0011
0100
,
1010
0001
0001
1100
0101
0010
0010
1100
,
0101
0010
0010
1001
0100
0100
1010
0001
,
0110
1000
1000
0101
0010
0010
1100
0001
,
1001
1000
0100
0010
0001
1000
0110
1100
,
0101
0010
1100
0001
0110
1000
0011
1000
,
0110
0001
0010
0100
1000
0010
0100
0001
,
2000
0100
0010
0001
0100
0010
0100
0002
,
0000
0000
0000
0000
0000
0000
0000
0000
0000
0000
0000
0000
0000
0000
0000
3003
,
1010
0000
0100
0000
0101
0000
0010
1000
0100
0010
0001
0100
0010
0000
1000
0000
,
0101
0000
1000
0010
0100
0000
0001
0010
0100
1000
0100
0010
0001
0000
1100
0000
,
1001
0000
0001
0100
0010
0000
0001
0100
0010
1000
0100
0010
0001
0100
0010
1000
,
0001
0000
1000
0000
0110
0000
0001
0000
1000
0010
0100
0001
0010
0100
1000
0001
,
1000
0000
0010
0100
0001
0000
0010
0100
1000
0100
0010
0001
0100
0000
1010
0000
,
1001
0000
0010
0100
0001
0000
0010
0100
1000
0100
0010
0001
0100
0010
1000
0001
,
0100
0000
0010
0000
1100
0000
0001
0100
0010
1000
0001
0010
0100
1000
0100
0010
,
0001
0000
1000
0000
0110
0000
0001
0100
0010
1000
0001
0000
1100
0000
0101
0000
,
1001
0001
1100
0010
0100
0101
1000
0010
,
1001
0000
0010
0000
1100
0000
0001
0000
0100
0000
0010
1000
0001
0000
1000
0000
,
1001
0100
0011
1000
0100
1010
0001
0100
,
1001
0000
0110
0000
0001
0000
1100
0000
0010
0000
0001
0100
0010
0000
1000
0000
,
1001
0010
1100
0001
0110
1000
0011
0100
,
1001
0010
1100
0001
0110
1000
0101
0010
,
0001
0100
0010
1000
0001
0010
0100
1000
0100
0010
0001
0100
0010
0100
0001
0010
,
0100
1000
0100
0010
0100
1000
0010
0100
0001
0010
0100
1000
0100
0010
0001
0100
,
0020
0000
0000
0030
1100
0000
0000
0020
0000
0000
2030
0000
3002
0000
0000
0103
,
0020
0000
0000
0000
0000
0000
0000
0000
0000
0000
0000
0000
0000
0000
0030
0000
2000
0000
0000
0000
0000
0000
0000
3002
0000
0000
0000
0000
0000
0203
0000
0000
,
0000
0320
0000
0000
0000
0000
0000
2030
0000
0000
0000
0000
0000
3000
0000
0001
0000
0200
0000
0000
0000
0000
0000
0320
0000
0000
0000
0000
0000
2030
0000
0000
,
0000
3002
0000
0000
0000
0000
0000
0203
0000
0000
0000
0000
0000
0320
0000
0000
0000
2030
0000
0000
0000
0000
0000
3002
0000
0000
0000
0000
0000
0023
0000
0000
,
0000
0230
0000
0000
0000
0000
0000
1300
0000
0020
0000
0000
0000
0000
0000
1030
0000
0002
0000
0000
0000
0000
0000
0203
0000
0000
0000
0000
0000
0320
0000
0000
,
0000
2030
0000
0000
0000
0000
0000
3002
0000
0000
0000
0000
1003
0000
0000
0000
0110
0000
0000
0000
0010
0000
0000
0000
0100
0000
0000
0000
0001
0000
0010
0000
,
0100
1000
0100
0010
0001
0000
0100
0000
1010
0000
0001
0100
0010
0000
1000
0100
,
0010
0001
0100
0010
1000
0000
0101
0000
1100
0000
0010
0000
0100
0000
0001
0010
,
0100
1000
0100
0010
0001
0100
0010
1000
0001
0000
0100
0000
1001
0000
0001
0100
,
0010
1000
0001
0010
0100
1000
0100
0010
0001
0000
1000
0000
0101
0000
1000
0000
,
0110
0001
1100
0010
1001
0100
0011
1000
,
0110
0000
0001
0000
1100
0000
0101
0000
0001
0100
0010
1000
0001
0010
0100
1000
,
0001
0100
0010
1000
0100
0010
0001
0100
0020
0000
1030
0000
1000
0000
1000
0000
,
0001
0100
0010
1000
0001
0010
0100
1000
0001
0100
0010
1000
0001
0010
0100
1000
,
0001
0100
0010
0100
0001
0010
0100
1000
0100
0010
0100
1000
0010
0100
0001
0010
,
0100
1000
0100
1000
0010
0100
0001
0010
0100
1000
0010
0100
0001
0010
0100
1000
,
0001
0100
0010
1000
0001
0010
0100
1000
0100
0010
0100
1000
0010
0100
0001
0010
,
0100
1000
0100
0010
0001
0100
0010
0100
0001
0010
0100
1000
0001
0100
0010
1000
,
0001
0010
0100
1000
0001
0100
0010
0100
0001
0010
0100
1000
0100
0010
0001
0100
,
0010
1000
0100
0010
0001
0100
0010
1000
0001
0010
0100
1000
0100
0010
0001
0100
,
0010
1000
0100
0010
0001
0100
0010
1000
0001
0010
0100
1000
0001
0100
0010
1000
,
0001
0100
0010
0100
0001
0010
0100
1000
0100
0010
0100
1000
0010
0100
0001
0010
,
0100
1000
0100
1000
0010
0100
0001
0010
0100
1000
0100
0010
0001
0100
0010
1000
,
0001
0010
0100
1000
0100
0010
0001
0100
0010
1000
0001
0010
0100
1000
0100
0010
,
0001
0010
0100
1000
0001
0100
0010
1000
0001
0010
0100
1000
0001
0100
0010
1000
,
0101
0010
1100
0001
1010
0100
0011
1000
,
0101
0010
1100
0001
0110
1000
0011
0100
,
0001
0100
0010
1000
0001
0010
0100
1000
0001
0100
0010
0100
0001
0010
0100
1000
,
0100
0010
0100
1000
0010
0100
0001
0010
0100
1000
0100
0010
0001
0100
0010
1000
,
0002
0000
0000
2003
0000
0000
3200
0000
0320
0000
0000
0031
2000
0000
0000
3010
,
0200
0000
0000
0302
0000
0000
2003
0000
3200
0000
0000
0320
0000
0000
0032
0000
,
0203
0000
0302
0000
,
2000
0000
0000
0000
,
3003
0000
0000
0000
;
