#TITLE:Shining Star;
#SUBTITLE:Star Driver OP2;
#ARTIST:9Nine;
#TITLETRANSLIT:;
#SUBTITLETRANSLIT:;
#ARTISTTRANSLIT:;
#CREDIT:Nanaki BH;
#BANNER:banner.jpg;
#BACKGROUND:background.jpg;
#LYRICSPATH:;
#CDTITLE:Nanaki BH.png;
#MUSIC:Shining Star.mp3;
#OFFSET:-0.204;
#SAMPLESTART:53.850;
#SAMPLELENGTH:13.000;
#SELECTABLE:YES;
#BPMS:0.000=135.992;
#STOPS:;
#BGCHANGES:0.000=Shining Star.avi=1.000=0=0=1,
99999=-nosongbg-=1.000=0=0=0 // don't automatically add -songbackground-
;
// cache tags:
#FIRSTBEAT:1.500;
#LASTBEAT:200.500;
#SONGFILENAME:Songs/toune 2011/[NBH] Shining Star/Shining Star.sm;
#HASMUSIC:1;
#HASBANNER:1;
#MUSICLENGTH:90.234;
// end cache tags

//---------------dance-single - ----------------
#NOTES:
     dance-single:
     :
     Challenge:
     8:
     0.728,0.694,0.587,0.344,0.116,376.000,53.000,31.000,0.000,1.000:
0000
0000
0000
0000
0000
0000
0010
0000
1000
0000
0100
0000
0002
0000
0000
1000
,
0000
0000
0100
0000
0000
0000
0013
0000
0001
0000
0100
0000
2000
0000
0000
0001
,
0000
0100
0000
3010
1000
0001
0200
0000
,
0320
0000
2030
0000
3200
0000
0310
0001
,
1000
0100
0010
0000
1000
0010
0101
1000
,
0110
0001
1010
0100
0110
1000
0101
0100
,
1010
1000
0110
0001
0101
1000
0110
0001
,
1010
0001
0110
1001
0000
0000
1001
0000
,
0000
0010
0100
1000
0100
0010
0100
0010
0100
0010
0001
0010
2000
0000
0100
0000
,
0001
0100
0010
3010
0002
0000
0010
1000
,
0103
0001
0010
1000
0020
0000
0001
1000
,
0130
0010
0001
0010
2000
0100
0010
3001
,
0010
0100
1000
1100
0110
0011
0000
0000
,
0001
0001
1000
0000
0100
0010
0001
0010
,
1000
0100
0000
0001
0020
0100
0130
1000
,
0100
1000
0010
0100
0001
0110
0001
1100
,
0001
0010
0100
0110
1001
0110
1000
0100
,
0001
0010
1000
0100
0001
0010
0001
0100
,
1000
0010
0100
0001
0010
0100
1000
0100
,
0001
0010
0100
0001
0010
0100
2000
3001
,
0010
1010
0001
0101
1000
0100
0002
0000
,
0010
1003
0000
0100
0010
0001
0020
0000
,
0100
1030
0000
0010
0100
0001
0010
0100
,
1000
0002
0010
0103
0010
2000
0001
0000
,
3100
0000
1000
0100
0010
0100
0001
0010
,
0100
1000
0001
0010
0100
0001
0010
0100
,
1000
0002
0000
0010
0100
0103
1100
0001
,
0010
0100
1100
0010
0100
0010
0001
0010
,
0100
1000
0010
0001
0010
0100
0002
1000
,
0100
0000
1000
0100
0013
0100
0010
0100
0010
0001
0010
0000
1001
0000
0000
0110
,
0000
1001
0000
0100
1000
0001
1100
0100
,
0020
0001
0100
1030
0001
1000
0110
0001
,
0020
0001
0100
1030
0100
0110
0001
1100
,
0010
0110
0001
0011
0100
1100
0002
0000
,
0000
0000
0113
0000
1000
0100
0100
0000
0010
0000
0001
0000
0010
0000
1000
0000
,
0001
0010
0100
0010
1000
0001
0011
0100
,
0001
0110
1000
0001
0100
0010
0100
0001
,
1100
0100
0011
1000
0010
2000
0100
3010
,
1000
0100
0010
0001
0010
0100
1000
0001
1000
0001
1000
0000
0110
0000
0001
0000
,
1010
0100
0010
0100
1000
0001
0110
0100
,
1000
0101
0100
0010
1000
0001
0011
0100
,
1100
0001
0110
0001
0100
0010
0100
2000
,
0010
0000
3001
0000
1000
0010
0010
0000
1000
0000
0100
0000
0011
0000
1000
0000
,
0001
0110
1000
0100
0002
1003
0110
0010
,
0001
1000
0100
0010
0100
0001
0010
1000
,
0100
0010
0001
0010
1000
0002
0010
0100
,
0010
0000
1003
0000
0100
0000
0010
0100
0100
0000
0010
0000
2000
0000
0000
0000
,
0000
0001
3020
0000
0000
0000
0130
1000
,
0001
0010
0200
0301
0020
1030
0010
1001
,
0000
0100
1010
0000
0010
0202
0000
0000
,
0000
0303
0000
0000
0000
0000
0000
0000
;
