#TITLE:Diamond Dust Zone Act 2;
#SUBTITLE:Sonic 3D Blast;
#ARTIST:Tatsuyuki Maeda;
#TITLETRANSLIT:;
#SUBTITLETRANSLIT:;
#ARTISTTRANSLIT:;
#CREDIT:Owem;
#BANNER:../banner.png;
#BACKGROUND:../bg.png;
#LYRICSPATH:;
#CDTITLE:../cdtitleowem.png;
#MUSIC:Tatsuyuki Maeda - Diamond Dust Zone Act 2.ogg;
#OFFSET:-0.027;
#SAMPLESTART:77.620;
#SAMPLELENGTH:29.999;
#SELECTABLE:YES;
#BPMS:0.000=133.001;
#STOPS:;
#BGCHANGES:;
// cache tags:
#FIRSTBEAT:0.000;
#LASTBEAT:349.667;
#SONGFILENAME:Songs/Owem's Simfiles 08 (not release)/Diamond Dust Zone Act 2 - [Braeden & Owem]/Diamond Dust Zone Act 2.sm;
#HASMUSIC:1;
#HASBANNER:1;
#MUSICLENGTH:157.962;
// end cache tags

//---------------dance-single - 18+ (Owem)----------------
#NOTES:
     dance-single:
     18+ (Owem):
     Challenge:
     18:
     1.000,1.000,0.076,0.108,1.000,1905.000,12.000,17.000,0.000,0.000:
1000
0010
0100
0100
0001
1000
1000
0100
0010
0010
0001
0001
0010
0100
1000
0001
,
0100
0100
0010
1000
0010
0100
0100
0001
1000
1000
0001
0010
0100
0100
1000
0001
,
1000
0000
0000
0100
0000
0000
0010
0000
0000
0001
0000
0000
1000
0000
0000
0001
0000
0000
0100
0000
0000
0010
0000
0000
1000
0000
0000
0000
0010
0000
0000
0000
0100
0000
0000
0000
0001
0000
0000
0000
1000
0000
0000
0000
0001
0000
0000
0000
0010
0000
0000
0000
0100
0000
0000
0000
1000
0000
0000
0000
0001
0000
0000
0000
0010
0000
0000
0000
0001
0000
0000
0000
0100
0000
0000
0000
0010
0000
0000
0000
1000
0000
0000
0000
0010
0000
0000
0000
0100
0000
0000
0000
0010
0000
0000
0000
,
1000
0001
0100
0001
1000
0100
0010
0001
1000
0100
1000
0010
0100
0001
1000
0001
0010
0100
1000
0100
0010
0001
1000
0100
,
1000
0010
0100
0001
0100
0010
1000
0001
1000
0100
0010
0001
1000
0100
1000
0001
0010
0001
0100
0010
1000
0010
0100
0001
,
1000
0000
0000
1100
0000
0000
0110
0000
0000
0011
0000
0000
0100
0010
0100
0001
,
1000
0000
0000
0100
0000
0000
0010
0000
0000
0001
0000
0000
1000
0000
0000
0010
0000
0000
0100
0000
0000
0001
0000
0000
1000
0000
0000
0000
0010
0000
0000
0000
1000
0000
0000
0000
0001
0000
0000
0000
0100
0000
0000
0000
0010
0000
0000
0000
0100
0000
0000
0000
0001
0000
0000
0000
1000
0000
0000
0000
0100
0000
0000
0000
0010
0000
0000
0000
0100
0000
0000
0000
1000
0000
0000
0000
0001
0000
0000
0000
0010
0000
0000
0000
0001
0000
0000
0000
0100
0000
0000
0000
0010
0000
0000
0000
,
1000
0010
0100
0010
1000
0001
0010
0001
0100
0010
1000
0001
1000
0100
0010
0001
1000
0100
1000
0001
0100
0010
0100
0001
,
1000
0100
1000
0010
0100
0010
1000
0001
0010
0100
0010
0001
1000
0100
1000
0001
1000
0010
0100
0001
0100
0010
1000
0001
,
2000
0000
3010
0120
0000
0130
0201
0300
0000
1001
0000
0000
0001
0100
0010
1000
,
0010
0100
0001
1000
0100
1000
0010
0100
0001
1000
0100
0010
0001
1000
0001
0100
0010
0100
0001
1000
0010
1000
0001
0100
,
0001
1000
0100
1000
0010
0100
0010
1000
0001
0010
0100
0010
0001
1000
0100
1000
0001
1000
0010
0100
0010
1000
0001
0010
,
0100
0010
0001
1000
0100
1000
0001
1000
0010
0100
0010
1000
0100
1000
0001
0100
0010
0100
0001
1000
0010
1000
0100
0010
,
0001
1000
0100
0010
0100
1000
0001
1000
0010
0100
0010
1000
0001
0010
0100
0010
0001
1000
0100
1000
0010
0100
0010
1000
,
0001
0010
0001
0100
0010
0100
0001
1000
0010
1000
0100
0010
0001
1000
0100
1000
0001
0100
0001
1000
0010
0100
0010
1000
,
0001
0010
0100
0010
0001
1000
0100
1000
0010
0100
0010
1000
0001
1000
0100
0010
0001
1000
0100
1000
0010
0100
0001
0100
,
0010
1000
0001
1000
0100
0010
0001
1000
0100
1000
0010
0100
0010
1000
0001
0100
0001
0010
0100
1000
0100
0010
0001
1000
,
0010
0000
0100
0001
0000
1000
0100
0000
0010
0001
1000
0000
0010
0100
0001
1000
,
0001
0000
0000
0100
0000
0000
0010
0000
0000
1000
0000
0000
0001
0000
0000
0010
0000
0000
0100
0000
0000
1000
0000
0000
0010
0000
0000
0000
0100
0000
0000
0000
0001
0000
0000
0000
1000
0000
0000
0000
0100
0000
0000
0000
1000
0000
0000
0000
0010
0000
0000
0000
0100
0000
0000
0000
0010
0000
0000
0000
1000
0000
0000
0000
0001
0000
0000
0000
0100
0000
0000
0000
0010
0000
0000
0000
1000
0000
0000
0000
0001
0000
0000
0000
0010
0000
0000
0000
0100
0000
0000
0000
0010
0000
0000
0000
,
0001
1000
0100
1000
0001
0100
0010
0100
0001
1000
0100
0010
0100
1000
0001
0010
0001
1000
0100
1000
0010
0100
0001
0100
,
0010
1000
0001
1000
0010
0100
0010
1000
0001
0100
0001
1000
0100
0010
0001
1000
0100
1000
0001
0100
0010
1000
0010
0100
,
0002
0000
1003
0020
0030
0100
0001
0000
1000
0020
0030
0000
0100
0000
0010
0000
,
0100
0000
0001
0000
0000
0000
1000
0000
0001
0100
0000
0000
0000
0000
0010
0000
1000
0010
0000
0000
0000
0000
1000
0000
0001
0000
0100
0000
0010
0000
0000
0000
,
1000
0100
0010
0001
1000
0001
0100
0010
1000
0010
0100
0010
1000
0001
0100
0001
1000
0100
0010
0001
1000
0100
1000
0010
,
0100
0001
1000
0001
0010
0100
0010
0001
1000
0100
1000
0010
1000
0001
0100
0001
1000
0100
0010
0001
1000
0100
1000
0010
,
0100
0010
1000
0001
0010
0100
0010
0001
1000
0100
1000
0010
0100
0001
0100
0010
1000
0001
0010
0001
0100
0010
0100
0001
,
1000
0100
0010
0001
1000
0100
1000
0010
0100
0010
1000
0001
0010
0100
0010
0001
1000
0100
1000
0010
0100
0001
1000
0100
,
1000
0001
0010
0100
0010
0001
1000
0100
1000
0010
0100
0001
0100
0010
1000
0001
1000
0100
0010
0001
1000
0100
1000
0001
,
0010
0100
1000
0100
0010
0001
1000
0001
0100
0010
0100
0001
1000
0010
1000
0001
1000
0100
0010
0001
1000
0100
1000
0010
,
0100
0010
1000
0001
0010
0100
0010
0001
1000
0100
1000
0001
0100
0010
0100
0001
1000
0010
1000
0001
0100
0010
0100
0001
,
1000
0100
0010
0001
1000
0100
1000
0001
0010
0001
0100
0010
1000
0010
0100
0001
1000
0100
0010
0001
1000
0100
1000
0010
,
0100
0001
0100
0010
1000
0001
1000
0100
0010
0001
1000
0100
1000
0010
0100
0001
0100
0010
1000
0010
0100
0001
1000
0100
,
0010
0001
0010
0100
1000
0001
0010
0001
0100
0010
0100
0001
1000
0010
1000
0100
0010
0001
1000
0100
1000
0001
0100
0010
,
0100
0001
1000
0010
0100
0010
1000
0001
0010
0100
0010
0001
1000
0100
1000
0010
0100
0001
1000
0100
1000
0001
0010
0100
,
0010
0001
1000
0100
1000
0010
0100
0001
1000
0001
0010
0001
0100
0010
0100
0001
1000
0010
1000
0010
0100
0001
1000
0100
,
0010
0001
1000
0100
1000
0010
0100
0001
1000
0100
1000
0010
0100
0010
1000
0001
0010
0100
0010
0001
1000
0100
1000
0010
,
0100
0001
1000
0001
0010
0100
1000
0001
1000
0010
0100
0010
1000
0100
1000
0001
0010
0100
1000
0001
1000
0010
0100
0001
,
0100
0010
0100
0001
1000
0010
1000
0100
0010
0001
1000
0100
1000
0001
0100
0010
1000
0010
0100
0001
1000
0001
0010
0100
,
2000
0000
0000
0000
0000
0000
3010
0000
0100
0000
0000
0000
0000
0000
0000
0000
0001
1000
0001
0000
0010
0000
0100
0000
1000
0000
0001
0000
0100
0000
0010
0000
,
1000
0001
0100
0010
0100
0001
1000
0100
0010
0100
1000
0001
0010
0001
1000
0010
0100
0010
1000
0001
0100
0001
1000
0100
,
0010
0001
1000
0100
1000
0010
0100
0010
1000
0001
0010
0100
1000
0001
0010
0001
0100
0010
1000
0010
0100
0001
0100
0010
,
1000
0001
1000
0100
0010
0001
1000
0100
1000
0001
0010
0001
0100
0010
1000
0010
0100
0001
1000
0100
0010
0001
1000
0010
,
1000
0001
0100
0010
0200
0000
0000
0301
1000
0010
1000
0001
0010
0100
1000
0001
,
1000
0000
0000
0100
0000
0000
0010
0000
0000
0001
0000
0000
0100
0000
0000
0001
0000
0000
1000
0000
0000
0010
0000
0000
1000
0000
0000
0000
0001
0000
0000
0000
0100
0000
0000
0000
0010
0000
0000
0000
1000
0000
0000
0000
0001
0000
0000
0000
0010
0000
0000
0000
0100
0000
0000
0000
1000
0000
0000
0000
0001
0000
0000
0000
0010
0000
0000
0000
0001
0000
0000
0000
0100
0000
0000
0000
0010
0000
0000
0000
1000
0000
0000
0000
0010
0000
0000
0000
0100
0000
0000
0000
0010
0000
0000
0000
,
1000
0001
0100
0001
1000
0100
0010
0001
1000
0100
1000
0010
0100
0001
1000
0001
0010
0100
1000
0100
0010
0001
1000
0100
,
1000
0010
0100
0001
0100
0010
1000
0001
1000
0100
0010
0001
1000
0100
1000
0001
0010
0001
0100
0010
1000
0010
0100
0001
,
1000
0000
0000
1100
0000
0000
0110
0000
0000
0011
0000
0000
0100
0010
0100
0001
,
1000
0000
0000
0100
0000
0000
0010
0000
0000
0001
0000
0000
1000
0000
0000
0010
0000
0000
0100
0000
0000
0001
0000
0000
1000
0000
0000
0000
0010
0000
0000
0000
1000
0000
0000
0000
0001
0000
0000
0000
0100
0000
0000
0000
0010
0000
0000
0000
0100
0000
0000
0000
0001
0000
0000
0000
1000
0000
0000
0000
0100
0000
0000
0000
0010
0000
0000
0000
0100
0000
0000
0000
1000
0000
0000
0000
0001
0000
0000
0000
0010
0000
0000
0000
0001
0000
0000
0000
0100
0000
0000
0000
0010
0000
0000
0000
,
1000
0010
0100
0010
1000
0001
0010
0001
0100
0010
1000
0001
1000
0100
0010
0001
1000
0100
1000
0001
0100
0010
0100
0001
,
1000
0100
1000
0010
0100
0010
1000
0001
0010
0100
0010
0001
1000
0100
1000
0001
1000
0010
0100
0001
0100
0010
1000
0001
,
2000
0000
3010
0120
0000
0130
0201
0300
0000
1001
0000
0000
0001
0100
0010
1000
,
0010
0100
0001
1000
0100
1000
0010
0100
0001
1000
0100
0010
0001
1000
0001
0100
0010
0100
0001
1000
0010
1000
0001
0100
,
0001
1000
0100
1000
0010
0100
0010
1000
0001
0010
0100
0010
0001
1000
0100
1000
0001
1000
0010
0100
0010
1000
0001
0010
,
0100
0010
0001
1000
0100
1000
0001
1000
0010
0100
0010
1000
0100
1000
0001
0100
0010
0100
0001
1000
0010
1000
0100
0010
,
0001
1000
0100
0010
0100
1000
0001
1000
0010
0100
0010
1000
0001
0010
0100
0010
0001
1000
0100
1000
0010
0100
0010
1000
,
0001
0010
0001
0100
0010
0100
0001
1000
0010
1000
0100
0010
0001
1000
0100
1000
0001
0100
0001
1000
0010
0100
0010
1000
,
0001
0010
0100
0010
0001
1000
0100
1000
0010
0100
0010
1000
0001
1000
0100
0010
0001
1000
0100
1000
0010
0100
0001
0100
,
0010
1000
0001
1000
0100
0010
0001
1000
0100
1000
0010
0100
0010
1000
0001
0100
0001
0010
0100
1000
0100
0010
0001
1000
,
0010
0000
0100
0001
0000
1000
0100
0000
0010
0001
1000
0000
0010
0100
0001
1000
,
0001
0000
0000
0100
0000
0000
0010
0000
0000
1000
0000
0000
0001
0000
0000
0010
0000
0000
0100
0000
0000
1000
0000
0000
0010
0000
0000
0000
0100
0000
0000
0000
0001
0000
0000
0000
1000
0000
0000
0000
0100
0000
0000
0000
1000
0000
0000
0000
0010
0000
0000
0000
0100
0000
0000
0000
0010
0000
0000
0000
1000
0000
0000
0000
0001
0000
0000
0000
0100
0000
0000
0000
0010
0000
0000
0000
1000
0000
0000
0000
0001
0000
0000
0000
0010
0000
0000
0000
0100
0000
0000
0000
0010
0000
0000
0000
,
0001
1000
0100
1000
0001
0100
0010
0100
0001
1000
0100
0010
0100
1000
0001
0010
0001
1000
0100
1000
0010
0100
0001
0100
,
0010
1000
0001
1000
0010
0100
0010
1000
0001
0100
0001
1000
0100
0010
0001
1000
0100
1000
0001
0100
0010
1000
0010
0100
,
0002
0000
1003
0020
0030
0100
0001
0000
1000
0020
0030
0000
0100
0000
0010
0000
,
0100
0000
0001
0000
0000
0000
1000
0000
0001
0100
0000
0000
0000
0000
0010
0000
1000
0010
0000
0000
0000
0000
1000
0000
0001
0000
0100
0000
0010
0000
0000
0000
,
1000
0100
0010
0001
1000
0001
0100
0010
1000
0010
0100
0010
1000
0001
0100
0001
1000
0100
0010
0001
1000
0100
1000
0010
,
0100
0001
1000
0001
0010
0100
0010
0001
1000
0100
1000
0010
1000
0001
0100
0001
1000
0100
0010
0001
1000
0100
1000
0010
,
0100
0010
1000
0001
0010
0100
0010
0001
1000
0100
1000
0010
0100
0001
0100
0010
1000
0001
0010
0001
0100
0010
0100
0001
,
1000
0100
0010
0001
1000
0100
1000
0010
0100
0010
1000
0001
0010
0100
0010
0001
1000
0100
1000
0010
0100
0001
1000
0100
,
1000
0001
0010
0100
0010
0001
1000
0100
1000
0010
0100
0001
0100
0010
1000
0001
1000
0100
0010
0001
1000
0100
1000
0001
,
0010
0100
1000
0100
0010
0001
1000
0001
0100
0010
0100
0001
1000
0010
1000
0001
1000
0100
0010
0001
1000
0100
1000
0010
,
0100
0010
1000
0001
0010
0100
0010
0001
1000
0100
1000
0001
0100
0010
0100
0001
1000
0010
1000
0001
0100
0010
0100
0001
,
1000
0100
0010
0001
1000
0100
1000
0001
0010
0001
0100
0010
1000
0010
0100
0001
1000
0100
0010
0001
1000
0100
1000
0010
,
0100
0001
0100
0010
1000
0001
1000
0100
0010
0001
1000
0100
1000
0010
0100
0001
0100
0010
1000
0010
0100
0001
1000
0100
,
0010
0001
0010
0100
1000
0001
0010
0001
0100
0010
0100
0001
1000
0010
1000
0100
0010
0001
1000
0100
1000
0001
0100
0010
,
0100
0001
1000
0010
0100
0010
1000
0001
0010
0100
0010
0001
1000
0100
1000
0010
0100
0001
1000
0100
1000
0001
0010
0100
,
0010
0001
1000
0100
1000
0010
0100
0001
1000
0001
0010
0001
0100
0010
0100
0001
1000
0010
1000
0010
0100
0001
1000
0100
,
0010
0001
1000
0100
1000
0010
0100
0001
1000
0100
1000
0010
0100
0010
1000
0001
0010
0100
0010
0001
1000
0100
1000
0010
,
0100
0001
1000
0001
0010
0100
1000
0001
1000
0010
0100
0010
1000
0100
1000
0001
0010
0100
1000
0001
1000
0010
0100
0001
,
0100
0010
0100
0001
1000
0010
1000
0100
0010
0001
1000
0100
1000
0001
0100
0010
1000
0010
0100
0001
1000
0001
0010
0100
,
2000
0000
0000
0000
0000
0000
3010
0000
0100
0000
0000
0000
0000
0000
0000
0000
0001
1000
0001
0000
0010
0000
0100
0000
1000
0000
0001
0000
0100
0000
0010
0000
,
1000
0001
0100
0010
0100
0001
1000
0100
0010
0100
1000
0001
0010
0001
1000
0010
0100
0010
1000
0001
0100
0001
1000
0100
,
0010
0001
1000
0100
1000
0010
0100
0010
1000
0001
0010
0100
1000
0001
0010
0001
0100
0010
1000
0010
0100
0001
0100
0010
,
1000
0001
1000
0100
0010
0001
1000
0100
1000
0001
0010
0001
0100
0010
1000
0010
0100
0001
1000
0100
0010
0001
1000
0010
,
1000
0001
0100
0010
0200
0000
0000
0301
1000
0010
1000
0001
0010
0100
1000
0001
,
0100
0000
0000
0010
0000
0000
1000
0000
0000
0010
0000
0000
0100
0000
0000
0001
0000
0000
0100
0000
0000
0010
0000
0000
1000
0000
0000
0000
0010
0000
0000
0000
0100
0000
0000
0000
0001
0000
0000
0000
1000
0000
0000
0000
0001
0000
0000
0000
0010
0000
0000
0000
0100
0000
0000
0000
1000
0000
0000
0000
0001
0000
0000
0000
0010
0000
0000
0000
0001
0000
0000
0000
0100
0000
0000
0000
0010
0000
0000
0000
1000
0000
0000
0000
0010
0000
0000
0000
0100
0000
0000
0000
0010
0000
0000
0000
,
1000
0001
0100
0001
1000
0100
0010
0001
1000
0100
1000
0010
0100
0001
1000
0001
0010
0100
1000
0100
0010
0001
1000
0100
,
1000
0010
0100
0001
0100
0010
1000
0001
1000
0100
0010
0001
1000
0100
1000
0001
0010
0001
0100
0010
1000
0010
0100
0001
,
2000
0000
0000
0000
0000
3000
0000
0000
0000
0000
0000
0000
;

//---------------dance-single - 12- (Braeden)----------------
#NOTES:
     dance-single:
     12- (Braeden):
     Hard:
     12:
     0.765,0.892,0.076,0.601,0.826,739.000,12.000,95.000,0.000,0.000:
1000
0010
0100
0100
0001
1000
1000
0100
0010
0010
0001
0001
0010
0100
1000
0001
,
0100
0100
0010
1000
0010
0100
0100
0001
1000
1000
0001
0010
0100
0100
1000
0001
,
1000
0100
0010
0001
1000
0001
0100
0010
1000
0000
0000
0000
0100
0000
0000
0000
0020
0000
0000
0000
0000
0000
0031
0000
0000
0000
0000
0000
0010
0000
0000
0000
,
0100
0000
1000
0000
0020
0000
0000
0130
0000
0000
0001
0000
0010
0000
0100
0000
,
2000
0000
0000
3002
0000
0000
0103
0000
0010
1000
0010
0000
1000
0001
1000
0000
,
1000
0000
0000
1100
0000
0000
0110
0000
0000
0011
0000
0000
0100
0010
0100
0001
,
1000
0100
0010
0001
1000
0010
0100
0001
1000
0000
0000
0000
0010
0000
0000
0000
0200
0000
0000
0000
0000
0000
0301
0000
0000
0000
0000
0000
0010
0000
0000
0000
,
0100
0000
0010
0000
0002
0000
0000
0103
0000
0000
0010
0000
0100
0000
0001
0000
,
1000
0000
0000
0010
0000
0000
0100
0000
0001
0000
0100
0010
1000
0000
0001
1000
,
0001
0000
0010
0120
0000
0130
0201
0300
0000
1001
0000
0000
0001
0100
0010
1000
,
0002
0000
0000
0000
0000
0000
0000
0000
0000
0000
0000
0000
0013
0000
0000
0010
,
0000
0000
0000
0000
0100
0000
1000
0000
0001
0000
0100
0010
1000
0000
0000
0000
0000
0000
0000
0000
1000
0000
0100
0000
1000
0000
0100
0000
0010
0000
0001
0000
,
1000
0000
0000
0000
0100
0000
0000
0000
0010
0000
0000
0000
0002
0000
0000
0000
0000
0000
0000
0000
0103
0000
0000
0010
1000
0000
0000
0000
0001
0000
0000
0000
,
2000
0000
0000
3020
0000
0000
0130
0000
,
0002
0000
0103
0000
0020
2030
3020
2030
,
3001
0000
0000
0000
0100
0000
0010
0000
0100
0000
0000
0000
0001
1000
0010
0000
0100
0000
0000
0000
0001
0000
0000
0000
0001
0000
0100
0000
0010
0000
1000
0000
,
0001
0000
0000
0001
0000
0000
0001
0000
0010
0000
0100
1000
0001
0000
1000
0000
,
0010
0000
0100
0001
0000
1000
0100
0000
0010
0001
1000
0000
0010
0100
0001
1000
,
0001
0100
0010
1000
0001
0010
0100
1000
0001
0000
0100
0000
0010
0000
1000
0000
0001
0000
0000
0000
1000
0000
0001
1000
0001
0000
0000
0000
0000
0000
0000
0000
,
2000
0000
0000
0000
3020
0000
0230
0300
,
0002
0000
2003
3002
,
1003
0000
1000
0020
0030
0100
0001
0000
1000
0020
0030
0000
0100
0000
0010
0000
,
0100
0000
0001
0000
0000
0000
1000
0000
0001
0100
0000
0000
0000
0000
0010
0000
1000
0010
0000
0000
0000
0000
1000
0000
0001
0000
0100
0000
0010
0000
0000
0000
,
2000
0000
0000
0000
3000
0000
0010
0000
0100
0001
0010
0001
1000
0100
0010
0001
,
1000
0000
0000
0000
0001
0000
1000
0000
0010
0000
0000
0000
0100
0000
0000
0000
0001
0000
0000
0000
0000
0000
1000
0000
0000
0000
0000
0000
0001
1000
0001
0000
,
1000
0000
0100
0010
0100
1000
0001
0100
0020
0000
0000
0000
0130
1000
0001
0100
,
0010
1000
0100
0010
0001
1000
0010
0100
0002
0000
0103
0000
0010
0000
1000
0000
,
0001
0100
0010
0100
0001
0010
0001
1000
0100
0010
0001
1000
0010
0100
0001
0010
,
0001
0000
0100
0000
0020
0000
2030
0000
3200
0000
0000
0310
0000
0000
0001
0000
,
0200
0300
0000
0020
0030
0000
1000
1000
,
0020
0000
0000
0000
0230
0000
0000
0000
0310
0000
0010
0000
1000
0100
1000
0001
,
0100
0000
0010
1000
0001
0000
0100
0000
0010
0000
1000
0200
0000
0000
0310
0000
,
0001
0000
1000
0010
0100
0000
0001
0000
1000
0000
0100
0010
0000
0000
0010
0000
,
0100
1000
0001
0100
0010
0000
1000
0000
0200
0000
0000
0310
0000
0000
0010
0000
,
0010
0100
0010
1000
0100
0000
0010
0001
,
2000
0000
3020
0000
,
0230
0000
0000
0000
0301
0010
0100
1000
,
0001
0000
0000
1000
0100
0010
0001
0000
0100
0000
0010
0000
1000
0100
0010
0000
,
0002
0000
0000
0000
0003
0000
0010
0000
0100
0000
0000
0000
0000
0000
0000
0000
0001
1000
0001
0000
0010
0000
0100
0000
1000
0000
0001
0000
0100
0000
0001
0000
,
0020
0000
0130
0100
0200
0000
0310
0010
,
0020
0000
0000
0030
,
2000
0000
3002
0000
,
1003
0001
0100
0010
0200
0000
0000
0301
1000
0010
1000
0001
0010
0100
1000
0001
,
1000
0100
0010
0001
1000
0001
0100
0010
1000
0000
0000
0000
0100
0000
0000
0000
0020
0000
0000
0000
0000
0000
0031
0000
0000
0000
0000
0000
0010
0000
0000
0000
,
0100
0000
1000
0000
0020
0000
0000
0130
0000
0000
0001
0000
0010
0000
0100
0000
,
2000
0000
0000
3002
0000
0000
0103
0000
0010
1000
0010
0000
1000
0001
1000
0000
,
1000
0000
0000
1100
0000
0000
0110
0000
0000
0011
0000
0000
0100
0010
0100
0001
,
1000
0100
0010
0001
1000
0010
0100
0001
1000
0000
0000
0000
0010
0000
0000
0000
0200
0000
0000
0000
0000
0000
0301
0000
0000
0000
0000
0000
0010
0000
0000
0000
,
0100
0000
0010
0000
0002
0000
0000
0103
0000
0000
0010
0000
0100
0000
0001
0000
,
1000
0000
0000
0010
0000
0000
0100
0000
0001
0000
0100
0010
1000
0000
0001
1000
,
0001
0000
0010
0120
0000
0130
0201
0300
0000
1001
0000
0000
0001
0100
0010
1000
,
0002
0000
0000
0000
0000
0000
0000
0000
0000
0000
0000
0000
0013
0000
0000
0010
,
0000
0000
0000
0000
0100
0000
1000
0000
0001
0000
0100
0010
1000
0000
0000
0000
0000
0000
0000
0000
1000
0000
0100
0000
1000
0000
0100
0000
0010
0000
0001
0000
,
1000
0000
0000
0000
0100
0000
0000
0000
0010
0000
0000
0000
0002
0000
0000
0000
0000
0000
0000
0000
0103
0000
0000
0010
1000
0000
0000
0000
0001
0000
0000
0000
,
2000
0000
0000
3020
0000
0000
0130
0000
,
0002
0000
0103
0000
0020
2030
3020
2030
,
3001
0000
0000
0000
0100
0000
0010
0000
0100
0000
0000
0000
0001
1000
0010
0000
0100
0000
0000
0000
0001
0000
0000
0000
0001
0000
0100
0000
0010
0000
1000
0000
,
0001
0000
0000
0001
0000
0000
0001
0000
0010
0000
0100
1000
0001
0000
1000
0000
,
0010
0000
0100
0001
0000
1000
0100
0000
0010
0001
1000
0000
0010
0100
0001
1000
,
0001
0100
0010
1000
0001
0010
0100
1000
0001
0000
0100
0000
0010
0000
1000
0000
0001
0000
0000
0000
1000
0000
0001
1000
0001
0000
0000
0000
0000
0000
0000
0000
,
2000
0000
0000
0000
3020
0000
0230
0300
,
0002
0000
2003
3002
,
1003
0000
1000
0020
0030
0100
0001
0000
1000
0020
0030
0000
0100
0000
0010
0000
,
0100
0000
0001
0000
0000
0000
1000
0000
0001
0100
0000
0000
0000
0000
0010
0000
1000
0010
0000
0000
0000
0000
1000
0000
0001
0000
0100
0000
0010
0000
0000
0000
,
2000
0000
0000
0000
3000
0000
0010
0000
0100
0001
0010
0001
1000
0100
0010
0001
,
1000
0000
0000
0000
0001
0000
1000
0000
0010
0000
0000
0000
0100
0000
0000
0000
0001
0000
0000
0000
0000
0000
1000
0000
0000
0000
0000
0000
0001
1000
0001
0000
,
1000
0000
0100
0010
0100
1000
0001
0100
0020
0000
0000
0000
0130
1000
0001
0100
,
0010
1000
0100
0010
0001
1000
0010
0100
0002
0000
0103
0000
0010
0000
1000
0000
,
0001
0100
0010
0100
0001
0010
0001
1000
0100
0010
0001
1000
0010
0100
0001
0010
,
0001
0000
0100
0000
0020
0000
2030
0000
3200
0000
0000
0310
0000
0000
0001
0000
,
0200
0300
0000
0020
0030
0000
1000
1000
,
0020
0000
0000
0000
0230
0000
0000
0000
0310
0000
0010
0000
1000
0100
1000
0001
,
0100
0000
0010
1000
0001
0000
0100
0000
0010
0000
1000
0200
0000
0000
0310
0000
,
0001
0000
1000
0010
0100
0000
0001
0000
1000
0000
0100
0010
0000
0000
0010
0000
,
0100
1000
0001
0100
0010
0000
1000
0000
0200
0000
0000
0310
0000
0000
0010
0000
,
0010
0100
0010
1000
0100
0000
0010
0001
,
2000
0000
3020
0000
,
0230
0000
0000
0000
0301
0010
0100
1000
,
0001
0000
0000
1000
0100
0010
0001
0000
0100
0000
0010
0000
1000
0100
0010
0000
,
0002
0000
0000
0000
0003
0000
0010
0000
0100
0000
0000
0000
0000
0000
0000
0000
0001
1000
0001
0000
0010
0000
0100
0000
1000
0000
0001
0000
0100
0000
0001
0000
,
0020
0000
0130
0100
0200
0000
0310
0010
,
0020
0000
0000
0030
,
2000
0000
3002
0000
,
1003
0001
0100
0010
0200
0000
0000
0301
1000
0010
1000
0001
0010
0100
1000
0001
,
0010
0000
0000
0000
0001
0000
1000
0000
0001
0000
0000
0010
0000
0000
0010
0000
,
2000
0000
0000
0000
0000
3000
0000
0000
0000
0000
0000
0000
;

//---------------dance-single - 8 (Braeden)----------------
#NOTES:
     dance-single:
     8 (Braeden):
     Medium:
     8:
     0.497,0.513,0.006,0.468,0.241,474.000,1.000,74.000,0.000,0.000:
1000
0000
0001
0000
0000
0100
0000
0000
0010
0000
0000
0010
0000
1000
0000
0000
,
0001
0000
0000
1000
0000
1000
0000
0000
0100
0000
0000
0010
0000
0010
0000
0000
,
2000
0000
0000
0000
3001
0000
0100
0000
0020
0000
0000
0031
0000
0000
0010
0000
,
0100
0000
1000
0000
0020
0000
0000
0130
0000
0000
0001
0000
0010
0000
0100
0000
,
2000
0000
0000
3002
0000
0000
0103
0000
0010
1000
0010
0000
1000
0001
1000
0000
,
1000
0000
0000
0100
0000
0000
0100
0000
0000
0010
0000
0000
0001
0000
0010
0000
,
0002
0000
0000
0000
1003
0000
0010
0000
0200
0000
0000
0301
0000
0000
0010
0000
,
0100
0000
0010
0000
0002
0000
0000
0103
0000
0000
0010
0000
0100
0000
0001
0000
,
1000
0000
0000
0010
0000
0000
0100
0000
0001
0000
0100
0010
0100
0000
0001
1000
,
0001
0000
0010
0100
0000
0100
0001
0000
0000
1001
0000
0000
0001
0000
0010
0000
,
0002
0000
0000
0000
0000
0000
0000
0000
0000
0000
0000
0000
0013
0000
0000
0010
,
0000
0100
1000
0001
0000
1000
1000
0010
,
1000
0100
0010
0002
0000
0103
0010
1000
,
0002
0000
0000
0023
0000
0000
0130
0000
,
2000
0000
3100
0000
0001
0010
0100
1000
,
0001
0100
0100
0010
0100
0001
0001
0010
,
0100
0000
0000
1000
0000
0000
0001
0000
0010
0000
0100
0000
1000
0000
0100
0000
,
0010
0000
0001
0010
0000
0100
1000
0000
0010
0000
1000
0000
0010
0000
0000
0000
,
0200
0000
0301
0010
0001
1000
0001
0000
,
2000
0000
0000
0000
3020
0000
0230
0300
,
0002
0000
2003
3002
,
1003
0000
1000
0020
0030
0100
0001
0000
1000
0020
0030
0000
0100
0000
0010
0000
,
0100
0001
0000
1000
0001
0000
0000
0010
1000
0000
0000
1000
0001
0100
0010
0000
,
2000
0000
3000
0010
0100
0001
1000
0010
,
1000
0000
0001
0000
0010
0000
0100
0000
1000
0000
0000
1000
0000
0000
0001
0000
,
2000
0000
3000
0000
0020
0000
0130
0001
,
0200
0000
0300
0000
0020
0000
1030
0001
,
2000
0000
3000
0001
0200
0000
0300
0000
,
0001
0000
0100
0000
0020
0000
2030
0000
3200
0000
0000
0310
0000
0000
0001
0000
,
0200
0300
0000
0020
0030
0000
1000
1000
,
0020
0000
0000
0000
0230
0000
0000
0000
0310
0000
0010
0000
1000
0100
1000
0100
,
1000
0010
1000
0100
0010
0001
1000
0010
,
1000
0100
0010
0001
1000
0010
0100
0001
,
0010
0000
0001
0000
1000
0000
0001
0000
0200
0000
0000
0310
0000
0000
0010
0000
,
0010
0100
1000
0100
0010
0000
0010
0001
,
2000
0000
3020
0000
,
0230
0000
0000
0000
0301
0010
0100
1000
,
0001
0000
0000
1000
0100
0010
0001
0000
0100
0000
0010
0000
1000
0100
0010
0000
,
0002
0000
0003
0010
0100
0000
0000
0000
0001
0000
0100
0000
0010
0000
1000
0000
,
0020
0000
0130
0100
0200
0000
0310
0010
,
0020
0000
0000
0030
,
2000
0000
3002
0000
,
1003
0001
0100
0010
0200
0000
0000
0300
1000
0000
0010
0000
0100
0000
0001
0000
,
0001
0000
0000
0000
0010
0000
0100
0000
0010
0000
0000
0010
0000
0000
0000
0000
,
0100
0000
1000
0000
0100
0000
0000
0100
0000
0000
0000
0000
1000
0000
0010
0000
,
1000
0000
0000
1000
0000
0000
1000
0000
0000
0000
0000
0000
0010
0000
0100
0000
,
0010
0000
0000
0100
0000
0000
0001
0000
0000
0100
0000
0000
0001
0000
1000
0000
,
0010
0000
0000
0000
1000
0000
0100
0000
1000
0000
0000
1000
0000
0000
0000
0000
,
0010
0000
0100
0000
0010
0000
0000
0010
0000
0000
0000
0000
0100
0000
0001
0000
,
0100
0000
0000
0100
0000
0000
0100
0000
0000
0000
0000
0000
0010
0000
1000
0000
,
0010
0000
0000
0010
0000
0000
0010
0000
0000
0010
0000
0000
0100
0000
0001
0000
,
0200
0000
0000
0000
0000
0000
0000
0000
0000
0000
0000
0300
0010
0000
0000
1000
,
0000
0000
0000
0000
0100
0000
0000
0010
0000
0000
0001
0000
1000
0000
0010
0000
,
1000
0100
1000
0010
0000
1000
0100
1000
,
0020
0000
0000
0000
0000
0000
0230
0000
0000
0000
0000
0000
0000
0301
0000
0000
,
1000
0000
0100
0000
0010
0001
0010
0100
,
1000
0000
0010
0000
0000
0100
0010
1000
,
0001
0000
0000
1000
0000
0000
1000
0000
0000
0000
1000
0000
0001
0000
1000
0000
,
0001
0000
0000
1000
0000
0000
0001
0000
0000
1000
0000
0000
0001
0000
0100
0000
,
0020
2030
3200
0320
,
0032
0000
0203
0000
,
0320
0000
2030
3020
,
0130
0001
0100
0001
0000
0000
1000
0000
0000
0010
0000
0000
0100
0000
0000
0000
,
0001
1000
0000
0000
0001
0100
0000
0000
0010
1000
0000
0000
0100
0000
0000
0000
,
0020
0000
0031
0100
0020
0000
0000
0000
,
0030
1000
0100
0010
0001
1000
0001
0010
,
0100
0000
0000
0100
0000
0000
1000
0001
0100
0000
0000
0000
0010
0000
1000
0000
,
0001
0000
0100
0010
1000
0100
0010
0001
,
0200
0000
0000
0310
2000
0000
0000
3000
,
0001
0100
0010
1000
0100
0010
0001
0010
,
0001
0000
0000
0100
0000
0000
0010
0000
0000
0000
0000
0000
1000
0000
0100
0000
,
0010
0001
0010
0000
0001
0000
0010
0001
,
0010
0000
0000
0100
0100
0000
0000
0000
,
1000
0000
0001
0000
0200
0000
0310
0010
,
0010
0000
0000
0000
0000
0000
1000
0000
0001
0000
0000
0100
0000
0000
0010
0000
,
1000
0000
0100
0000
0010
0000
0100
1000
,
0200
0000
0320
0000
,
0032
0000
0203
0000
,
0310
1000
0100
0010
,
0001
0000
0000
0100
0010
0000
0000
0000
1000
0100
1000
0001
0100
0010
1000
0001
,
0200
0300
0020
0030
,
2000
0000
0000
3000
,
0002
0000
0203
0000
,
0310
1000
0100
0000
0010
0001
1000
0000
,
0200
0000
0310
0001
0100
0000
0000
0000
,
0010
1000
0001
0000
0000
0000
0000
0000
;

//---------------dance-single - 1+ (Braeden)----------------
#NOTES:
     dance-single:
     1+ (Braeden):
     Beginner:
     1:
     0.100,0.135,0.025,0.101,0.000,91.000,4.000,16.000,0.000,0.000:
0000
0000
0000
0000
,
0000
0000
0000
0000
,
0000
0000
0000
0000
,
1000
0000
0000
0000
,
0010
0000
0000
0000
,
0100
0000
0000
0000
,
1001
0000
0000
0000
,
0010
0000
0000
0000
,
0100
0000
0000
0000
,
0001
0000
0000
0000
,
2000
0000
0000
3000
,
0010
0000
0000
0000
,
0200
0000
0000
0300
,
0010
0000
0000
0000
,
0200
0000
0000
0300
,
0010
0000
0000
0000
,
0002
0000
0000
0003
,
1000
0000
0000
0000
,
0002
0000
0003
0000
,
0200
0000
0300
0000
,
0020
0000
0030
0000
,
1000
0000
0000
0000
,
0000
0000
0000
0000
,
0001
0000
0000
0000
,
0000
0000
0100
0000
,
0020
0000
0030
0000
,
0000
0000
1000
0000
,
0002
0000
0003
0000
,
0000
0000
0010
0000
,
0020
0000
0030
0000
,
0000
0000
0000
0000
,
0100
0000
0010
0000
,
0000
0000
1000
0000
,
1000
0000
1000
0000
,
1000
0000
0000
0000
,
0001
0000
0001
0000
,
0100
0000
0100
0000
,
0010
0000
0010
0000
,
1000
0000
1000
0000
,
0002
0000
0003
0000
,
0200
0000
0300
0000
,
0020
0000
0030
0000
,
0100
0000
0000
0000
,
1001
0000
0000
0000
,
0010
0000
0000
0000
,
0100
0000
0000
0000
,
0001
0000
0000
0000
,
1001
0000
0000
0000
,
0010
0000
0000
0000
,
0001
0000
0000
0000
,
1000
0000
0000
0000
,
0002
0000
0003
0000
,
0200
0000
0300
0000
,
0010
0000
0010
0000
,
0100
0000
0000
0000
,
0001
0000
0000
0000
,
1000
0000
0000
0000
,
0010
0000
0000
0000
,
0100
0000
0000
0000
,
0010
0000
0000
0000
,
0200
0000
0300
0000
,
0010
0000
0000
0000
,
1000
0000
0000
0000
,
0000
0000
0000
0000
,
0001
0000
0000
0000
,
0000
0000
0100
0000
,
0010
0000
0000
0000
,
0000
0000
1000
0000
,
0001
0000
0000
0000
,
0000
0000
0010
0000
,
0010
0000
0000
0000
,
0000
0000
0010
0000
,
0001
0000
0000
0000
,
0000
0000
0100
0000
,
0010
0000
1000
0000
,
0010
0000
0000
0000
,
0010
0000
0010
0000
,
0010
0000
1000
0000
,
0000
0000
0001
0000
,
0000
0000
0100
0000
,
0010
0000
0000
0000
,
0100
0000
0000
0000
,
0001
0000
0000
0000
,
1000
0000
0001
0000
,
1001
0000
0000
0000
,
0000
0001
0000
0000
;

//---------------dance-single - 4 (Braeden)----------------
#NOTES:
     dance-single:
     4 (Braeden):
     Easy:
     4:
     0.241,0.295,0.013,0.430,0.000,197.000,2.000,68.000,0.000,0.000:

0000
0000
0000
0000
,
0000
0000
0000
0000
,
0000
0000
0001
0000
,
0100
0000
0010
0000
,
1000
0000
0001
0000
,
0010
0000
0000
0100
0000
0000
0000
0000
,
0002
0000
0103
0010
,
1000
0100
0010
0001
,
0100
0010
1000
0100
,
0010
0000
0000
0010
0000
0000
0001
0000
,
0200
0000
0310
0000
,
2000
0000
0000
0000
,
3020
0000
0000
0000
,
0230
0000
0302
0000
,
0013
0000
0100
0000
,
2000
0000
0000
0000
,
3002
0000
0103
0000
,
0010
0000
0000
0010
0000
0000
0010
0000
,
2000
0000
3002
0203
,
0320
0000
2030
0000
,
3200
0000
0310
0001
,
0100
0000
0000
0010
0000
0000
1000
0000
,
0001
0000
0000
0000
,
0002
0000
0103
0000
,
0000
0010
1000
0000
,
0002
0000
0103
0000
,
0020
0000
1030
0001
,
0200
0000
0310
0000
,
1000
0001
0200
0000
,
0310
0000
0020
0000
,
1030
0001
0100
0010
,
2000
0000
3001
0000
,
0100
0000
0020
0000
,
0130
0000
0002
0000
,
0103
0000
0010
0000
,
2000
0000
3002
0000
,
0203
0000
0320
0000
,
1030
0000
0001
0000
,
0200
0000
0320
0000
,
2030
0000
3002
0000
,
0203
0000
0000
0000
,
0320
0000
2030
0000
,
3001
0100
0010
0000
,
2002
3003
0010
0100
,
0010
1000
0100
0010
,
0001
0100
0010
1000
,
0001
0000
0000
0100
0000
0000
0100
0000
,
0020
0000
1030
0001
,
0100
0010
1000
0100
,
0010
0010
0100
0100
,
1000
0000
0000
0001
,
0200
0000
0320
0000
,
2030
0000
3002
0000
,
0103
0000
0020
0000
,
1030
0000
0001
0000
,
0020
0000
0130
0000
,
0020
0000
0030
0000
,
0200
0000
0310
0000
,
2000
0000
3001
0000
,
0200
0000
0320
2030
,
3200
0000
0320
0000
,
0032
0000
0103
0010
,
1000
0000
0000
1000
0000
0000
1000
0000
,
0010
0000
0000
0000
,
0200
0000
0310
0000
,
0000
0100
0010
1000
,
0002
0000
0103
0000
,
0010
0000
1000
0001
,
0020
0000
0130
0000
,
2000
0000
3001
0100
,
0010
0000
1000
0001
,
0100
0000
0000
0000
0010
0000
1000
0001
,
1000
0000
0010
0000
,
0100
0000
0000
0000
0001
0000
0010
0001
,
0010
0000
0001
0000
,
1000
0000
0000
0000
0001
0000
1000
0010
,
0100
0000
0000
0000
0200
0000
0000
0300
,
0020
0000
0000
0030
0200
0000
0000
0300
,
0001
0000
0010
0000
,
0200
0000
2300
0000
,
3002
0000
0203
0000
,
0320
0000
0000
0030
,
0200
0000
0320
0000
,
1030
0001
0100
0010
,
2002
0000
0000
3003
;
