#TITLE:Model DD7;
#SUBTITLE:Stepped by Baku;
#ARTIST:GF&DM;
#TITLETRANSLIT:;
#SUBTITLETRANSLIT:;
#ARTISTTRANSLIT:;
#CREDIT:;
#BANNER:Model DD7banner.bmp;
#BACKGROUND:Model DD7BG.jpg;
#LYRICSPATH:;
#CDTITLE:Baku2CD.bmp;
#MUSIC:Model DD7.mp3;
#OFFSET:-0.200;
#SAMPLESTART:31.157;
#SAMPLELENGTH:12.000;
#SELECTABLE:YES;
#BPMS:0.000=310.000,288.000=155.000,312.000=309.999;
#STOPS:287.500=1.520
;
#BGCHANGES:;
// cache tags:
#FIRSTBEAT:20.000;
#LASTBEAT:472.000;
#SONGFILENAME:Songs/Beyond Legends/Model DD7/Model DD7.SM;
#HASMUSIC:1;
#HASBANNER:1;
#MUSICLENGTH:100.400;
// end cache tags

//---------------dance-single - Hard----------------
#NOTES:
     dance-single:
     Hard:
     Hard:
     15:
     0.879,1.000,0.916,0.388,0.010,487.000,92.000,39.000,0.000,0.000:

0000
0000
0000
0000
,
0000
0000
0000
0000
,
0000
0000
0000
0000
,
0000
0000
0000
0000
,
0000
0000
0000
0000
,
2000
0000
0000
0000
,
3002
0000
0000
0000
,
0000
0000
0000
0000
,
0003
0000
0000
0000
,
0000
0000
0000
0000
,
0000
0000
0000
0000
,
0000
0000
0000
0000
,
2000
0000
0000
0002
,
3000
0000
0000
0003
0020
0000
0000
0000
,
0000
0030
0200
0000
0000
0000
0000
0000
,
0000
0000
0000
0300
,
0000
0000
0000
0000
,
0000
0000
0000
0000
,
0000
0000
0000
0000
,
0000
0000
0000
0000
,
1000
0000
0100
0000
0000
1000
0100
1000
,
0200
0000
0000
0300
0000
2100
0000
0000
,
3000
1002
0000
0003
,
2001
0000
0000
3000
,
0000
2000
0000
0000
0000
0000
0000
0000
,
0000
0000
0000
0000
,
0000
0000
0000
0000
,
0000
0000
3000
0000
,
2000
0200
0000
0000
0000
0000
0000
0000
,
0300
0000
0000
0000
,
0000
0000
0000
0000
,
0000
0000
0000
0000
0000
0000
0000
3000
,
1000
0100
0010
1000
0001
0100
0210
0300
,
0100
0100
1000
0100
0010
0001
0012
0003
,
1000
0100
1000
0100
0010
0001
1020
0030
,
1000
0100
1000
0100
0001
0010
0012
0003
,
1000
0010
0001
0010
0100
1000
1002
0003
,
1000
0100
0001
0010
0001
0100
2010
3000
,
1000
0100
0001
0100
0010
1000
0210
0300
,
1000
0100
1000
0100
1000
0100
1020
0030
,
1000
0100
1000
0100
1000
0100
1000
0000
,
0001
1000
0001
1000
0001
0010
0100
0010
,
0100
1000
0001
1000
0100
0010
0100
0010
,
0100
1000
0001
1000
0010
1000
0001
0100
,
0100
0010
0010
0100
1000
0001
0100
0001
,
1000
0010
1000
0001
0100
0010
0100
0100
,
0010
0100
0010
0001
1000
0100
1000
0001
,
1000
0010
1000
0001
0100
0010
0100
0100
,
1000
0100
0010
1000
0100
0100
0000
0000
,
0022
0003
0030
2020
0030
3000
2002
3000
,
1003
0100
1000
0100
1000
0100
0000
0010
,
0010
0000
1000
0100
0000
0010
0010
0000
,
1000
0100
1000
0100
0001
0100
0100
0001
,
0001
0001
1000
0010
1000
0001
0100
0001
,
2000
0000
0000
0000
,
0000
0000
0000
0000
,
3100
1000
0100
0000
0010
0001
0010
0000
,
0001
1000
0001
0000
1000
0100
1000
0000
,
1000
0010
0100
0000
0100
0010
0100
0000
,
1000
0010
0100
0000
0001
0010
0100
0000
,
1000
0100
0010
0000
0001
0001
0001
0000
,
0001
0010
0001
0000
0100
0010
0100
0000
,
1000
0100
1000
0001
1000
0010
0100
0100
,
2000
0000
3010
0201
,
1300
1100
0000
0110
0000
0011
0000
1010
,
0000
0011
0000
0110
0000
1001
0000
0110
,
0000
0011
0000
1100
0000
0101
0000
1010
,
0000
0110
0000
1001
0000
0101
0000
1010
,
0000
0011
0000
0110
0000
1100
0000
0110
,
0000
1100
0000
0011
0000
0101
0000
1001
,
0000
1001
0000
0101
0000
0011
0000
0101
,
0000
1001
0000
1010
0000
1100
0000
0120
,
1030
1000
0010
0010
,
1000
0001
1001
0100
,
0110
0000
1001
0000
0001
0010
0001
0000
,
0001
0000
0010
0000
0100
0000
1000
0100
1000
0000
1000
0000
0100
0000
0010
0000
,
0100
0000
0010
0000
0010
0000
1000
0000
0100
0000
1000
0000
0010
0000
0001
0010
,
0001
0010
0110
0010
1001
1000
1100
1010
,
1000
0100
1000
0000
1000
0100
1000
0000
,
1000
0100
1000
0000
0010
0001
0010
0000
,
0001
0010
0001
0000
0001
0010
0001
0000
,
0100
0010
0100
0000
0010
0100
0010
0000
,
1000
0001
1000
0000
0001
1000
0001
0000
,
0100
0100
1000
0001
0010
0010
2010
3000
,
0010
0100
0010
0001
0010
0100
1200
0300
,
1000
0100
0010
1000
0010
0001
0012
0003
,
1000
0001
1000
0100
0010
0010
2100
3000
,
0010
0010
0001
0001
0100
0100
0210
0300
,
1000
1000
1000
0000
0010
0010
0010
0000
,
0001
0001
0001
0000
1000
1000
1000
0000
,
1000
0100
0010
0100
1000
0100
0010
0000
,
0001
0010
0001
0010
0100
1000
0100
0000
,
0010
0100
0010
1000
0100
0010
0100
0000
,
0001
0100
0010
0100
0010
0100
0001
0010
,
1200
0000
0300
1000
0000
0110
0000
1000
,
0000
0110
0000
0001
0000
0110
0000
0001
,
0000
1100
0000
0010
0000
1001
0000
0100
,
0000
1100
0000
1010
0010
0010
1000
0100
,
0100
1100
0000
0110
0000
1100
0000
0101
,
0000
1000
0000
0100
0000
0011
0000
0110
,
0000
1000
0000
0100
0000
1100
0000
0110
,
0000
1000
0000
0010
0000
0001
0010
0010
,
0100
1100
0000
1100
0000
0110
0000
0011
,
0000
0110
0000
1010
0000
0011
0000
1010
,
0000
1001
0000
1010
0000
1001
0000
0011
,
0000
0101
0000
0011
0000
0011
0000
1100
,
1000
0100
1000
0100
0010
0100
0010
0001
,
0010
0010
0100
1000
0100
0010
0100
1000
,
1000
0100
1000
0100
0100
0010
0010
0001
,
0001
0001
0100
0010
0100
1000
0100
1000
,
1000
2200
0000
0000
0000
0000
0000
0000
,
0000
0000
0000
0000
,
0000
0000
0000
0000
,
0000
0000
0000
0000
,
0000
0000
0000
0000
,
0000
0000
0000
0000
,
0000
0000
0000
0000
,
0000
0000
0000
0000
,
3300
0000
0000
0000
,;

//---------------dance-single - Medium----------------
#NOTES:
     dance-single:
     Medium:
     Medium:
     9:
     0.629,0.999,0.199,0.199,0.000,402.000,20.000,20.000,0.000,0.000:

0000
0000
0000
0000
,
0000
0000
0000
0000
,
0000
0000
0000
0000
,
0000
0000
0000
0000
,
0000
0000
0000
0000
,
2000
0000
0000
0000
,
3020
0000
0000
0000
,
0000
0000
0000
0000
,
0030
0000
0000
0000
,
0000
0000
0000
0000
,
0000
0000
0000
0000
,
0000
0000
0000
0000
,
2000
0000
0000
0000
0000
0000
0000
3200
,
0000
0000
0320
0000
,
0000
0000
0000
0002
0030
0000
0000
0000
,
0000
0000
0000
0000
0000
0000
0000
0003
,
0000
0000
0000
0000
,
0000
0000
0000
0000
,
0000
0000
0000
0000
,
0000
0000
0000
0000
,
1000
0000
0100
0000
0000
0010
0100
0010
,
0200
0000
0000
0300
0000
1000
0000
0000
,
0000
0000
0001
0000
0000
0000
0000
2000
,
0000
0000
0000
3000
,
1020
0000
0000
0000
,
0000
0000
0000
0000
,
0030
0000
0000
0000
,
0000
0000
0000
0000
0000
0000
0000
1000
,
2100
0000
0000
0000
,
0000
0000
0000
0000
,
0000
0000
0000
0000
,
3000
0000
0000
0000
,
1000
0100
1000
0100
,
1000
0100
1000
0000
0010
0100
0010
0000
,
0001
0001
0010
0100
,
0010
0100
0010
0000
0001
0001
0010
0000
,
1000
0100
0010
1000
,
0010
0100
0010
0000
0001
0010
0001
0000
,
0010
0100
0001
0010
,
0100
0010
0100
0000
0001
0100
1000
0000
,
0001
0100
1000
0100
1000
0100
1000
0000
,
0001
1000
0001
1000
0001
1000
0001
0010
,
0100
0100
0001
0100
1000
0100
0100
0010
,
0100
0100
1000
0100
0010
1000
0100
1000
,
0100
0010
0001
0010
0100
0000
1000
0000
,
0100
0010
0010
0001
,
0100
0000
1000
0000
0100
0000
1000
0100
,
1000
0000
0010
0000
0010
0000
0100
0010
,
0200
0000
0300
0000
,
1000
0000
0000
0001
0000
0000
1000
0000
,
1000
0000
1000
0000
0100
1000
0100
0000
,
0010
0000
0010
0000
0010
0100
0010
0000
,
0001
0000
0010
0000
0001
0010
0001
0000
,
0100
0000
0010
0000
0001
0001
1000
0000
,
2000
0000
0000
0000
,
3000
0100
1000
0100
,
0100
0000
1000
0100
0100
0000
0001
0010
,
0010
0000
1000
0100
1000
0000
0010
0100
,
0010
0000
0001
0010
0001
0000
0010
0100
,
0001
0000
1000
0001
0010
0000
1000
0010
,
0100
0000
0001
0010
1000
0000
0010
0100
,
0001
0000
0100
0010
0001
0000
0100
0000
,
1000
0100
0010
0010
,
2100
0000
0001
3001
,
0001
1000
0000
0010
0000
0100
0000
1100
,
0000
0010
0000
0010
0000
1000
0000
0110
,
0000
0010
0000
0100
0000
0001
0000
0011
,
0000
0100
0000
0001
0000
0100
0000
0011
,
0000
0100
0000
0110
0000
0001
0000
0100
,
0000
0001
0000
0001
0000
0011
0000
0100
,
0000
0010
0000
0100
0000
1010
0000
1000
,
0000
0010
0000
0001
0000
0110
0000
0020
,
1030
0100
1000
0100
,
1000
0000
0100
0000
1000
0000
0001
0010
,
0001
0000
0001
0010
0001
0010
0001
0000
,
1000
0100
0010
0100
,
0010
0100
0010
0000
0100
1000
0100
0000
,
0010
0000
0001
0000
1000
0010
0001
0010
,
1000
0000
0001
1000
0001
0000
1000
0100
,
0010
0000
0010
0100
1000
0000
0100
0010
,
0001
0000
0001
0010
0100
0000
1000
0100
,
0100
0000
0001
0010
0010
0000
1000
0010
,
0100
0000
0001
0010
1000
0000
0010
0000
,
1100
0000
0010
0000
0001
0000
0001
0010
,
0010
0000
1000
1000
1000
0000
0010
0001
,
1000
0000
0010
0100
0001
0000
1000
0100
,
1000
0010
0010
0100
,
1000
0000
0010
0010
0100
0000
0001
0010
,
0100
0000
1000
0100
0010
0000
0001
0010
,
0100
0001
0011
0001
,
1000
1000
0100
0100
0010
1000
0200
0300
,
1000
0100
0010
0100
0010
0001
0020
0030
,
1000
0100
0010
0001
0010
0100
0020
0030
,
1000
1000
0100
0100
1000
0100
0020
0030
,
1000
1000
0010
1000
,
0100
0010
0010
0001
,
0100
0100
0010
0100
,
0010
0010
1000
0100
,
0100
0001
0010
0100
,
0010
1000
0010
0100
,
1100
0010
0100
0001
,
0100
0010
0100
1100
,
0110
0010
0001
0010
,
0101
0010
0100
0001
,
0001
0001
0100
0010
,
0100
0010
0001
0100
,
0001
0100
1000
0010
,
0100
0010
0001
0010
,
0001
0100
0100
1000
,
0100
0110
0100
0110
,
2200
0000
0000
0000
,
0000
0000
0000
0000
,
0000
0000
0000
0000
,
0000
0000
0000
0000
,
0000
0000
0000
0000
,
0000
0000
0000
0000
,
0000
0000
0000
0000
,
0000
0000
0000
0000
,
3300
0000
0000
0000
,;

//---------------dance-single - ----------------
#NOTES:
     dance-single:
     :
     Easy:
     6:
     0.403,0.881,0.239,0.319,0.000,227.000,24.000,32.000,0.000,0.000:

0000
0000
0000
0000
,
0000
0000
0000
0000
,
0000
0000
0000
0000
,
0000
0000
0000
0000
,
0000
0000
0000
0000
,
1000
0000
0000
0000
,
1000
0000
0000
0000
,
0000
0000
0000
0000
,
0000
0000
0000
0000
,
0000
0000
0000
0000
,
0000
0000
0000
0000
,
0000
0000
0000
0000
,
1000
0000
0000
0100
,
0000
0000
1000
0000
,
0000
2000
0000
0000
,
3000
0000
0000
0000
,
0000
0000
0000
0000
,
0000
0000
0000
0000
,
0000
0000
0000
0000
,
0000
0000
0000
0000
,
1000
0000
0100
0000
0000
0010
0100
1000
,
0020
0000
0030
0000
0000
2000
0000
0000
,
0000
3000
0000
0002
0000
0000
0000
0003
,
2000
0000
0000
3000
,
0002
0000
0000
0000
,
0000
0000
0000
0000
,
0000
0000
0000
0000
,
0003
0000
0000
0000
,
2000
0000
0000
0000
,
0000
0000
0000
0000
,
0000
0000
0000
0000
,
0000
0000
0000
0000
0000
0000
0000
3000
,
0001
0001
0001
0010
,
0010
0010
0100
1000
,
0100
1000
0011
0001
,
0010
0100
1000
0100
,
1100
1000
0100
1000
,
0011
0001
0010
0110
,
0100
0010
0100
0010
,
0001
1010
1000
0001
,
0110
1000
0001
1010
,
1000
1001
1001
1100
,
1100
2100
0100
3100
,
1100
1100
0100
0100
,
2000
0000
0000
0000
,
3000
0100
0100
0010
,
0010
0100
1010
1000
,
0010
0100
1100
0010
,
0110
0010
0010
0010
,
1000
0100
1000
0100
,
0110
0100
0010
0100
,
1000
0100
0110
0010
,
0010
0100
0010
1000
,
0100
1100
1000
0010
,
0100
0001
0010
0100
,
0010
0100
0100
0100
,
2000
0000
0000
0000
,
0000
0000
0000
0000
,
0000
0000
0000
0000
,
3002
0000
0000
0000
,
0000
0000
0000
0000
,
0023
0000
0000
0030
,
0100
0100
1000
1000
,
1000
0000
1000
1000
,
1000
0000
0001
0000
,
0100
0000
1000
0000
,
0010
0000
0001
0000
,
0100
0000
0010
0000
,
1000
0000
0100
0000
,
0010
0000
0001
0000
,
0100
0000
1000
0000
,
1000
0000
0000
1000
0000
0000
1000
0000
0000
2000
0000
3000
,
0010
0010
0100
1100
,
0010
0010
0100
1100
,
0010
0100
0010
0110
,
1000
0100
0100
1010
,
1000
1000
1000
1000
,
0010
0001
0001
0001
,
0100
0100
2000
0000
,
3100
0010
0020
0000
,
1030
1000
2000
0000
,
3010
0001
0020
0000
,
1030
1000
2000
0000
,
3100
0010
0002
0000
,
0103
1000
2000
0000
,
3010
0100
0020
0000
,
0031
0001
0002
0000
,
0103
0010
0002
0000
,
0013
0100
2000
0000
,
3010
0100
0010
0100
,
1000
0100
1000
0100
,
0010
0001
0010
0001
,
0010
0100
0010
0100
,
1000
0100
0010
1000
,
0002
0000
0000
0000
,
0000
0000
0000
0000
,
0000
0000
0000
0003
,
1000
0000
0000
0000
,
2000
0000
0000
0000
,
0000
0000
0000
0000
,
3001
0000
0000
0000
,
2000
0000
0000
3000
,
0002
0000
0000
0000
,
0000
0000
0000
0003
,
0010
0000
0000
0000
,
2000
0000
0000
3000
,
0020
0000
0000
0000
,
0000
0000
0000
0030
,
0001
0000
0000
0000
,
2000
0000
0000
3000
,
0020
0000
0000
0000
,
0000
0000
0000
0000
,
0000
0000
0000
0000
,
0000
0000
0000
0000
,
0000
0000
0000
0000
,
0000
0000
0000
0000
,
0000
0000
0000
0000
,
0030
0000
0000
0000
,
0010
0000
0000
0000
,;
