#TITLE:Gobble;
#SUBTITLE:;
#ARTIST:Kimitaka Matsumae;
#TITLETRANSLIT:;
#SUBTITLETRANSLIT:;
#ARTISTTRANSLIT:;
#CREDIT:;
#BANNER:../fthescorept1bn.png;
#BACKGROUND:../fthescorept1bg.png;
#LYRICSPATH:;
#CDTITLE:;
#MUSIC:GOBBLE.ogg;
#OFFSET:-0.394;
#SAMPLESTART:26.640;
#SAMPLELENGTH:10.430;
#SELECTABLE:YES;
#BPMS:0.000=160.000;
#STOPS:;
#BGCHANGES:;
// cache tags:
#FIRSTBEAT:3.917;
#LASTBEAT:224.500;
#SONGFILENAME:Songs/Fuck The Score Part I/Gobble [Dossar]/gobble.sm;
#HASMUSIC:1;
#HASBANNER:1;
#MUSICLENGTH:91.428;
// end cache tags

//---------------dance-single - ----------------
#NOTES:
     dance-single:
     :
     Challenge:
     14:
     0.998,1.000,0.131,0.273,1.000,602.000,12.000,25.000,0.000,0.000:
0000
0000
0000
0000
0000
0000
0000
0000
0000
0000
0000
0000
0000
0000
0000
0000
0000
0000
0000
0000
0000
0000
0000
0000
0000
0000
0000
0000
0000
0000
0000
0000
0000
0000
0000
0000
0000
0000
0000
0000
0000
0000
0000
0000
0000
0000
0000
0001
,
0000
0000
1000
0100
0000
0100
0000
0000
,
0000
0000
0000
0000
1000
0100
0000
0100
,
0000
0000
0000
0000
0000
0000
0000
0000
1000
0001
0010
0000
0000
0000
0100
0000
,
2002
3003
0010
0000
1000
0000
0100
1000
,
0022
0000
0033
0000
1000
0010
0100
0000
0001
0000
0010
0000
0000
0000
0100
0000
,
2002
0000
0000
0000
3003
0000
0000
0000
0001
0000
0000
0000
1000
0000
0000
0000
0100
0000
0000
0000
0000
0000
0000
0000
1000
0100
1000
0001
0010
0100
1000
0000
,
0001
0010
0100
0000
0000
0000
1000
0000
0000
0000
0001
0000
0100
0000
0000
0000
,
2002
0000
0000
0000
3003
0000
0000
0000
1000
0000
0000
0000
0001
0000
0000
0000
1000
0010
0100
0001
1000
0001
1000
0000
0010
0000
0100
0000
0001
0000
0000
0000
,
2002
3003
1000
0100
0010
0001
0010
0100
,
1000
0000
0000
0000
0000
0000
0000
0000
0001
1000
0010
1000
0001
0100
0001
0000
1000
0000
0010
0000
0100
0000
0000
0000
0001
0000
0000
0000
1000
0000
0000
0000
,
0220
0330
1000
0000
0001
0000
1000
0001
,
1000
0100
0010
0001
1000
0100
1000
0000
0001
0000
0010
0000
0100
0000
0000
0000
1000
0000
0000
0000
0001
0000
0000
0000
0100
0000
0000
0000
0010
0000
0000
0000
,
2002
0000
0000
0000
3003
0000
0000
0000
1000
0000
0000
0000
0010
0000
0000
0000
0100
0000
0000
0000
0001
0000
0000
0000
1000
0010
0100
0001
0100
0001
1000
0000
,
0010
0100
0001
0000
1000
0000
0100
0000
0000
0000
0010
0000
0001
0000
0000
0000
,
0022
0000
0000
0000
0033
0000
0000
0000
0010
0000
0000
0000
0001
0000
0000
0000
1000
0100
1000
0001
0010
0100
1000
0000
0001
0000
0010
0000
0100
0000
0000
0000
,
2002
3003
1000
0100
0010
0001
1000
0010
,
0100
0000
0000
0000
0001
0000
0000
0000
1000
0001
1000
0010
0100
0001
1000
0000
0010
0000
0100
0000
0001
0000
0000
0000
1000
0000
0000
0000
0100
0000
0010
0000
,
0001
0000
1000
0000
0001
0010
0100
0000
1000
0000
0010
0000
0100
0001
0010
0100
,
1000
0000
0010
0000
0100
0000
0001
0010
0000
0100
1000
0000
0010
0000
0100
0000
,
2002
0000
0000
0000
3003
0000
0000
0000
0001
0000
0000
0000
1000
0000
0000
0000
0001
0000
0000
0000
1000
0000
0000
0000
0001
0010
0001
1000
0100
0010
0001
0000
,
1000
0100
0010
0001
0100
0010
1000
0000
0001
0000
0100
0000
0010
1000
0100
0000
,
0010
0001
0100
0010
1000
0100
0010
0001
0100
0010
1000
0100
0010
0000
0000
0000
,
0022
0000
0033
0000
0001
0100
0010
0000
1000
0100
0010
0000
0001
0000
0100
0010
,
0000
0000
1000
0000
0100
0010
0001
0000
1000
0000
0010
0000
1000
0000
0001
0000
,
0010
0001
0100
0000
0001
0010
0001
1000
,
0010
1000
0100
0010
0100
1000
0001
1000
,
0010
0100
0010
0000
1000
0100
1000
0001
,
0010
0001
0100
0010
0100
0001
0010
0001
,
1000
0100
1000
0000
0100
0010
0100
1000
,
0010
1000
0100
0010
0100
1000
0001
1000
,
0010
0000
0100
0000
0010
0000
1000
0000
0001
0100
0010
1000
0100
0000
0010
0000
,
0001
0010
0100
0000
1000
0000
0010
0000
0100
0001
0010
0100
1000
0000
0001
0000
,
1000
0010
0100
0001
1000
0010
1000
0001
0100
0000
0010
0000
1000
0000
0001
0000
0010
0000
0000
0000
0100
0000
0000
0000
1000
0000
0010
0000
0100
0000
0000
0000
,
0001
0000
0000
0000
0010
0000
0001
0000
1000
0000
0100
0000
0010
0000
0001
0000
1000
0100
1000
0001
0010
0100
1000
0000
0001
0010
0001
0000
1000
0100
1000
0000
,
0001
0000
0010
0000
0100
0000
1000
0000
0001
0000
0000
0000
1000
0000
0000
0000
0001
0100
0010
1000
0001
0000
0100
0000
0010
0000
0000
0000
1000
0000
0000
0000
,
0001
0000
0010
0000
0100
0000
0010
0000
0001
0000
0000
0000
1000
0000
0000
0000
0001
0100
0001
1000
0010
0100
0001
1000
0001
0000
0100
0000
0010
0000
1000
0000
,
0001
0000
0010
0000
0100
0010
0001
0100
0010
0000
1000
0100
1000
0001
0010
0001
,
1000
0100
0010
0001
1000
0100
1000
0000
0001
0010
0001
0000
1000
0100
1000
0000
0001
0000
0010
0000
0100
0000
0010
0000
0001
0000
0000
0000
1000
0000
0000
0000
,
0010
0000
0000
0000
0100
0000
0001
0000
1000
0000
0010
0000
0100
0000
0001
0000
1000
0010
1000
0000
0001
0000
0100
0000
0010
0000
1000
0001
1000
0000
0000
0000
,
0001
0100
0010
1000
0001
0100
0001
1000
0010
0000
0100
0000
0001
0000
1000
0000
0100
0000
0000
0000
0010
0000
0000
0000
0001
0000
0000
0000
0010
0000
0000
0000
,
0100
0000
0000
0000
1000
0000
0000
0000
0100
0000
0010
0000
0100
0000
1000
0000
0001
0010
0001
1000
0100
0010
0001
0000
1000
0000
0100
0000
1000
0000
0000
0000
,
0001
0100
0010
1000
0100
0000
0010
0000
0100
1000
0010
0100
0001
0010
0100
0000
,
1000
0000
0010
0000
0100
0001
0100
0000
0010
0000
0000
0000
1000
0000
0000
0000
0001
1000
0010
1000
0001
0100
0010
1000
0001
0000
0100
0000
0010
0000
1000
0000
,
0001
0000
1000
0000
0100
0010
0001
0100
0010
1000
0100
0010
0100
1000
0001
0010
,
0001
1000
0100
0010
0001
1000
0100
0000
0010
0000
0001
0000
1000
0000
0000
0000
0010
0000
0000
0000
0100
0000
0000
0000
0001
0000
0010
0000
0100
0000
0000
0000
,
1000
0000
0010
0100
0001
0000
0010
0000
0100
0010
0001
0000
0100
0000
0010
0000
,
1000
0100
0010
0000
0001
0000
0100
0010
0000
1000
0000
0100
0010
0000
0001
0000
,
0100
0000
0001
0000
0010
0100
1000
0000
0010
0100
0001
0010
0100
0000
1000
0010
,
0100
0000
0001
0000
0010
0100
1000
0010
0100
0001
0010
0100
1000
0010
0100
0001
,
0010
0100
1000
0000
0010
0000
0100
0000
0001
0000
0000
0000
1000
0100
0010
0000
,
0001
0100
0010
1000
0100
0010
0001
0100
0010
1000
0100
0010
0001
0100
0010
1000
,
0100
0010
0001
0100
0010
1000
0100
0000
0010
0000
0001
0000
0010
0000
0100
0000
,
1000
0000
0010
0000
0100
0010
0100
0001
,
0010
0100
1000
0010
0100
0010
1000
0100
,
0010
0000
0000
0001
0000
0000
0100
0000
0000
0010
0000
0000
0100
0000
0000
0000
0000
0000
0001
0000
2000
3001
0000
0000
,
2002
3003
0000
0000
0000
0000
0000
0000
;
