#TITLE:Deathmask Divine;
#SUBTITLE:;
#ARTIST:The Black Dahlia Murder;
#TITLETRANSLIT:;
#SUBTITLETRANSLIT:;
#ARTISTTRANSLIT:;
#CREDIT:;
#BANNER:Deathmask - bn.png;
#BACKGROUND:Deathmask - bg.png;
#LYRICSPATH:;
#CDTITLE:;
#MUSIC:Deathmask Divine.ogg;
#OFFSET:0.961;
#SAMPLESTART:20.461;
#SAMPLELENGTH:11.980;
#SELECTABLE:YES;
#BPMS:0.000=228.000;
#STOPS:;
#BGCHANGES:;
// cache tags:
#FIRSTBEAT:4.000;
#LASTBEAT:822.000;
#SONGFILENAME:Songs/Beast Aoreo BEAST! 2/Deathmask Divine - [Aoreo]/Deathmask Divine.sm;
#HASMUSIC:1;
#HASBANNER:1;
#MUSICLENGTH:217.338;
// end cache tags

//---------------dance-single - ----------------
#NOTES:
     dance-single:
     :
     Challenge:
     17:
     1.000,1.000,0.087,0.120,1.000,2377.000,19.000,26.000,0.000,0.000:
0000
0000
0000
0000
,
0001
0000
1000
0000
0100
0000
1000
0000
0020
0000
0000
0000
1030
0001
1000
0000
,
0010
0100
0010
0000
0200
0000
0000
0000
0301
0000
0010
0000
0002
0000
0203
0000
,
0310
0000
1000
0000
0100
0000
0010
0000
0002
0000
0000
0000
1003
0001
1000
0000
,
0010
0100
0010
0000
0200
0000
0000
0000
0301
1000
0010
0100
0001
1000
0001
1000
,
0001
0000
1000
0000
0001
0100
0010
0000
1000
0000
0010
0000
1000
0001
1000
0000
,
0001
0000
0010
0000
0001
1000
0010
0000
0100
0000
0010
0000
1000
0010
1000
0000
,
1100
0000
0100
0000
1000
0001
0100
0000
0010
0000
0100
0000
0001
0100
0010
0000
,
1000
0000
0010
0000
1000
0100
1000
0000
0010
0000
0100
0000
0001
0010
0001
0000
,
0101
0000
0100
0000
0010
0100
0010
0000
1000
0000
0010
0000
0100
0001
0100
0000
,
0001
0000
1000
0000
0100
1000
0100
0000
1000
0000
0010
0000
0100
0001
0100
0000
,
0101
0000
0001
0000
0100
0010
0100
0000
0010
0000
1000
0000
0100
0010
0001
0000
,
0010
0000
0100
0000
1000
0100
1000
0000
0010
1000
0010
1000
0001
1000
0001
1000
,
0001
0000
0100
0000
0010
0100
0010
0000
1000
0000
0100
0000
0010
0001
0010
0000
,
0001
0000
0100
0000
0010
1000
0010
0000
1000
0000
0100
0000
1000
0001
1000
0000
,
1001
0000
0001
0000
0010
0100
1000
0000
0100
0000
0010
0000
0100
1000
0100
0000
,
1000
0000
0010
0000
0100
0001
0100
0000
0001
0000
0010
0000
0100
1000
0010
0000
,
0110
0000
0100
0000
0001
0010
0001
0000
1000
0000
0010
0000
0100
0001
0100
0000
,
0001
0000
0010
0000
0100
1000
0010
0000
0100
0000
0001
0000
1000
0100
1000
0000
,
1010
0000
0010
0000
0100
0010
0100
0000
0010
0000
0100
0000
0001
1000
0001
0000
,
1000
0000
0100
0000
0010
0001
0010
0000
0001
0100
0001
0100
0010
1000
0010
1000
,
0001
0100
0001
1000
0010
0100
0010
1000
0001
0100
0001
1000
0010
0100
0001
0100
,
0010
1000
0001
1000
0100
0010
0100
1000
0001
0100
0010
0100
0001
1000
0001
0010
,
0100
0010
0100
1000
0001
1000
0001
0100
0010
0100
0010
1000
0100
0010
0100
1000
,
0001
0010
0001
1000
0100
1000
0001
0100
0001
1000
0010
1000
0010
0100
0001
1000
,
0010
0100
0001
1000
0100
1000
0001
0010
0001
1000
0010
1000
0001
0100
0001
1000
,
0010
0100
0010
1000
0001
0010
0100
0010
0001
0100
0010
1000
0001
0100
0001
0100
,
0010
1000
0100
0010
0001
0010
0100
1000
0100
1000
0010
0100
0001
1000
0010
0100
,
0001
1000
0001
1000
0001
0000
0100
0000
0001
0100
0001
0100
0001
0000
1000
0000
,
0001
0100
0001
0100
0010
1000
0010
0100
0001
1000
0001
0100
0010
1000
0001
0010
,
0100
1000
0001
1000
0100
0010
0001
1000
0001
1000
0010
0100
0010
0100
0001
1000
,
0010
0100
0001
1000
0001
0100
0010
0100
0001
1000
0100
1000
0100
0010
0001
1000
,
0100
1000
0001
0010
0001
1000
0010
0100
0010
1000
0001
1000
0010
0100
0001
0100
,
0002
0000
0000
0000
1003
0100
1000
0100
2000
0000
0000
0000
3010
0100
0010
0100
,
0020
0000
0000
0000
0130
0001
0100
0001
1000
0100
0010
0100
0010
0001
1000
0001
,
1000
0000
0001
0000
0010
0100
1000
0001
1000
0001
0010
0100
0010
0100
1000
0001
,
0010
0001
1000
0100
0010
0100
1000
0001
0100
0001
0100
0010
1000
0001
1000
0001
,
0100
0000
0010
0000
1000
0000
0010
0000
0100
0000
0001
0000
1000
0000
0100
1000
,
0010
0000
0100
0000
0001
0000
0010
0000
0100
0000
1000
0000
0010
0000
0100
0001
,
0100
0000
0001
0000
1000
0000
0100
0000
1000
0000
0010
0000
0100
0000
0001
0100
,
0010
0100
0001
1000
0100
0010
0001
1000
0001
0010
0100
1000
0001
0100
0001
1000
,
0010
0000
0100
0000
0001
0000
0010
0000
0100
0000
1000
0000
0100
0000
1000
0010
,
0100
0000
0010
0000
0100
0000
0001
0000
0010
0000
0100
0000
1000
0000
0001
0100
,
0001
0000
0100
0000
0010
0000
1000
0000
0100
0000
0010
0000
0100
0000
1000
0001
,
1000
0001
1000
0100
0010
0100
1000
0001
0100
0010
1000
0001
0010
0100
1000
0001
,
1000
0000
0100
0000
0010
0000
0001
0000
0100
0000
0010
0000
1000
0000
0100
1000
,
0010
0000
0100
0000
0001
0000
0010
0000
0100
0000
1000
0000
0010
0000
0100
0001
,
0100
0000
0010
0000
0100
0000
0001
0000
1000
0000
0100
0000
0010
0000
0001
0010
,
0001
1000
0100
1000
0010
0100
0010
1000
0001
1000
0001
0100
0010
1000
0001
1000
,
0001
0000
0100
0000
0001
0000
1000
0000
0010
0000
0100
0000
0001
0000
0100
0010
,
0100
0000
0010
0000
1000
0000
0100
0000
0010
0000
0100
0000
1000
0000
0001
0100
,
0001
0100
0010
1000
0100
0010
0001
1000
,
0010
0000
0100
0000
0010
0000
0100
0000
0000
0001
0000
0000
0010
0000
0000
0100
0000
0000
1000
0000
0000
0010
0000
0000
,
0100
0000
0001
0000
0010
0100
0010
0000
0100
0000
1000
0000
0010
0100
0010
0000
,
0100
0000
0001
0000
1000
0100
0010
0000
0001
0000
0100
0000
0010
1000
0010
0000
,
1010
0000
1000
0000
0001
0100
0001
0000
0010
0000
0100
0000
1000
0010
1000
0000
,
0010
0000
0100
0000
0001
0010
0001
0000
0010
0000
0100
0000
1000
0010
0100
0000
,
0110
0000
0010
0000
0100
0001
1000
0000
0100
0000
0010
0000
0001
0010
0001
0000
,
0100
0000
0010
0000
1000
0100
1000
0000
0010
0000
0100
0000
0001
0010
0001
0000
,
0101
0000
0100
0000
0010
1000
0100
0000
1000
0000
0001
0000
0100
0001
0010
0000
,
0001
0100
0001
0100
0010
1000
0010
1000
0001
0100
0001
0100
0010
1000
0001
1000
,
0001
0000
1000
0000
0001
0100
0010
0000
0100
0000
0010
0000
1000
0100
1000
0000
,
0010
0000
0100
0000
0001
0010
0001
0000
0100
0000
0001
0000
0010
0100
1000
0000
,
1100
0000
0100
0000
1000
0010
0100
0000
0010
0000
0100
0000
0001
0100
0010
0000
,
0100
0000
0010
0000
1000
0100
1000
0000
0010
0000
0100
0000
0001
0010
0001
0000
,
0011
0000
0010
0000
0100
1000
0100
0000
1000
0000
0010
0000
1000
0100
0010
0000
,
0001
0000
0100
0000
0010
0100
0010
0000
1000
0000
0001
0000
0010
0100
1000
0000
,
0010
0000
0100
0000
0001
1000
0100
0000
1000
0000
0010
0000
0100
0001
0010
0000
,
0001
0000
1000
0000
0100
1000
0010
0000
0100
0001
0100
0010
1000
0010
0100
0001
,
1000
0000
0001
0000
1000
0000
0100
0000
1000
0000
0010
0000
0100
0010
0100
0010
,
0200
0000
0301
0000
0010
0000
0100
0000
1000
0000
0010
0000
1000
0100
1000
0100
,
2000
3100
0010
0001
0010
0001
0100
0010
,
0100
0001
1000
0001
0010
0100
1000
0100
0010
0001
1000
0100
1000
0010
0100
0001
,
1000
0000
0010
0000
0100
0000
0001
0000
0010
0000
0001
0000
0100
0001
0100
0001
,
0200
0000
0310
0000
1000
0000
0100
0000
0010
0000
0100
0000
1000
0001
1000
0100
,
0010
0100
0010
0001
1000
0001
1000
0010
0100
0010
1000
0001
1000
0100
0010
0001
,
1000
0100
1000
0010
0100
0001
0010
0100
1000
0100
0010
0001
,
0100
0010
0100
0001
1000
0100
0010
0100
1000
0010
0100
0001
,
0010
0100
0010
0001
0100
0010
1000
0010
0100
0001
0010
0100
,
0010
0100
1000
0010
0100
0001
0010
0001
0010
0100
1000
0100
,
1000
0001
1000
0100
0010
0001
1000
0010
0100
0010
0100
0001
1000
0010
0100
0001
,
1000
0100
0010
0001
0010
0100
0010
0001
0100
0010
1000
0100
,
1000
0010
0100
0001
0010
0100
0010
0001
0100
0010
1000
0100
,
1000
0010
0100
0001
0010
0001
0010
0100
1000
0100
1000
0010
,
0100
0001
0100
0001
1000
0010
1000
0010
0100
0001
0100
0001
1000
0100
0010
0001
,
1000
0100
0010
0100
1000
0100
0010
0001
0010
0100
1000
0100
,
1000
0010
0100
0001
0010
0001
0100
0010
0100
0010
1000
0100
,
1000
0100
0010
0100
0010
0100
1000
0100
1000
0010
0100
0001
,
0100
0010
1000
0001
1000
0010
0100
0001
1000
0100
0010
0001
1000
0001
0010
0100
,
1000
0001
1000
0010
0100
0010
1000
0100
1000
0001
0100
0001
,
0010
0100
1000
0100
1000
0010
0100
0001
0100
0010
1000
0010
,
1000
0100
0010
0001
0010
0100
1000
0010
0100
0010
0100
0001
,
1000
0100
1000
0001
0010
0100
1000
0001
1000
0100
0010
0001
1000
0100
1000
0001
,
0100
0001
0100
0010
1000
0001
0010
0100
1000
0010
0100
0001
,
0010
0100
0010
0001
0100
0010
1000
0100
0010
0100
1000
0010
,
0100
0001
1000
0100
1000
0001
0010
0100
1000
0100
0010
0100
,
1000
0001
0010
0001
1000
0010
0100
0010
1000
0001
0100
0010
1000
0001
0010
0100
,
1000
0100
1000
0010
0100
0001
0010
0100
1000
0010
0100
0001
,
0100
0010
1000
0001
0010
0001
0100
0010
1000
0100
1000
0100
,
0010
0100
1000
0010
0100
0001
0010
0100
0010
0001
0100
0010
,
0100
0001
1000
0001
0010
0100
1000
0001
1000
0100
0010
0001
1000
0100
1000
0001
,
0100
0001
0010
0100
1000
0100
1000
0010
0100
0001
0010
0100
,
1000
0100
0010
0100
1000
0010
0100
0001
0010
0100
0010
0001
,
0100
0010
1000
0100
0010
0001
0100
0010
0100
0010
1000
0001
,
1000
0010
1000
0010
0100
0001
0100
0001
1000
0010
0100
0010
1000
0001
1000
0001
,
1000
0100
0010
0001
0010
0001
0100
0010
1000
0100
0010
0100
,
1000
0010
0100
0001
0010
0001
1000
0100
1000
0010
0100
0010
,
0100
0001
0010
0100
1000
0100
0010
0001
0100
0010
0100
0010
,
2000
0000
0000
0000
3001
1000
0001
0010
0100
1000
0100
1000
0001
0100
0010
1000
,
0020
0000
0000
0000
0000
0000
0000
0030
0000
0000
0000
0000
0110
0000
0000
0000
,
1010
0000
0000
0000
0000
0000
1000
0000
1020
0000
0000
0000
0000
0000
0130
0001
,
0200
0000
0000
0000
0000
0000
0000
0000
0000
0000
0000
0000
0301
0100
0010
0000
,
0100
0010
1000
0100
0010
0001
1000
0010
,
0200
0000
0301
0100
0010
1000
0100
0010
,
0100
0000
0000
0010
,
0011
0000
0000
1001
0000
0000
1000
0000
,
1010
0000
0000
0000
0010
1000
0010
1000
0001
0100
0001
1000
0010
0100
0010
1000
,
0002
0000
0000
0000
0100
0000
1000
0003
,
1001
1000
0200
0310
,
0002
0000
0000
0103
,
0110
0000
0010
0100
0010
0000
1000
0000
0001
0000
0010
0000
0100
0000
1000
0000
,
0010
0000
0100
0001
0010
0100
1000
0010
,
0100
0000
0001
0100
0001
0100
0001
0010
,
0200
0000
0000
0000
0000
0000
1300
0000
0000
0000
0000
0000
0010
0100
0010
0000
,
0100
0000
0000
0000
0001
0000
0000
0000
1000
0100
1000
0100
0010
0001
0100
0010
,
2000
0000
0000
0000
0000
0000
3001
0100
0001
1000
0010
0100
,
0010
1000
0100
0010
0001
1000
0001
0100
0010
1000
0001
0010
,
0001
0100
0010
1000
0100
0010
0100
1000
0001
0010
0001
0100
,
0010
0000
0000
0000
1000
0000
0000
0000
0001
0000
0000
0000
0100
0000
0000
0000
0010
0000
0000
0000
0100
0000
0000
0000
0001
0000
0000
0000
1000
0000
0000
0000
0001
0000
0000
0000
0100
0000
0000
0010
0000
0000
1000
0000
0000
0001
0000
0000
,
0100
0000
0001
0000
1000
0100
1000
0000
0010
0000
0100
0000
0001
0010
0100
0000
,
0010
0000
0001
0000
1000
0100
0010
0000
0100
0000
1000
0000
0010
0100
0010
0000
,
0100
0000
0001
0000
1000
0100
1000
0000
0010
0000
0100
0000
0001
1000
0001
0000
,
1000
0000
0100
0000
0010
0100
0010
0000
0100
0000
0010
0000
0001
0100
0001
0000
,
1000
0010
0100
0001
0010
0100
1000
0010
0100
0001
1000
0100
,
1000
0001
0010
0100
1000
0010
0100
0001
0100
0010
1000
0001
,
0100
0001
1000
0100
1000
0001
0020
0000
0000
0000
0000
0030
,
0002
0000
0000
0000
0000
0000
0000
0000
0000
0000
0003
0000
0100
0001
1000
0100
,
1000
0100
1000
0010
0100
0001
0010
0100
1000
0001
1000
0100
,
1000
0010
0100
0001
0010
0100
1000
0001
1000
0010
0100
0001
,
0010
0100
0010
0001
1000
0100
0010
0001
0100
0010
1000
0001
,
1000
0000
0000
0000
0010
0000
0000
0000
0100
0000
0000
0000
0010
0000
0000
0000
1000
0000
0000
0000
0001
0000
0000
0000
0010
0000
0000
0000
0001
0000
0000
0000
1000
0000
0000
0000
0001
0000
0000
0100
0000
0000
0001
0000
0000
1000
0000
0000
,
0100
0000
1000
0000
0001
0000
0100
0000
0010
0000
1000
0000
0001
0100
0001
1000
,
0100
0000
1000
0000
0010
0000
0100
0000
0010
0000
1000
0000
0100
1000
0010
0100
,
0001
0000
0010
0000
0100
0000
1000
0000
0010
0000
0100
0000
0001
0010
0001
1000
,
0100
0000
1000
0000
0100
0000
0010
0000
0100
0000
1000
0000
0001
0010
0001
0100
,
0010
1000
0010
0100
0001
0010
0100
1000
0100
1000
0010
0100
,
0001
0000
0000
0000
0010
0000
0000
0000
0001
0000
0000
0000
0010
0000
0000
0000
0100
0000
0000
0000
1000
0000
0000
0000
0020
0000
0000
0000
0000
0000
0000
0000
0000
0000
0000
0000
0130
0000
0000
0001
0000
0000
1000
0000
0000
0100
0000
0000
,
1000
0000
0010
0000
0100
0010
0100
0000
0001
0000
0010
0000
0100
1000
0100
0000
,
1000
0000
0010
0000
0100
0001
0100
0000
0010
0000
1000
0000
0100
1000
0010
0100
,
0010
0000
0100
0000
0001
0000
1000
0000
0010
0000
1000
0000
0001
0100
0010
1000
,
0001
0000
0010
0000
0100
0000
0010
0000
0001
0000
1000
0000
0100
1000
0100
1000
,
0001
0000
0100
0000
0010
0000
0100
0000
0001
0000
1000
0000
0010
1000
0010
1000
,
0001
0000
0010
0000
0100
0000
1000
0000
0010
0000
0100
0000
0001
0010
0001
1000
,
0001
0000
0100
0000
0010
1000
0100
0000
1000
0000
0010
0000
0100
0001
0010
0000
,
0001
0000
0010
0000
0100
1000
0100
0000
1000
0000
0010
0000
0100
0010
0100
0000
,
0001
0000
1000
0000
0100
1000
0100
0000
1000
0000
0010
0000
0100
0001
0100
0000
,
0010
0000
1000
0000
0001
1000
0001
0000
1000
0010
0100
0010
1000
0001
1000
0010
,
0100
0001
1000
0100
1000
0001
0010
0001
1000
0100
0010
0100
0010
0001
1000
0100
,
1000
0100
0010
0001
0010
0001
1000
0010
1000
0001
0100
0001
0100
0010
1000
0010
,
1000
0001
0100
0010
0100
0001
1000
0001
0100
0010
0100
0010
1000
0001
1000
0001
,
0100
0001
0100
0010
1000
0010
1000
0100
0010
0001
0010
0001
1000
0010
1000
0010
,
0100
0001
1000
0100
1000
0001
0100
0010
1000
0001
0010
0001
1000
0100
1000
0001
,
0100
0001
0100
0010
1000
0010
1000
0001
0010
0100
1000
0001
0100
0010
0100
0001
,
1000
0001
1000
0100
0010
0001
0100
0001
1000
0010
0100
0010
1000
0001
0100
0010
,
0100
0001
1000
0010
0100
0010
1000
0001
0010
0100
1000
0001
0010
0100
1000
0001
,
1000
0100
0010
0100
1000
0001
0100
0001
1000
0010
0100
0010
1000
0001
0100
0001
,
1000
0010
0100
0001
0010
0100
0010
0100
1000
0001
0100
0010
0100
0001
1000
0001
,
0100
0010
1000
0001
1000
0100
0010
0001
1000
0001
0010
0100
1000
0001
0100
0001
,
0100
0010
1000
0010
1000
0001
0100
0001
0100
0010
1000
0010
1000
0001
1000
0001
,
0010
0100
1000
0001
1000
0100
0010
0001
1000
0001
0100
0010
1000
0100
1000
0001
,
0010
0100
0010
0100
1000
0001
1000
0001
0100
0001
1000
0010
0100
0010
1000
0001
,
0100
0010
1000
0010
0100
0001
0100
0001
1000
0100
0010
0001
1000
0010
0100
0001
,
1000
0100
1000
0010
0100
0001
0010
0100
1000
0100
0010
0001
,
0100
0010
0100
0001
1000
0100
0010
0100
1000
0010
0100
0001
,
0010
0100
0010
0001
0100
0010
1000
0010
0100
0001
0010
0100
,
0010
0100
1000
0010
0100
0001
0010
0001
0010
0100
1000
0100
,
1000
0100
0010
0100
1000
0001
0100
0010
0100
0001
1000
0001
0010
0100
1000
0001
,
1000
0100
0010
0001
0010
0100
0010
0001
0100
0010
1000
0100
,
1000
0010
0100
0001
0010
0100
0010
0001
0100
0010
1000
0100
,
1000
0010
0100
0001
0010
0001
0010
0100
1000
0100
1000
0010
,
0100
0001
0100
0010
1000
0001
1000
0100
0010
0100
1000
0001
0100
0010
1000
0001
,
1000
0010
0100
0010
1000
0100
0010
0001
0010
0100
1000
0100
,
1000
0010
0100
0001
0010
0001
0100
0010
0100
0010
1000
0100
,
1000
0100
0010
0100
0010
0100
1000
0100
1000
0010
0100
0001
,
0100
0010
1000
0001
0010
0001
1000
0100
0010
0100
0010
0001
1000
0010
0100
0001
,
1000
0010
1000
0100
0010
0001
0010
0100
1000
0010
0100
0001
,
0010
0100
1000
0100
1000
0010
0100
0001
0100
0010
1000
0010
,
1000
0100
0010
0001
0010
0100
1000
0010
0100
0010
0100
0001
,
1000
0100
0010
0100
0010
0001
1000
0100
1000
0001
0010
0001
0100
0010
1000
0001
,
1000
0100
1000
0010
0100
0001
0010
0100
1000
0010
0100
0001
,
0010
0100
0010
0001
0100
0010
1000
0100
0010
0100
1000
0010
,
0100
0001
1000
0100
1000
0001
0010
0100
1000
0100
0010
0100
,
1000
0001
0010
0001
1000
0010
0100
0010
1000
0001
0100
0001
1000
0100
0010
0100
,
1000
0100
1000
0010
0100
0001
0010
0100
1000
0010
0100
0001
,
0100
0010
1000
0001
0010
0001
0100
0010
1000
0100
1000
0100
,
0010
0100
1000
0010
0100
0001
0010
0100
0010
0001
0100
0010
,
0100
0001
0100
0001
1000
0100
0010
0100
1000
0001
0100
0010
1000
0001
0100
0001
,
1000
0001
0010
0100
1000
0100
1000
0010
0100
0001
0010
0100
,
1000
0100
0010
0100
1000
0010
0100
0001
0010
0100
0010
0001
,
0100
0010
1000
0100
0010
0001
0100
0010
0100
0010
1000
0001
,
1000
0100
1000
0100
0010
0001
0010
0001
1000
0010
1000
0001
0100
0010
1000
0001
,
1000
0010
0100
0010
1000
0001
0100
0010
1000
0100
0010
0100
,
1000
0010
0100
0001
0010
0001
1000
0100
1000
0010
0100
0010
,
0100
0001
0010
0100
1000
0100
0010
0001
0100
0010
0100
0010
,
0100
0001
1000
0100
0010
0001
0010
0100
1000
0001
0100
0010
1000
0010
0100
0001
,
2000
0000
3000
0000
;
