#TITLE:gigadelic;
#SUBTITLE:(DJ Chucky remix);
#ARTIST:teranoid & MC Natsack;
#TITLETRANSLIT:;
#SUBTITLETRANSLIT:;
#ARTISTTRANSLIT:;
#CREDIT:;
#BANNER:gigadelic (DJ Chucky remix).png;
#BACKGROUND:gigadelic (DJ Chucky remix)-bg.png;
#LYRICSPATH:;
#CDTITLE:hydra 2.PNG;
#MUSIC:gigadelic (DJ Chucky remix).ogg;
#OFFSET:-0.022;
#SAMPLESTART:68.868;
#SAMPLELENGTH:12.020;
#SELECTABLE:YES;
#BPMS:0.000=167.000;
#STOPS:;
#BGCHANGES:;
// cache tags:
#FIRSTBEAT:64.000;
#LASTBEAT:388.000;
#SONGFILENAME:Songs/in the groove2/gigadelic/gigadelic (DJ Chucky remix).sm;
#HASMUSIC:1;
#HASBANNER:0;
#MUSICLENGTH:105.000;
// end cache tags

//---------------dance-single - hydra----------------
#NOTES:
     dance-single:
     hydra:
     Hard:
     9:
     0.846,1.000,0.124,0.381,1.000,569.000,13.000,40.000,0.000,0.000:
0000
0000
0000
0000
,
0000
0000
0000
0000
,
0000
0000
0000
0000
,
0000
0000
0000
0000
,
0000
0000
0000
0000
,
0000
0000
0000
0000
,
0000
0000
0000
0000
,
0000
0000
0000
0000
,
0000
0000
0000
0000
,
0000
0000
0000
0000
,
0000
0000
0000
0000
,
0000
0000
0000
0000
,
0000
0000
0000
0000
,
0000
0000
0000
0000
,
0000
0000
0000
0000
,
0000
0000
0000
0000
,
1001
1000
0100
0010
,
0100
1000
0001
0010
,
0001
1000
0010
1000
,
0001
0100
0001
0010
,
0100
1000
0010
1000
,
0001
0100
0001
0010
,
0100
0010
0001
1000
,
0010
1000
0001
0100
,
0001
0010
0100
1000
,
0010
1000
0001
0100
,
0001
0010
0100
1000
,
0010
1000
0001
0100
,
0001
0010
0001
1000
,
0010
1000
0100
1000
,
2002
0000
0000
0000
,
0000
0000
0000
0000
0000
0000
0000
3003
,
1001
0000
0000
0001
1000
0010
0100
0001
0010
0001
1000
0100
,
1000
0010
0100
0010
1000
0001
1000
0001
0010
0001
0000
0100
,
0001
0000
0000
0010
0001
1000
0100
1000
0010
0100
0001
0010
,
0001
1000
0100
1000
0010
1000
0001
0010
0001
0100
0000
0001
,
0010
0000
0000
0001
1000
0010
1000
0100
1000
0001
0100
0001
,
0010
0100
0010
0001
1000
0010
1000
0100
1000
0001
0000
1000
,
0010
0000
0000
1000
0001
0100
0001
0010
0100
1000
0010
1000
,
0001
0100
0001
1000
0010
1000
0001
0100
0001
1000
0000
0001
,
0100
0000
0000
0001
0010
0001
0010
0000
0000
0100
1000
0100
,
1000
0000
0000
0001
1000
0001
1000
0000
0000
0001
0100
0001
,
0100
0000
0000
0010
1000
0010
1000
0000
0000
0100
1000
0001
,
0010
0000
0000
0001
1000
0100
0010
0000
0000
0001
1000
0100
,
1000
0000
0100
1000
0000
1000
0001
0000
0001
0010
0000
0010
,
0100
0000
0100
1000
0000
1000
0001
0000
0001
0100
0000
0010
,
1010
0000
1010
0000
1010
0000
1001
0000
1001
0000
1001
0000
,
0002
0000
0000
2003
0000
0000
3010
1000
0010
1000
0000
0000
,
0001
0000
0000
0100
0001
1000
0010
1000
0100
1000
0001
0100
,
0001
0010
0100
1000
0010
1000
0001
0100
0001
1000
0000
0010
,
1000
0000
0000
0100
1000
0001
0100
0001
0010
0100
1000
0010
,
1000
0001
0100
0001
0010
0001
1000
0010
1000
0100
0000
0010
,
0001
0000
0000
1000
0010
1000
0001
0100
0001
0010
0100
1000
,
0010
1000
0001
0100
0001
0010
0100
0010
0001
1000
0000
0001
,
0100
0000
0000
0001
1000
0010
1000
0100
1000
0001
0100
0001
,
0010
0001
1000
0010
1000
0100
0010
0001
0100
0001
0000
1000
,
0010
0000
0000
1000
0001
0100
0001
0010
0001
1000
0010
1000
,
0100
1000
0001
0100
0001
0010
0100
1000
0010
1000
0000
0001
,
0100
0000
0000
0001
1000
0010
1000
0100
1000
0001
0100
0001
,
0010
0001
1000
0010
1000
0100
1000
0001
0010
0001
0000
1000
,
0100
0000
0000
1000
0001
0010
0001
1000
0010
1000
0100
1000
,
0001
0100
0001
0010
0100
1000
0010
1000
0001
0100
0000
0001
,
1000
0000
0000
0010
1000
0001
0100
0001
0010
0100
1000
0010
,
1000
0001
0100
0001
0010
0001
1000
0010
1000
0001
0000
1000
,
0100
0000
0100
1000
0000
1000
0001
0000
0000
0010
0000
0001
,
1000
0000
0010
1000
0000
0100
1000
0000
1000
0001
0000
0000
,
0010
0000
0010
0100
0000
0100
1000
0000
0000
0001
0000
1000
,
0010
0000
1000
0001
1000
0001
1000
0000
0010
1000
0000
0000
,
0100
0000
0100
1000
0000
1000
0001
0000
0000
0010
0000
0001
,
0100
0000
0001
1000
0000
0010
1000
0000
0100
1000
0000
0000
,
0001
0000
0001
0100
0000
0100
0010
0000
0000
1000
0000
0001
,
1000
0000
0100
0010
0100
0010
0200
0000
0000
2300
0000
0000
,
3001
0000
0001
0010
0000
0010
0100
0000
0000
1000
0000
0010
,
1000
0000
0001
0100
0000
0001
1000
0000
0010
1000
0000
0000
,
0100
0000
0100
0010
0000
0010
0001
0000
0000
1000
0000
0010
,
1000
0000
0001
0010
0001
0010
0002
0000
0000
0023
0000
0000
,
0130
0000
0100
1000
0000
1000
0001
0000
0000
0010
0000
0001
,
1000
0000
0100
1000
0000
0001
0010
0000
0100
1000
0000
0000
,
0010
0000
0010
1000
0010
1000
0001
0000
0001
0100
0001
1000
,
0001
0000
1000
0010
0000
1000
0002
0000
0000
0203
0000
0000
,
0301
0000
0000
1000
0000
0010
2000
0000
0002
0000
0000
3003
,
0001
0000
1000
0000
0000
0100
2000
0000
0020
0000
0000
3030
,
1000
0000
0000
0001
0000
0010
0002
0000
0200
0000
0000
0303
,
0001
0000
1000
0000
0000
0010
2000
0000
0200
0000
0000
3300
,
1000
0000
0000
0010
0000
1000
0002
0000
0020
0000
0000
0033
,
0100
0000
1000
0000
0000
0010
2000
0000
0200
0000
0000
3300
,
1000
0000
0000
0001
0000
0010
0002
0000
2000
0000
0000
3003
,
0001
0000
1000
0100
0000
0000
1001
0000
0000
0110
0000
0000
,
0001
0000
0000
1000
0000
0010
2000
0000
0002
0000
0000
3003
,
0001
0000
1000
0000
0000
0100
2000
0000
0020
0000
0000
3030
,
1000
0000
0000
0100
0000
0010
0002
0000
2000
0000
0000
3003
,
0001
0000
1000
0100
0000
1000
0001
0000
0100
0001
0000
0000
,
1000
0000
0001
0100
0000
0001
2000
0000
0020
0000
0000
3030
,
1000
0000
0001
0000
0000
0010
0002
0000
0200
0000
0000
0303
,
0001
0000
0000
1000
0000
0010
2000
0000
0200
0000
0000
3300
,
1000
0000
0001
0100
0000
0001
1000
0000
0220
0000
0000
0330
,
2002
0000
0000
0000
,
3003
0000
0000
0000
;

//---------------dance-single - hydra----------------
#NOTES:
     dance-single:
     hydra:
     Medium:
     8:
     0.578,0.785,0.019,0.200,0.557,402.000,2.000,21.000,0.000,0.000:
0000
0000
0000
0000
,
0000
0000
0000
0000
,
0000
0000
0000
0000
,
0000
0000
0000
0000
,
0000
0000
0000
0000
,
0000
0000
0000
0000
,
0000
0000
0000
0000
,
0000
0000
0000
0000
,
0000
0000
0000
0000
,
0000
0000
0000
0000
,
0000
0000
0000
0000
,
0000
0000
0000
0000
,
0000
0000
0000
0000
,
0000
0000
0000
0000
,
0000
0000
0000
0000
,
0000
0000
0000
0000
,
2000
0001
0001
0000
,
3002
0100
0100
0000
,
0203
0010
0010
0000
,
0320
1000
1000
0000
,
2030
0100
0100
0000
,
3200
0010
0010
0000
,
0320
0001
0001
0000
,
0001
0000
0032
0000
,
1003
0100
1000
0000
,
0001
0010
0001
0000
,
0100
0001
0010
0000
,
0001
1000
0100
0000
,
1000
0100
0010
0000
,
0001
0010
0100
0000
,
2002
0000
0000
0000
,
0000
0000
0000
3003
,
0001
0000
0000
1000
0000
0000
0100
0000
1000
0001
0000
1000
,
0001
0010
0100
1000
,
0010
0000
0000
1000
0000
0000
0001
0000
1000
0001
0000
1000
,
0001
0010
0100
1000
,
0010
0000
0000
1000
0000
0000
0001
0000
0010
0001
0000
0010
,
0001
0100
0010
1000
,
0100
0000
0000
1000
0000
0000
0010
0000
1000
0100
0000
1000
,
0100
0000
0000
0010
0000
0000
0001
0000
0000
0100
0000
0001
,
1000
0000
0000
0000
0000
0001
1000
0000
0000
0000
0000
0100
,
1000
0000
0000
0000
0000
0010
1000
0000
0000
0000
0000
1000
,
0001
0000
0000
0000
0000
0010
0100
0000
0000
0000
0000
1000
,
0100
0000
0000
0000
0000
1000
0001
0000
0000
0000
0000
0000
,
0002
0023
0230
2300
,
3020
2030
3002
0203
,
0301
0000
0001
0000
0001
0000
1000
0000
1000
0000
1000
0000
,
0010
0000
0000
1000
0000
0000
0001
0000
1000
0100
0000
0000
,
1000
0000
0000
0001
0000
0000
0010
0000
0001
1000
0000
0001
,
1000
0000
0000
0010
0000
0000
1000
0000
0010
1000
0000
0010
,
1000
0000
0000
0100
0000
0000
1000
0000
0001
0010
0000
0001
,
0010
0000
0000
0100
0000
0000
1000
0000
0010
0100
0000
0010
,
0100
0000
0000
0001
0000
0000
1000
0000
0010
1000
0000
0100
,
1000
0000
0000
0010
0000
0000
0100
0000
0001
0010
0000
0001
,
0010
0000
0000
0001
0000
0000
1000
0000
0010
1000
0000
0100
,
1000
0000
0000
0001
0000
0000
0100
0000
0001
0010
0000
0001
,
0100
0000
0000
0001
0000
0000
1000
0000
0010
1000
0000
0100
,
1000
0000
0000
0010
0000
0000
0100
0000
0001
1000
0000
0001
,
0100
0000
0000
0001
0000
0000
1000
0000
0010
0100
0000
0010
,
1000
0000
0000
0100
0000
0000
1000
0000
0001
0010
0000
0001
,
1000
0000
0000
0010
0000
0000
1000
0000
0001
0100
0000
0001
,
1000
0000
0000
0010
0000
0000
1000
0000
0001
0010
0000
0001
,
1000
0000
0000
0010
0000
0000
1000
0000
0100
0010
0000
0001
,
0100
0000
0000
0001
0000
0000
1000
0000
0010
0100
0000
0001
,
1000
0000
0001
1000
0000
0001
1000
0000
0000
0001
0000
0000
,
0100
0000
0001
0100
0000
0001
0100
0000
0001
0100
0000
0000
,
0001
0000
0010
0001
0000
0010
0001
0000
0000
1000
0000
0010
,
1000
0000
0010
1000
0000
0010
1000
0000
0010
1000
0000
0000
,
0100
0000
1000
0010
0000
1000
0010
0000
0000
1000
0000
0001
,
0010
0000
0001
0010
0000
0001
0010
0000
0001
1000
0000
0000
,
0001
0000
1000
0010
0000
1000
0100
0000
0000
1000
0000
0001
,
0100
0000
0001
0010
0000
0001
0100
0000
0001
0010
0000
0000
,
0001
0000
1000
0001
0000
1000
0100
0000
0000
0010
0000
0001
,
0100
0000
0001
0100
0000
0001
0010
0000
0001
1000
0000
0000
,
0100
0000
1000
0010
0000
1000
0001
0000
0000
0010
0000
0001
,
0100
0000
0001
0100
0000
0001
1000
0000
0001
1000
0000
0000
,
0100
0000
0010
0001
0000
0100
0001
0000
0000
1000
0000
0010
,
1000
0000
0100
0010
0000
0001
0100
0000
0001
1000
0000
0000
,
0100
0000
1000
0000
0001
1000
0001
0000
1000
0000
0001
1000
,
0002
0000
1000
1000
,
1003
0000
0010
1000
0000
0001
0100
0000
0000
0001
0000
0000
,
1000
0010
0100
0001
,
0010
0000
0001
0100
0000
0001
1000
0000
0000
0010
0000
0000
,
1000
0010
0100
0001
,
0010
0000
0001
0100
0000
0001
1000
0000
0000
0100
0000
0000
,
1000
0010
1000
0001
,
0100
0000
0001
1000
0000
0010
1000
0000
0000
0100
0000
0000
,
0010
0001
0100
0001
,
1000
0000
0010
1000
0000
0001
1000
0000
0000
0010
0000
0000
,
1000
0100
0010
0100
,
1000
0000
0001
0010
0000
0001
0100
0000
0000
0001
0000
0000
,
1000
0010
1000
0100
,
0010
0000
0001
0100
0000
0001
1000
0000
0000
0010
0000
0000
,
1000
0001
0010
0100
,
0010
0000
0001
1000
0000
0010
1000
0000
0000
0100
0000
0000
,
1000
0000
0000
0001
0000
0000
1000
0000
0001
0000
0000
0000
,
2002
0000
0000
0000
,
3003
0000
0000
0000
;

//---------------dance-single - hydra----------------
#NOTES:
     dance-single:
     hydra:
     Easy:
     5:
     0.408,0.508,0.171,0.200,0.043,261.000,18.000,21.000,0.000,0.000:
0000
0000
0000
0000
,
0000
0000
0000
0000
,
0000
0000
0000
0000
,
0000
0000
0000
0000
,
0000
0000
0000
0000
,
0000
0000
0000
0000
,
0000
0000
0000
0000
,
0000
0000
0000
0000
,
0000
0000
0000
0000
,
0000
0000
0000
0000
,
0000
0000
0000
0000
,
0000
0000
0000
0000
,
0000
0000
0000
0000
,
0000
0000
0000
0000
,
0000
0000
0000
0000
,
0000
0000
0000
0000
,
0002
0000
0000
0000
,
0203
0000
0000
0000
,
0302
0000
0000
0000
,
2003
0000
0000
0000
,
3020
0000
0000
0000
,
2030
0000
0000
0000
,
3200
0000
0000
0000
,
0000
0000
2300
0000
,
3002
0000
0000
0000
,
0203
0000
0000
0000
,
0320
0000
0000
0000
,
2030
0000
0000
0000
,
3002
0000
0000
0000
,
0000
0000
2003
0000
,
3200
0000
0000
0000
,
0000
0000
0000
0000
,
1300
0001
0010
0001
,
0010
0100
1000
0010
,
1000
0001
0100
0001
,
0010
0001
1000
0010
,
1000
0100
0010
0001
,
0100
0001
1000
0010
,
1000
0100
1000
0001
,
0010
0001
0100
0001
,
1001
0000
0110
0000
,
1001
0000
0110
0000
,
1100
0000
1010
0000
,
0101
0000
0011
0000
,
0001
0001
0001
0001
,
1000
1000
1000
1000
,
0010
0000
1000
0000
0010
0000
1000
0000
0010
0000
1000
0000
,
2002
0000
0000
0000
0000
0000
0000
3003
,
0001
0100
0001
1000
,
0010
0100
0001
0010
,
0001
1000
0010
1000
,
0100
1000
0001
0100
,
0001
0010
0100
1000
,
0010
1000
0001
0100
,
0001
0010
0001
1000
,
0010
1000
0100
1000
,
0001
0100
0001
0010
,
0100
1000
0010
1000
,
0001
0100
0001
0010
,
0100
1000
0010
1000
,
0100
0010
0001
0100
,
0001
1000
0010
0100
,
0001
0010
0001
1000
,
0010
0100
0001
0010
,
0001
1000
1001
0001
,
0100
0001
1000
0010
,
1000
0100
1100
1000
,
0001
0010
0100
1000
,
0010
1000
1010
1000
,
0001
0100
0001
0010
,
0001
0100
0101
0001
,
1000
0010
1000
0001
,
0010
0001
0011
0001
,
1000
0010
0100
0001
,
1000
0001
1001
0001
,
1000
0100
0010
0001
,
1000
0100
1001
0001
,
0010
0100
1000
0010
,
1000
0000
0001
0000
1000
0000
0001
0000
1000
0000
0001
0000
,
2002
0000
0000
3003
,
0001
1000
0010
1000
,
0100
0010
0001
0100
,
0001
1000
0010
1000
,
0100
1000
0001
0100
,
0001
0010
0100
1000
,
0010
1000
0100
0010
,
0001
0100
0001
1000
,
0010
1000
0100
1000
,
0001
0100
0001
0010
,
0100
1000
0010
1000
,
0001
0100
0001
0010
,
0100
0010
0001
1000
,
0010
1000
0100
1000
,
0001
0100
0001
0010
,
0100
1000
0010
1000
,
0001
0000
0000
1000
0000
0000
0000
0000
0001
0000
0000
0000
,
2002
0000
0000
0000
,
3003
0000
0000
0000
;
