#TITLE:Boomer Kuwanger;
#SUBTITLE:;
#ARTIST:Capcom;
#TITLETRANSLIT:;
#SUBTITLETRANSLIT:;
#ARTISTTRANSLIT:;
#CREDIT:;
#BANNER:Boomer Kuwanger.png;
#BACKGROUND:Boomer Kuwanger BG.png;
#LYRICSPATH:;
#CDTITLE:!XMaxX.png;
#MUSIC:Boomer Kuwanger.mp3;
#OFFSET:-0.020;
#SAMPLESTART:6.000;
#SAMPLELENGTH:14.000;
#SELECTABLE:YES;
#BPMS:0.000=149.930;
#STOPS:;
#BGCHANGES:;
// cache tags:
#FIRSTBEAT:8.000;
#LASTBEAT:328.000;
#SONGFILENAME:Songs/keyboard/Boomer Kuwanger (Megaman X)/Boomer Kuwanger.sm;
#HASMUSIC:1;
#HASBANNER:1;
#MUSICLENGTH:133.363;
// end cache tags

//---------------dance-single - ----------------
#NOTES:
     dance-single:
     :
     Hard:
     9:
     0.587,0.676,0.607,0.420,0.157,411.000,81.000,56.000,0.000,0.000:
0000
0000
0000
0000
,
0000
0000
0000
0000
,
0010
0001
1000
0100
0010
0001
1000
0100
,
0010
0000
0001
0000
1000
0000
0100
0000
0010
0001
0100
0010
1000
0001
1000
0001
,
2002
0000
0000
3003
0000
0011
0000
1100
,
0000
0000
1000
0000
0100
0000
1000
0000
0010
0100
0000
0001
0000
1000
0010
0000
,
0220
0000
0000
0330
0000
1001
0000
0110
,
0000
0000
0011
0000
0000
0000
1001
0000
0000
1000
0001
0100
0010
1000
0001
1000
,
2002
0000
0000
3003
0000
1100
0000
0011
,
0000
0000
0001
0000
0100
0000
0010
0000
1000
0100
0000
0100
0000
0100
0010
0000
,
2002
0000
0000
3003
0000
0110
0000
1001
,
0000
0000
0110
0000
0000
0000
1001
0000
0000
0001
1000
0010
0100
0001
1000
0001
,
1001
0000
1000
0002
0000
1000
1000
0000
,
1000
1000
0000
1003
0000
0100
0000
0010
,
0000
0001
2000
0000
0100
0100
0100
0000
,
0010
0010
3010
0000
0000
0001
0100
0010
,
2000
0000
0000
3100
0000
0010
0001
1000
,
0200
0000
0300
0110
0000
0000
1000
0000
,
0002
0000
0100
0000
0100
0000
0103
0110
,
0000
0000
1001
0000
1001
0000
0000
0000
0010
0000
1000
0000
0001
0100
0000
0000
,
0020
0000
1000
2030
0000
0000
3100
0100
,
0020
0000
0000
0000
0001
0000
0032
0000
0000
0000
1003
0001
1000
0001
0000
0000
,
1001
0000
1001
1001
0000
0001
0100
0010
,
1000
0000
1000
0001
0000
0001
0100
0010
,
2000
0000
0001
3002
0000
0000
0100
0103
,
0000
0100
0010
0100
0010
0100
0010
0000
,
2002
0000
0000
3003
0000
0100
0010
1000
,
0001
0000
0000
1000
0000
0000
0001
0000
0100
0000
0000
0000
1001
0000
1001
0000
,
0110
0000
0010
0000
1000
0000
0001
0100
,
0000
0100
0010
1000
0000
1000
0001
0000
,
0020
0000
0100
0230
0000
0000
0300
0000
,
0010
0001
1000
0100
0010
0001
1000
0000
,
1000
0100
0000
0110
0000
0100
0010
0000
,
0011
0000
0000
0001
0000
1001
1001
0000
,
1001
0000
0001
0000
0100
0000
0010
1000
,
0000
1000
0100
0010
0000
0001
1000
0000
,
0220
0000
0330
0000
0100
0010
0000
0110
,
0000
1010
1100
1001
,
0001
0100
0000
0010
0000
1000
0100
0000
,
0010
0000
0000
0001
0000
0001
1000
0000
,
0020
0000
0130
0200
0000
0000
0000
0300
,
0110
0000
0000
0000
0110
0000
0000
0000
0010
0000
1000
0000
0001
0100
0000
0000
,
2002
0000
0000
3003
0000
0011
0000
1100
,
0000
0000
1000
0000
0100
0000
1000
0000
0010
0100
0000
0001
0000
1000
0010
0000
,
0220
0000
0000
0330
0000
1001
0000
0110
,
0000
0000
0011
0000
0000
0000
1001
0000
0000
1000
0001
0100
0010
1000
0001
1000
,
2002
0000
0000
3003
0000
1100
0000
0011
,
0000
0000
0001
0000
0100
0000
0010
0000
1000
0100
0000
0100
0000
0100
0010
0000
,
2002
0000
0000
3003
0000
0110
0000
1001
,
0000
0000
0110
0000
0000
0000
1001
0000
0000
0001
1000
0010
0100
0001
1000
0001
,
1001
0000
1000
0002
0000
1000
1000
0000
,
1000
1000
0000
1003
0000
0100
0000
0010
,
0000
0001
2000
0000
0100
0100
0100
0000
,
0010
0010
3010
0000
0000
0001
0100
0010
,
2000
0000
0000
3100
0000
0010
0001
1000
,
0200
0000
0300
0110
0000
0000
1000
0000
,
0002
0000
0100
0000
0100
0000
0103
0110
,
0000
0000
1001
0000
1001
0000
0000
0000
0010
0000
1000
0000
0001
0100
0000
0000
,
0020
0000
1000
2030
0000
0000
3100
0100
,
0020
0000
0000
0000
0001
0000
0032
0000
0000
0000
1003
0001
1000
0001
0000
0000
,
1001
0000
1001
1001
0000
0001
0100
0010
,
1000
0000
1000
0001
0000
0001
0100
0010
,
2000
0000
0001
3002
0000
0000
0100
0103
,
0000
0100
0010
0100
0010
0100
0010
0000
,
2002
0000
0000
3003
0000
0100
0010
1000
,
0001
0000
0000
1000
0000
0000
0001
0000
0100
0000
0000
0000
1001
0000
1001
0000
,
0110
0000
0010
0000
1000
0000
0001
0100
,
0000
0100
0010
1000
0000
1000
0001
0000
,
0020
0000
0100
0230
0000
0000
0300
0000
,
0010
0001
1000
0100
0010
0001
1000
0000
,
1000
0100
0000
0110
0000
0100
0010
0000
,
0011
0000
0000
0001
0000
1001
1001
0000
,
1001
0000
0001
0000
0100
0000
0010
1000
,
0000
1000
0100
0010
0000
0001
1000
0000
,
0220
0000
0330
0000
0100
0010
0000
0110
,
0000
1010
1100
1001
,
0001
0100
0000
0010
0000
1000
0100
0000
,
0010
0000
0000
0001
0000
0001
1000
0000
,
0020
0000
0100
0230
0000
0000
0000
0300
,
0110
0000
0000
0000
0110
0000
0000
0000
0010
0000
1000
0000
0001
0100
0000
0000
,
2002
0000
0000
0000
,
0000
0000
0000
0000
,
3003
0000
0000
0000
;

//---------------dance-single - ----------------
#NOTES:
     dance-single:
     :
     Medium:
     7:
     0.465,0.584,0.487,0.645,0.026,283.000,65.000,86.000,0.000,0.000:
0000
0000
0000
0000
,
0000
0000
0000
0000
,
2000
0000
0000
3001
0000
0000
0000
0000
,
0002
0000
0000
0000
0000
0000
1003
0000
0000
0100
0010
0000
0010
0000
0001
0000
,
2002
0000
0000
3003
0000
0011
0000
1100
,
0000
0000
1001
0000
,
2002
0000
0000
3003
0000
1010
0000
1100
,
0000
0110
0000
0011
0000
1000
0001
0000
,
2002
0000
0000
3003
0000
1100
0000
0011
,
0000
0000
1001
0000
,
2002
0000
0000
3003
0000
0101
0000
0110
,
0000
1010
0000
1100
0000
1000
0001
0000
,
2002
0000
3003
2000
0000
0000
0000
0000
,
0000
3100
0000
0100
0000
0100
0000
0010
,
0000
0001
2002
0000
0000
0000
0000
0000
,
0000
0000
3003
0000
0000
0001
1000
0001
,
0200
0000
0000
0310
0000
0010
1000
0100
,
0020
0000
0000
0031
0000
0000
1000
0000
,
2002
0000
0000
0000
0000
3003
0000
0220
,
0000
0000
0000
0000
0000
0000
0330
0000
0010
0000
1000
0000
0001
1000
0000
0000
,
2000
0000
0000
3200
0000
0000
0320
0000
,
0032
0000
0000
2003
0000
0000
0000
3000
,
1001
0000
0000
1000
0000
0001
0100
0010
,
1000
0000
0001
1000
0000
1000
0010
0100
,
0020
0000
0000
0230
0000
0000
0000
0300
,
0000
0010
1000
0010
1000
0001
0100
0000
,
0220
0000
0000
0330
0000
1000
0001
1000
,
1001
0000
0000
1100
0000
0000
0011
0000
1001
0000
0000
0000
0110
0000
0000
0000
,
1001
0000
0002
0000
2003
0000
3001
0100
,
0000
0100
0010
1000
0000
1000
0001
0000
,
0002
0000
0000
2003
0000
0000
0000
0000
,
3000
0000
0000
0000
1000
0001
1000
0000
,
0001
0200
0000
0310
0000
0010
1000
0000
,
2000
0000
0000
3001
0000
1000
0001
0000
,
0000
0000
0001
0000
1000
0000
0001
1000
,
0000
0001
1000
0001
0000
0100
0010
0000
,
0220
0000
0330
0000
0100
0010
0000
0110
,
0000
0020
2030
3002
,
1003
0100
0000
0010
0000
0001
0100
0000
,
0010
0000
0000
1000
0000
1000
0001
0000
,
0002
0000
0000
2003
0000
0000
0000
3000
,
1000
0000
0000
0000
0001
0000
0000
0000
0010
0000
1000
0000
0001
0100
0000
0000
,
2002
0000
0000
3003
0000
1100
0000
0011
,
0000
0000
1001
0000
,
2002
0000
0000
3003
0000
0101
0000
0011
,
0000
0110
0000
1100
0000
0001
1000
0000
,
2002
0000
0000
3003
0000
0011
0000
1100
,
0000
0000
1001
0000
,
2002
0000
0000
3003
0000
1010
0000
0110
,
0000
0101
0000
0011
0000
0001
1000
0000
,
2002
0000
3003
0002
0000
0000
0000
0000
,
0000
0013
0000
0010
0000
0010
0000
0100
,
0000
1000
2002
0000
0000
0000
0000
0000
,
0000
0000
3003
0000
0000
1000
0001
1000
,
0020
0000
0000
0130
0000
0100
0001
0010
,
0200
0000
0000
1300
0000
0000
0001
0000
,
2002
0000
0000
0000
0000
3003
0000
0220
,
0000
0000
0000
0000
0000
0000
0330
0000
0100
0000
0001
0000
1000
0001
0000
0000
,
0002
0000
0000
0023
0000
0000
0230
0000
,
2300
0000
0000
3002
0000
0000
0000
0003
,
1001
0000
0000
0001
0000
1000
0010
0100
,
0001
0000
1000
0001
0000
0001
0100
0010
,
0200
0000
0000
0320
0000
0000
0000
0030
,
0000
0100
0001
0100
0001
1000
0010
0000
,
0220
0000
0000
0330
0000
0001
1000
0001
,
1001
0000
0000
0011
0000
0000
1100
0000
1001
0000
0000
0000
0110
0000
0000
0000
,
1001
0000
2000
0000
3002
0000
1003
0010
,
0000
0010
0100
0001
0000
0001
1000
0000
,
2000
0000
0000
3002
0000
0000
0000
0000
,
0003
0000
0000
0000
0001
1000
0001
0000
,
1000
0020
0000
0130
0000
0100
0001
0000
,
0002
0000
0000
1003
0000
0001
1000
0000
,
0000
0000
1000
0000
0001
0000
1000
0001
,
0000
1000
0001
1000
0000
0010
0100
0000
,
0220
0000
0330
0000
0010
0100
0000
0110
,
0000
0200
0302
2003
,
3001
0010
0000
0100
0000
1000
0010
0000
,
0100
0000
0000
0001
0000
0001
1000
0000
,
2000
0000
0000
3002
0000
0000
0000
0003
,
0001
0000
0000
0000
1000
0000
0000
0000
0100
0000
0001
0000
1000
0010
0000
0000
,
2002
0000
0000
0000
,
0000
0000
0000
0000
,
3003
0000
0000
0000
;

//---------------dance-single - ----------------
#NOTES:
     dance-single:
     :
     Easy:
     5:
     0.383,0.461,0.405,0.660,0.007,216.000,54.000,88.000,0.000,0.000:
0000
0000
0000
0000
,
0000
0000
0000
0000
,
2002
0000
0000
3003
0000
0000
0000
0000
,
0220
0000
0000
0330
0000
0000
1001
0000
,
2002
0000
0000
3003
0000
1000
0000
0001
,
0000
0000
0110
0000
,
0220
0000
0000
0330
0000
0010
0000
1000
,
0000
0001
0000
1000
0000
0000
1001
0000
,
2002
0000
0000
3003
0000
1000
0000
0001
,
0000
0000
0110
0000
,
0220
0000
0000
0330
0000
0010
0000
1000
,
0000
0001
0000
1000
0000
0000
1001
0000
,
2002
0000
3003
2000
0000
0000
0000
0000
,
0000
3001
0000
1000
0000
0001
0000
1000
,
0000
2002
0000
0000
,
0000
3003
0000
1000
,
0002
0000
0000
1003
0000
0000
1000
0000
,
0002
0000
0000
0103
0000
0000
0010
0000
,
0220
0000
0000
0000
0000
0330
0000
2002
,
0000
0000
0000
3003
0000
1000
0001
0000
,
0002
0000
0000
0203
0000
0000
0320
0000
,
2030
0000
0000
3002
0000
0000
0000
0003
,
1001
0000
0000
1001
0000
0000
0001
1000
,
0001
0000
0000
1001
0000
0000
1000
0001
,
2000
0000
0000
3002
0000
0000
0000
0003
,
0000
1000
0001
1000
,
2002
0000
0000
3003
0000
0110
0000
0000
,
1000
0000
0000
0001
0000
0000
1000
0000
0001
0000
0000
0000
0000
0000
0000
0000
,
1001
0002
2003
3000
,
0001
0100
0010
1000
,
0002
0000
0000
2003
0000
0000
0000
0000
,
3000
0000
1000
0001
,
2000
0000
0000
3010
0000
0000
0110
0000
,
0200
0000
0000
0301
0000
0000
1001
0000
,
0000
0001
0100
0010
,
1000
0000
1000
0001
0000
0001
1000
0000
,
2002
0000
3003
0000
1001
0000
0000
1001
,
0000
0020
2030
3002
,
1003
0000
0000
1001
0000
0000
0001
0000
,
0100
0000
0000
0110
0000
0000
0010
0000
,
2000
0000
0000
3002
0000
0000
0000
0000
,
1003
0000
0001
0000
0010
1000
0001
0000
,
2002
0000
0000
3003
0000
0001
0000
1000
,
0000
0000
0110
0000
,
0220
0000
0000
0330
0000
0100
0000
0001
,
0000
1000
0000
0001
0000
0000
1001
0000
,
2002
0000
0000
3003
0000
0001
0000
1000
,
0000
0000
0110
0000
,
0220
0000
0000
0330
0000
0100
0000
0001
,
0000
1000
0000
0001
0000
0000
1001
0000
,
2002
0000
3003
0002
0000
0000
0000
0000
,
0000
1003
0000
0001
0000
1000
0000
0001
,
0000
2002
0000
0000
,
0000
3003
0000
0001
,
2000
0000
0000
3001
0000
0000
0001
0000
,
2000
0000
0000
3010
0000
0000
0100
0000
,
0220
0000
0000
0000
0000
0330
0000
2002
,
0000
0000
0000
3003
0000
0001
1000
0000
,
2000
0000
0000
3020
0000
0000
0230
0000
,
0302
0000
0000
2003
0000
0000
0000
3000
,
1001
0000
0000
1001
0000
0000
1000
0001
,
1000
0000
0000
1001
0000
0000
0001
1000
,
0002
0000
0000
2003
0000
0000
0000
3000
,
0000
0001
1000
0001
,
2002
0000
0000
3003
0000
0110
0000
0000
,
0001
0000
0000
1000
0000
0000
0001
0000
1000
0000
0000
0000
0000
0000
0000
0000
,
1001
2000
3002
0003
,
1000
0010
0100
0001
,
2000
0000
0000
3002
0000
0000
0000
0000
,
0003
0000
0001
1000
,
0002
0000
0000
0103
0000
0000
0110
0000
,
0020
0000
0000
1030
0000
0000
1001
0000
,
0000
1000
0010
0100
,
0001
0000
0001
1000
0000
1000
0001
0000
,
2002
0000
3003
0000
1001
0000
0000
1001
,
0000
0200
0302
2003
,
3001
0000
0000
1001
0000
0000
1000
0000
,
0010
0000
0000
0110
0000
0000
0100
0000
,
0002
0000
0000
2003
0000
0000
0000
0000
,
3001
0000
1000
0000
0100
0001
1000
0000
,
2002
0000
0000
0000
,
0000
0000
0000
0000
,
3003
0000
0000
0000
;

//---------------dance-single - ----------------
#NOTES:
     dance-single:
     :
     Beginner:
     3:
     0.195,0.270,0.232,0.000,0.000,151.000,31.000,0.000,0.000,0.000:
0000
0000
0000
0000
,
0000
0000
0000
0000
,
1001
0000
0000
0000
,
0110
0000
0000
0000
,
1001
0000
1000
0000
,
0001
0000
1000
0000
,
1001
0000
0001
0000
,
1000
0000
0100
0000
,
0110
0000
0010
0000
,
0100
0000
0010
0000
,
0110
0000
0010
0000
,
0100
0000
0001
0000
,
1001
0000
1000
0000
,
0001
0000
1000
0000
,
0001
1001
0000
0000
,
0000
0000
0000
1000
,
0001
0000
0100
0000
,
0010
0000
1000
0000
,
1001
0000
0110
0000
,
1001
0000
0110
0000
,
0001
0000
1000
0000
,
0001
0000
1000
0000
,
0100
0000
0010
0000
,
0100
0000
0010
0000
,
0001
0000
1000
0000
,
0001
0000
1000
0000
,
0010
0000
0100
0000
,
0010
0000
0100
0000
,
1001
0000
1000
0000
,
0001
0000
1000
0000
,
0001
0000
0100
0000
,
0010
0000
1000
0000
,
1001
0000
1000
0000
,
0010
0000
0100
0000
,
0110
0000
0010
0000
,
0001
0000
0100
0000
,
0010
0000
1000
0000
,
0001
0000
0100
0000
,
0010
0000
1000
0000
,
0100
0000
0010
0000
,
0001
0000
1000
0000
,
1001
0000
0000
0000
,
1001
0000
0001
0000
,
1000
0000
0001
0000
,
1001
0000
1000
0000
,
0001
0000
0010
0000
,
0110
0000
0100
0000
,
0010
0000
0100
0000
,
0110
0000
0100
0000
,
0010
0000
1000
0000
,
1001
0000
0001
0000
,
1000
0000
0001
0000
,
1000
1001
0000
0000
,
0000
0000
0000
0001
,
1000
0000
0010
0000
,
0100
0000
0001
0000
,
1001
0000
0110
0000
,
1001
0000
0110
0000
,
1000
0000
0001
0000
,
1000
0000
0001
0000
,
0010
0000
0100
0000
,
0010
0000
0100
0000
,
1000
0000
0001
0000
,
1000
0000
0001
0000
,
0100
0000
0010
0000
,
0100
0000
0010
0000
,
1001
0000
0001
0000
,
1000
0000
0001
0000
,
1000
0000
0010
0000
,
0100
0000
0001
0000
,
1001
0000
0001
0000
,
0100
0000
0010
0000
,
0110
0000
0100
0000
,
1000
0000
0010
0000
,
0100
0000
0001
0000
,
1000
0000
0010
0000
,
0100
0000
0001
0000
,
0010
0000
0100
0000
,
1000
0000
0001
0000
,
1001
0000
0000
0000
,
1001
0000
0000
0000
;
