#TITLE:Love Is Gone;
#SUBTITLE:;
#ARTIST:David Guetta;
#TITLETRANSLIT:;
#SUBTITLETRANSLIT:;
#ARTISTTRANSLIT:;
#CREDIT:JOE2;
#BANNER:goneBAN.png;
#BACKGROUND:goneBG.png;
#LYRICSPATH:;
#CDTITLE:;
#MUSIC:love_is_gone.ogg;
#OFFSET:-0.165;
#SAMPLESTART:47.033;
#SAMPLELENGTH:12.000;
#SELECTABLE:YES;
#DISPLAYBPM:128.000;
#BPMS:0.000=128.020,164.000=138.020,165.000=148.020,166.250=158.020,167.500=256.080,169.500=128.020;
#STOPS:;
#BGCHANGES:;
// cache tags:
#FIRSTBEAT:0.000;
#LASTBEAT:224.000;
#SONGFILENAME:Songs/Rodd's Revival/Love is gone (Rodd Steps)/Love is gone.sm;
#HASMUSIC:1;
#HASBANNER:1;
#MUSICLENGTH:104.513;
// end cache tags

//---------------dance-single - RODD----------------
#NOTES:
     dance-single:
     RODD:
     Challenge:
     9:
     0.604,0.831,0.258,0.641,0.215,348.000,27.000,67.000,89.000,10.000:

2000
0000
320M
0000
0320
M000
0032
0M00
,
0203
000M
0320
0000
2M30
0000
320M
0320
,
M000
0031
0100
001M
2000
0000
310M
0020
,
M000
0030
0M00
0000
0001
0100
0010
2000
,
0000
320M
0000
M302
00M0
0203
0000
0320
,
M000
0000
0M31
0000
M100
0000
0010
100M
,
0000
0100
0010
M001
0200
0000
0310
2000
,
0M0M
000M
30M0
0000
0100
M010
0001
M200
,
000M
0000
M300
0020
0000
0M00
0030
020M
,
0000
00M0
000M
0300
0000
M000
0M00
0002
,
0000
0013
1000
0010
M002
0000
0103
0020
,
0000
003M
0M00
1000
010M
0010
M001
0M20
,
M000
0032
00M0
0203
M000
0320
000M
2M30
,
0000
0000
0000
300M
0000
0000
0220
0000
0330
M000
0000
0000
0022
0000
0033
M000
0000
0000
0100
0000
0000
0010
0000
0000
,
0000
100M
0100
100M
0020
M000
0130
0002
,
0M00
M000
00M3
0M00
0010
0100
1000
0002
,
M0M0
0000
0000
M200
M0M0
00M0
M000
M020
,
M000
M030
M303
0000
0010
0000
0000
0010
,
1000
0100
0110
0001
0100
0010
1010
0100
,
0010
0001
0101
0010
1000
0100
0110
0002
,
0000
0203
0000
0320
0000
2030
0000
3200
,
0000
0300
0010
0000
0001
0000
0100
0010
,
1000
0100
1100
0010
0001
0010
0011
0100
,
0010
1000
0110
1000
0100
0010
0011
0002
,
0000
0000
0000
2000
0000
0000
0000
0020
,
0000
0000
0030
3003
0100
0020
0000
0030
,
0001
0100
1010
0000
1100
0000
1001
0000
,
0100
0000
0010
0000
0001
0000
0000
0100
0010
0000
1000
0000
0100
0000
0010
0000
,
0100
1000
0001
0000
1001
0000
0110
0000
,
0001
0000
0100
0000
0010
0000
0000
1000
0100
0000
0001
0000
0100
0000
0010
0000
,
0001
0100
0010
0000
1010
0000
1100
0000
,
0010
0000
0001
0000
0100
0000
0000
0010
0100
0000
0001
0000
0010
0000
0100
0000
,
0010
0001
0100
0000
0110
0000
1010
0000
,
0100
0000
0010
0000
0001
0000
0000
0010
0100
0000
1000
0000
0010
0000
0100
0000
,
0001
0010
0100
1000
2100
0100
3100
0010
,
0001
0000
0100
0000
0010
0000
1000
0100
0010
0000
0001
0000
0100
0000
0010
0000
,
0100
0001
0010
0100
0120
0001
0130
0010
,
0001
0000
0100
0000
0010
0000
1000
0100
1000
0000
0010
0000
0100
0000
0010
0000
,
1000
0100
0010
0001
0201
0010
0310
1000
,
0100
1000
0001
0100
0010
1000
0100
1000
,
0001
0100
0010
1000
0100
1000
0100
1000
,
0002
0000
0000
0000
M000
0M00
00M0
0M00
M000
0M00
00M0
0M00
M000
0M00
00M0
0M00
,
M000
0M00
0000
0000
0000
0000
0103
0010
1000
0100
0010
0001
0010
0100
1000
0010
,
0100
0010
1000
0100
0010
0001
0010
0100
1000
0100
0010
0100
0010
0001
0100
0010
,
1000
010M
0020
M000
0030
0000
0001
0100
0010
1000
0100
1000
0010
1000
0100
0010
,
0001
0100
0001
0010
0001
0100
0010
1000
0100
0010
0100
1000
0010
0100
0001
0010
,
0100
0010
0001
0000
0000
0000
0100
0000
1010
0000
2200
0000
0000
0000
0010
0000
,
0000
0000
0001
3300
0000
0000
0100
0000
0010
0000
0001
0000
0100
0010
1000
0000
,
0100
0001
0100
0010
0001
0202
0000
0010
,
0000
0000
1000
0303
0000
0000
0010
0000
1000
0000
0100
0000
0010
0001
0100
0000
,
0010
1000
0100
0010
0100
2002
0000
0010
,
0000
0000
0010
3003
0000
0000
0100
0000
0010
0000
0001
0000
0100
0001
0100
0000
,
0010
1000
0100
1000
0001
0202
0000
0010
,
0000
0000
0010
0303
0000
0000
0010
0000
1000
0000
0100
0000
0001
0000
0100
0000
,
0010
0001
0100
0020
000M
2030
000M
32M0
,
0000
032M
0000
M032
0000
2M03
30M0
020M
,
0300
0000
0000
0000
;
