#TITLE:Black Winter Night;
#SUBTITLE:;
#ARTIST:Dragonforce;
#TITLETRANSLIT:;
#SUBTITLETRANSLIT:;
#ARTISTTRANSLIT:;
#CREDIT:B. Abear;
#BANNER:Bn-BlackWinter.png;
#BACKGROUND:Bg-BlackWinter.png;
#LYRICSPATH:;
#CDTITLE:;
#MUSIC:04 Black Winter Night.ogg;
#OFFSET:-0.269;
#SAMPLESTART:76.311;
#SAMPLELENGTH:14.786;
#SELECTABLE:YES;
#BPMS:0.000=200.000;
#STOPS:540.000=0.900
,769.000=0.900
;
#BGCHANGES:;
// cache tags:
#FIRSTBEAT:0.000;
#LASTBEAT:1282.000;
#SONGFILENAME:Songs/Dragonforce/Black Winter Night/Black Winter Night.sm;
#HASMUSIC:1;
#HASBANNER:1;
#MUSICLENGTH:390.582;
// end cache tags

//---------------dance-single - B. Abear----------------
#NOTES:
     dance-single:
     B. Abear:
     Challenge:
     15:
     1.000,1.000,0.300,0.389,1.000,3510.000,117.000,152.000,85.000,4.000:



2002
0000
0000
0000
,
0000
0000
0000
0000
0000
0000
0003
0000
3000
0001
1000
0001
1000
0000
0100
0000
,
2200
0000
0000
0000
,
0000
0000
0000
0000
0000
0000
3000
0000
1300
0010
0100
0001
1000
0000
0001
0000
,
0202
0000
0000
0000
,
0000
0000
0000
0000
0000
0000
0300
0000
0003
0100
0001
0100
0001
0000
1000
0000
,
2020
0000
0000
0000
0000
0000
0000
0000
0000
0000
3000
0000
0030
1000
0010
0100
,
0001
0000
0000
0000
1001
0000
0000
0000
1000
0000
0001
0010
0100
1000
0100
1000
,
0001
0100
0010
1000
1001
0001
0010
0100
,
1MM0
0000
0001
0000
0100
0010
1000
0001
0010
0000
0001
0000
0010
0000
0100
1000
,
0001
0000
0100
0010
1010
0000
1000
0001
,
M01M
0000
0100
0000
1000
0001
0100
0001
1000
0000
0001
0000
1000
0001
0010
0001
,
1000
0000
0010
0100
0101
0001
1000
0100
,
MM10
0000
0001
0000
1000
0001
0100
0010
0100
0000
0001
0000
1000
0001
0010
0100
,
0010
0000
0000
0000
0100
0000
1000
0000
1001
0000
0001
0000
0100
0010
1000
0001
,
0100
0010
0100
0010
1000
0010
1000
0010
1000
0001
1000
0001
0010
0001
0010
0001
,
1000
0000
0000
0000
0100
0000
0010
0000
0011
0000
0001
0000
1000
0010
1000
0001
,
1000
0000
0000
0000
0001
0010
0100
1000
0001
0000
0010
0000
0001
0100
0010
1000
,
0001
0000
0000
0000
0100
0000
0010
0000
1010
0000
1000
0000
0001
0100
0010
1000
,
0001
0100
0010
1000
0100
1000
0001
0010
0100
1000
0001
1000
0001
0100
0010
1000
,
0001
0000
0000
0000
1000
0001
1000
0001
0100
0000
0001
0000
0100
0010
1000
0010
,
0100
0000
0000
0000
0001
0000
1000
0000
1100
0000
0100
0000
0010
0001
1000
0000
,
1001
1100
0110
0011
1001
0101
0110
1010
,
0010
1000
0010
1000
0010
0100
0010
0100
0001
0100
0001
0100
0001
1000
0001
1000
,
0100
0010
0001
1000
0001
1000
0100
0010
0001
1000
0001
1000
0100
0010
0001
0100
,
0010
1000
0001
0100
0001
0100
0010
1000
0001
0100
0001
0100
0010
0000
1000
0000
,
0001
0010
0100
1000
0100
1000
0001
0010
0100
1000
0100
1000
0001
0010
0001
1000
,
0010
0100
0001
1000
0001
1000
0010
0100
0001
1000
0001
1000
0010
0000
0100
0000
,
0001
1000
0100
0010
0100
0010
0001
1000
0100
0010
0100
0010
0001
1000
0010
0100
,
0001
0100
0010
1000
0010
1000
0001
0100
0010
1000
0010
1000
0001
0000
1000
0000
,
0010
0100
0001
1000
0001
1000
0010
0100
0001
1000
0001
1000
0100
0010
0001
1000
,
0010
0100
0010
0100
0010
0100
0010
0100
0000
0010
0100
0010
0100
0010
0100
0010
,
1000
0100
0010
0001
0010
0001
1000
0100
0010
0001
0010
0001
1000
0010
0100
0001
,
1000
0010
0100
0001
0100
0001
1000
0010
0100
0001
0100
0001
1000
0000
0100
0000
,
0010
0001
1000
0100
1000
0100
0010
0001
1000
0100
1000
0100
0010
0001
1000
0001
,
0100
0010
1000
0001
1000
0001
0100
0010
1000
0001
1000
0001
0100
0000
0001
0000
,
1000
0010
0100
0001
0100
0001
1000
0010
0100
0001
0100
0001
1000
0100
0010
0100
,
1000
0001
0010
0100
0010
0100
1000
0001
0010
0100
0010
0100
1000
0000
0001
0000
,
1000
0010
0100
0001
0100
0001
1000
0010
0100
0001
0100
0001
1000
0001
0010
0100
,
1000
0001
1000
0001
1000
0001
1000
0001
1000
0100
1000
0100
1000
0100
1000
0100
,
0010
0001
1000
0001
0100
0010
1000
0001
0010
0100
0010
0001
1000
0010
0100
0010
,
1000
0001
1000
0001
0010
0100
1000
0001
0100
0010
1000
0010
0100
0001
0010
0100
,
1000
0100
0010
0001
1000
0010
0100
0001
0010
0001
1000
0100
1000
0001
0010
0001
,
0100
0010
0100
0001
0100
0010
1000
0001
0010
0100
0010
0001
1000
0100
1000
0001
,
0010
0100
1000
0001
0100
0001
0100
0010
1000
0001
0010
0100
0010
0100
1000
0001
,
0100
0010
1000
0001
0100
0010
1000
0010
0100
0001
1000
0100
1000
0001
0010
0100
,
2000
0100
3001
2000
0100
3001
2000
0100
,
3001
0100
0001
0100
0010
0100
0010
0100
0010
1000
0010
1000
0MM1
0000
0MM1
0000
,
1000
0000
0001
0000
0010
0001
0010
0000
0100
0000
1000
0000
0001
0100
0001
0000
,
1000
0000
0010
0000
0100
0010
0100
0000
0001
0000
1000
0000
0001
0010
0001
0000
,
1000
0000
0100
0000
1000
0001
1000
0000
0010
0000
0100
0000
0001
0100
0001
0000
,
1000
0000
0001
0000
0010
0100
0010
0000
0100
0000
1000
0000
0001
0010
0001
0000
,
1000
0000
0010
0000
0100
0001
0100
0000
0001
0000
0010
0000
0100
1000
0100
0000
,
0010
0000
0100
0000
1000
0001
1000
0000
0001
0000
0100
0000
0010
0100
0010
0000
,
1000
0000
0001
0000
0100
0001
0100
0000
0010
0000
1000
0000
0001
0010
0001
0000
,
1000
0001
1000
0001
1000
0001
1000
0000
11MM
0000
0000
0000
M1M1
0000
0000
0000
,
0002
0000
1003
0100
0010
0001
2000
0000
3010
0100
0001
1000
0001
0010
0001
1000
,
0200
0000
0310
0001
1000
0001
0200
0000
0310
1000
0001
0100
0001
1000
0010
0100
,
0002
0000
1003
0100
0010
0100
2000
0000
3001
0010
0001
0100
0010
1000
0001
0010
,
0002
0000
1003
0100
0010
0001
0200
0000
0310
1000
0001
1000
0100
0000
0100
0000
,
0020
0000
0031
1000
0001
0100
0020
0000
0130
0001
1000
0100
1000
0001
0010
0100
,
0020
0000
0130
1000
0001
1000
0020
0000
0130
0001
1000
0001
0200
0000
0301
1000
,
0200
0000
0310
0001
1000
0001
0020
0000
0130
1000
0001
0100
0010
1000
0001
0010
,
0100
1000
0100
1000
0001
1000
0001
1000
0001
0100
0001
0100
0010
0100
0010
0000
,
0110
0100
0001
1001
1000
0001
0011
0010
,
0110
0100
1000
1001
0001
0100
0110
0101
,
0002
0010
1003
0002
0010
1003
0002
0013
,
0200
0000
0010
0000
1300
0000
0001
0000
1000
0001
1000
0001
1000
0001
1000
0000
,
1001
0000
0001
0000
0101
0000
0100
0000
0110
0000
0010
0000
1000
0001
0010
0100
,
1000
0001
0011
0010
0110
0100
1100
1001
,
0001
0010
0100
1000
0100
1000
0001
0010
0100
1000
0100
1000
0001
0010
0001
0000
,
MM11
0001
1MM1
1000
1M1M
0010
M11M
0100
,
0001
0000
0001
0000
1000
0100
1000
0000
0001
0000
0001
0000
1000
0100
1000
0000
,
2002
3003
0110
2002
0003
3001
0010
0010
,
0200
0000
1300
0001
0100
0010
1000
0001
1000
0100
0010
0001
1000
0001
0100
0000
,
0220
0000
0330
0000
1001
0000
0220
0000
0030
0000
0310
1000
0010
1000
0010
1000
,
0000
0001
0000
0000
0000
0000
0000
0000
0000
0000
0000
0000
0100
0000
0000
0000
0000
0000
0000
0000
0000
0000
0000
0000
0000
0001
0000
0000
0000
0000
0000
0000
0000
0000
0000
0000
0100
0000
0000
0000
0000
0000
0000
0000
0000
0000
0000
0000
0000
0001
0000
0000
0000
0000
0000
0000
0000
0000
0000
0000
1000
0000
0000
0000
0000
0000
0000
0000
0000
0000
0000
0000
0000
0001
0000
0000
0000
0000
0000
0000
0000
0000
0000
0000
1000
0000
0000
0000
0000
0000
0000
0000
0000
0000
0000
0000
0000
0001
0000
0000
0000
0000
0000
0000
0000
0000
0000
0000
0010
0000
0000
0000
0000
0000
0000
0000
0000
0000
0000
0000
0000
0001
0000
0000
0000
0000
0000
0000
0000
0000
0000
0000
0010
0000
0000
0000
0000
0000
0000
0000
0000
0000
0000
0000
0000
0001
0000
0000
0000
0000
0000
0000
0000
0000
0000
0000
1000
0000
0000
0000
0000
0000
0000
0000
0000
0000
0000
0000
0000
0001
0000
0000
0000
0000
0000
0000
0000
0000
0000
0000
1000
0000
0000
0000
0000
0000
0000
0000
0000
0000
0000
0000
,
0000
0001
0000
0000
0000
0000
0000
0000
0000
0000
0000
0000
0100
0000
0000
0000
0000
0000
0000
0000
0000
0000
0000
0000
0000
0001
0000
0000
0000
0000
0000
0000
0000
0000
0000
0000
0100
0000
0000
0000
0000
0000
0000
0000
0000
0000
0000
0000
0000
0010
0000
0000
0000
0000
0000
0000
0000
0000
0000
0000
0100
0000
0000
0000
0000
0000
0000
0000
0000
0000
0000
0000
0000
0010
0000
0000
0000
0000
0000
0000
0000
0000
0000
0000
1000
0000
0000
0000
0000
0000
0000
0000
0000
0000
0000
0000
0001
0000
0000
0000
0000
0000
0000
0000
0000
0000
0000
0000
1000
0000
0000
0000
0000
0000
0000
0000
0000
0000
0000
0000
0100
0000
0000
0000
0000
0000
0000
0000
0000
0000
0000
0000
0010
0000
0000
0000
0000
0000
0000
0000
0000
0000
0000
0000
0001
0000
0000
0000
0000
0000
0000
0000
0000
0000
0000
0000
0000
0000
0000
0000
0000
0000
0000
0000
0000
0000
0000
0000
0000
0000
0000
0000
0000
0000
0000
0000
0000
0000
0000
0000
0000
0000
0000
0000
0000
0000
0000
0000
0000
0000
0000
0000
,
0000
1000
0000
0000
0000
0000
0000
0000
0000
0000
0000
0000
0100
0000
0000
0000
0000
0000
0000
0000
0000
0000
0000
0000
0000
1000
0000
0000
0000
0000
0000
0000
0000
0000
0000
0000
0100
0000
0000
0000
0000
0000
0000
0000
0000
0000
0000
0000
0000
1000
0000
0000
0000
0000
0000
0000
0000
0000
0000
0000
0001
0000
0000
0000
0000
0000
0000
0000
0000
0000
0000
0000
0000
1000
0000
0000
0000
0000
0000
0000
0000
0000
0000
0000
0001
0000
0000
0000
0000
0000
0000
0000
0000
0000
0000
0000
0000
1000
0000
0000
0000
0000
0000
0000
0000
0000
0000
0000
0010
0000
0000
0000
0000
0000
0000
0000
0000
0000
0000
0000
0000
1000
0000
0000
0000
0000
0000
0000
0000
0000
0000
0000
0010
0000
0000
0000
0000
0000
0000
0000
0000
0000
0000
0000
0000
1000
0000
0000
0000
0000
0000
0000
0000
0000
0000
0000
0001
0000
0000
0000
0000
0000
0000
0000
0000
0000
0000
0000
0000
1000
0000
0000
0000
0000
0000
0000
0000
0000
0000
0000
0001
0000
0000
0000
0000
0000
0000
0000
0000
0000
0000
0000
,
1000
0010
1000
0001
0100
0010
0100
0001
0010
0001
1000
0100
1000
0000
0000
0000
,
0100
0000
0010
0000
0001
0010
0001
0000
0100
0000
0001
0000
1000
0100
1000
0000
,
0001
0000
0010
0000
0100
1000
0100
0000
0010
0000
0001
0000
1000
0010
1000
0000
,
0001
0000
0010
0000
0100
0010
0100
0000
1000
0000
0001
0000
0100
0010
0100
0000
,
0001
0000
1000
0000
0001
1000
0001
0000
0010
0000
0100
0000
0010
0001
0010
0000
,
0100
0000
1000
0000
0001
0100
0001
0000
1000
0000
0010
0000
0100
0001
0100
0000
,
0010
0000
1000
0000
0001
0010
0001
0000
1000
0000
0100
0000
0010
0100
0010
0000
,
0001
0000
1000
0000
0010
1000
0010
0000
0100
0000
0001
0000
1000
0001
1000
0000
,
0001
1000
0001
1000
0001
1000
0001
0000
MM11
0000
0000
0000
1M1M
0000
0000
0000
,
2000
0000
3001
0010
0100
1000
0002
0000
0103
0010
1000
0001
1000
0100
1000
0001
,
0020
0000
0130
1000
0001
1000
0020
0000
0130
0001
1000
0010
1000
0001
0100
0010
,
2000
0000
3001
0010
0100
0010
0002
0000
1003
0100
1000
0010
0100
0001
1000
0100
,
2000
0000
3001
0010
0100
1000
0020
0000
0130
0001
1000
0001
0010
0000
0010
0000
,
0200
0000
1300
0001
1000
0010
0200
0000
0310
1000
0001
0010
0001
1000
0100
0010
,
0200
0000
0310
0001
1000
0001
0200
0000
0310
1000
0001
1000
0020
0000
1030
0001
,
0020
0000
0130
1000
0001
1000
0200
0000
0310
0001
1000
0010
0100
0001
1000
0100
,
0010
0001
0010
0001
1000
0001
1000
0001
1000
0010
1000
0010
0100
0010
0100
0000
,
0110
0010
1000
1001
0001
1000
1100
0100
,
0110
0010
0001
1001
1000
0010
0110
1010
,
2000
0100
3001
2000
0100
3001
2000
3100
,
0010
0100
0010
0100
0010
0100
0010
0100
1000
0001
1000
0001
1000
0001
1000
0000
,
1001
0000
0001
0000
0101
0000
0100
0000
0110
0000
0010
0000
1000
0001
0010
0100
,
1000
0001
0011
0010
0110
0100
1100
1001
,
0001
0010
0100
1000
0100
1000
0001
0010
0100
1000
0100
1000
0001
0010
0001
1000
,
0010
0100
0010
0100
0001
0100
0001
0100
0001
1000
0001
1000
0100
1000
0100
1000
,
0001
0000
0010
0000
0100
0010
0100
0000
1000
0000
0001
0000
1000
0010
1000
0000
,
0001
0000
0010
0000
0100
1000
0100
0000
0010
0000
0001
0000
1000
0010
1000
0000
,
0001
0000
0100
0000
0010
1000
0010
0000
1000
0000
0001
0000
0010
0001
0010
0000
,
0100
0000
1000
0000
0001
1000
0001
0000
0100
0000
0010
0000
1000
0010
1000
0000
,
0100
0000
0010
0000
0001
0010
0001
0000
1000
0000
0001
0000
0100
0010
0100
0000
,
0001
0000
1000
0000
0001
0010
0001
0000
1000
0000
0100
0000
0010
0100
0010
0000
,
0001
0000
1000
0000
0001
1000
0001
0000
0100
0000
0010
0000
1000
0001
1000
0000
,
0001
0010
0001
0010
0001
0010
0001
1000
0010
0100
0001
1000
0001
0010
0100
1000
,
0001
0000
0100
0000
0010
1000
0010
0000
0100
0000
0001
0000
1000
0100
1000
0000
,
0001
0000
0010
0000
0100
1000
0100
0000
0010
0000
0001
0000
1000
0010
1000
0000
,
0001
0000
0100
0000
0010
0100
0010
0000
1000
0000
0001
0000
0010
0001
0010
0000
,
0100
0000
1000
0000
0001
1000
0001
0000
2000
0000
0000
0000
3002
0000
0000
0000
,
2003
0000
3010
0100
0001
1000
0002
0000
1003
0100
0010
0100
1000
0001
0100
0010
,
0200
0000
0301
1000
0001
0010
0200
0000
1300
0001
0010
0100
1000
0001
0100
0010
,
1000
0001
1000
0001
1000
0001
1000
0001
1000
0001
1000
0001
1000
0001
1000
0000
,
2MM2
0000
0MM0
0000
0MM0
0000
0MM0
3003
,
1010
0000
0010
0000
0100
0001
0100
0000
0001
0000
1000
0000
0001
0010
0001
0000
,
1000
0000
0100
0000
0010
0100
0010
0000
0001
0000
1000
0000
0010
0100
0010
0000
,
1000
0000
0001
0000
1000
0100
1000
0000
0001
0000
0010
0000
0001
1000
0001
0000
,
0200
0000
0000
0320
0000
0000
0000
0000
,
1030
0001
1000
0100
0010
0001
1000
0010
0100
0001
0010
0100
1000
0001
0100
0001
,
2000
0000
3001
0010
0100
1000
0002
0000
0103
0000
0010
0000
1000
0000
0001
0000
,
2002
0000
0000
0000
0000
0000
0000
3003
,
0001
1000
0001
1000
0001
1000
0001
1000
0001
0100
0001
0100
0001
0100
0001
0100
,
0010
0000
1000
0000
0001
1000
0001
0000
0010
0000
0100
0000
0010
0001
0010
0000
,
0100
0000
1000
0000
0001
0100
0001
0000
1000
0000
0010
0000
0100
0001
0100
0000
,
0010
0000
1000
0000
0001
0010
0001
0000
1000
0000
0001
0000
1000
0100
1000
0000
,
0001
0000
0100
0000
0010
1000
0010
0000
0100
0000
0001
0000
1000
0100
1000
0000
,
0001
0100
0010
1000
0001
1000
0010
0100
0001
1000
0100
0010
0001
0010
0100
1000
,
0002
0000
1003
0100
1000
0010
0100
0001
0100
0001
1000
0001
1000
0100
1000
0100
,
0010
0000
0001
0000
1000
0001
1000
0000
0010
0100
0010
0100
0001
0100
0001
0000
,
1MM1
0000
0000
0000
1000
0100
0010
0001
1000
0100
0010
0001
1000
0100
0010
0001
,
1000
0100
0010
0001
1000
0100
0010
0001
1000
0100
0010
0001
1000
0000
1000
0000
,
0002
0000
0000
0000
1003
0010
1000
0010
1000
0010
1000
0010
1000
0010
1000
0010
,
1000
0010
1000
0000
2MM2
0000
0000
0000
3113
0000
2MM2
0000
0003
0000
3001
0000
,
0010
0000
0010
0000
0001
0010
0001
0010
0001
0010
0001
0010
0001
0010
0001
0010
,
0001
0010
0001
0000
2MM2
0000
0000
0000
3113
0000
2MM2
0000
3000
0000
1003
0010
,
1000
0000
0000
0000
0010
0000
0000
0000
1000
0000
0000
0000
0001
0000
0000
0000
1000
0000
0000
0000
0100
0000
0000
0000
0010
0000
0000
0000
0001
0000
0000
0000
1000
0000
0000
0000
0001
0000
0000
0000
0100
0000
0000
0000
0010
0000
0000
0000
1000
0000
0000
0000
0000
0100
0000
0000
0000
0000
0010
0000
0000
0000
0000
0001
,
0000
0000
0000
0000
0100
0000
0000
0000
0000
0010
0000
0000
0000
0000
0000
0000
0100
0000
0000
0000
0010
0000
0000
0000
1000
0000
0000
0000
0001
0000
0000
0000
1000
0000
0000
0000
0100
0000
0000
0000
0010
0000
0000
0000
0001
0000
0000
0000
2000
0000
0000
0000
0000
0000
0000
0000
0000
0000
0000
0000
0000
0000
0000
3000
,
1000
0000
0000
0000
0000
0100
0000
0000
0000
0000
0010
0000
0000
0000
0000
0000
0001
0000
0000
0000
0100
0000
0000
0000
0010
0000
0000
0000
1000
0000
0000
0000
0001
0000
0000
0000
1000
0000
0000
0000
0100
0000
0000
0000
0010
0000
0000
0000
0001
0000
0000
0000
0000
1000
0000
0000
0000
0000
0100
0000
0000
0000
0000
1000
,
0000
0000
0000
0000
0001
0000
0000
0000
0000
0100
0000
0000
0000
0000
0000
0000
0010
0000
0000
0000
1000
0000
0000
0000
0001
0000
0000
0000
0010
0000
0000
0000
0100
0000
0000
0000
0010
0000
0000
0000
0100
0000
0000
0000
0010
0000
0000
0000
0002
0000
0000
0000
0000
0000
0000
0000
0000
0000
0000
0000
0003
0000
0000
0000
,
1001
0000
0000
0000
1000
0100
1000
0100
1000
0100
1000
0100
1000
0100
1000
0100
,
1000
0100
1000
0000
2MM2
0000
0000
0000
3113
0000
2MM2
0000
0003
0000
3001
0000
,
0010
0000
0010
0000
0001
0100
0001
0100
0001
0100
0001
0100
0001
0100
0001
0100
,
0001
0100
0001
0000
2MM2
0000
0000
0000
3113
0000
2MM2
0000
3000
0000
1003
0100
,
1000
0100
1000
0100
0010
0000
0001
0000
1000
0010
1000
0000
0001
0000
0010
0000
,
0100
1000
0100
0000
0010
0001
0010
0001
1000
0001
1000
0001
0100
0001
1000
0100
,
0010
0000
0000
0000
0001
0000
1000
0000
0010
0100
0010
0000
0100
0000
0001
0000
,
1000
0100
1000
0000
0001
0010
0001
0010
0100
0010
0100
0010
0100
1000
0100
1000
,
0001
1000
0001
0000
1001
0000
1000
0000
0100
0000
0110
0000
0010
0000
0001
0000
,
1001
1000
1010
0010
0100
0101
0001
1000
,
1100
0000
0100
0000
0010
0001
1000
0100
1000
0100
0010
0001
1000
0100
1000
0100
,
0010
0001
1000
0001
0100
0010
0100
0010
0100
0010
0100
0010
1000
0001
0100
0010
,
0100
0010
0100
0010
1000
0000
0100
0000
0100
0000
0010
0000
0001
0000
0001
0000
,
1000
0001
0100
0010
0010
1000
0001
0001
,
0100
0000
0001
0000
1000
0010
0100
0001
0100
0001
1000
0010
0100
0001
0100
0001
,
1000
0010
0100
0001
1000
0100
1000
0100
0010
0100
0010
0100
0010
0001
0010
0001
,
1000
0001
1000
0001
0100
0000
0010
0000
1000
0010
1000
0000
0001
0000
0010
0000
,
0001
1000
0001
0000
0010
0000
0100
0000
1000
0100
1000
0000
0001
0000
0100
0000
,
0010
1000
0010
0000
1000
0000
0001
0000
0010
0001
0010
0000
0100
0000
1000
0000
,
0001
1000
0001
0000
1000
0000
0010
0000
0100
0001
0100
0000
0001
0000
0010
0000
,
0100
1000
0100
0000
0010
0000
0001
0000
1000
0010
1000
0000
0001
0000
0100
0000
,
0010
0100
0010
0000
1000
0000
0001
0000
1000
0001
1000
0000
0001
0000
0010
0000
,
0100
1000
0100
0000
0010
0000
0001
0000
1000
0010
1000
0000
0001
0000
0100
0000
,
0001
1000
0001
0000
1000
0100
1000
0100
1000
0100
1000
0001
0100
0010
1000
0001
,
1000
0100
0010
0001
1000
0000
0010
0000
0100
0001
0100
0000
0010
0000
1000
0000
,
0001
0010
0001
0000
1000
0000
0100
0000
0010
0001
0010
0000
0100
0000
1000
0000
,
0001
0100
0001
0000
1000
0000
0010
0000
0100
0010
0100
0000
0001
0000
1000
0000
,
0100
1000
0100
0000
0010
0000
0001
0000
1000
0001
1000
0000
0001
0010
0100
1000
,
0001
0100
0010
1000
0002
0000
0103
0010
1000
0001
2000
0000
3001
0010
0100
0010
,
0001
1000
0010
0100
0020
0000
1030
0001
1000
0100
0020
0000
0031
1000
0100
0010
,
0001
1000
0010
0100
0001
1000
0001
1000
0001
1000
0001
1000
0001
1000
0001
1000
,
0001
1000
0001
0000
2MM2
0000
0000
0000
0MM0
0000
0000
0000
0MM0
0000
0000
0000
,
0MM0
0000
3003
0000
0101
0000
0100
0000
0010
1000
0010
0000
1000
0000
0001
0000
,
1000
0100
1000
0000
0001
0000
0010
0000
0100
0010
0100
0000
1000
0000
0001
0000
,
0100
0010
0100
0000
0001
0000
1000
0000
0001
0010
0001
0000
1000
0000
0100
0000
,
1000
0001
1000
0000
0020
0000
0000
0000
0000
0000
0230
0000
0000
0000
0000
0000
,
0000
0000
0000
0000
0301
1000
0001
0010
0100
1000
0001
0100
0010
1000
0100
0010
,
0001
1000
0010
1000
0002
0000
1003
0100
0010
0001
2000
0000
3010
0100
0001
1000
,
0100
0010
0001
0000
2002
0000
0000
0000
0000
0000
0000
0000
0000
0000
0000
0000
,
0000
0000
3003
0000
1000
0001
1000
0001
1000
0001
1000
0001
1000
0010
1000
0010
,
1000
0010
1000
0010
0100
0000
0001
0000
1000
0001
1000
0000
0100
0000
0010
0000
,
0100
1000
0100
0000
0010
0000
0001
0000
1000
0010
1000
0000
0001
0000
0100
0000
,
0010
1000
0010
0000
1010
0000
1000
0000
0001
0010
0001
0000
1000
0000
0001
0000
,
1000
0100
1000
0000
0001
0000
0100
0000
0010
1000
0010
0000
0100
0000
0001
0000
,
1000
0100
1000
0000
0001
0100
0010
1000
0001
1000
0010
0100
0001
1000
0100
0010
,
0001
0010
0100
1000
0002
0000
1003
0100
1000
0010
0100
0001
0100
0001
1000
0001
,
1000
0100
1000
0100
0010
0000
0001
0000
1000
0010
1000
0000
0001
0000
1000
0000
,
0001
1000
0001
0000
1MM1
0000
0000
0000
1000
0100
0010
0001
1000
0010
1000
0001
,
0100
0001
1000
0100
0010
0001
1000
0100
1000
0001
0010
0001
1000
0100
0010
0001
,
2000
0000
0000
3000
M000
0000
0002
0000
0000
0003
000M
0000
2002
0000
0000
0000
0000
0000
0000
0000
0000
0000
0000
0000
,
0000
0000
0000
0000
,
3000
1000
0103
1000
0100
0000
0000
0000
0220
0000
0000
0000
0000
0000
0000
0000
,
0000
0000
0000
0000
,
0300
0100
1030
0100
1000
0000
0001
0000
0202
0000
0000
0000
0000
0000
0000
0000
,
0000
0000
0000
0000
0000
0000
0000
0003
,
0301
1000
0001
1000
0001
1000
0001
0000
2002
0000
0000
0000
0000
0000
0000
0000
,
0000
0000
3000
0000
0003
1000
0001
1000
0001
0000
0000
0000
0001
0000
0000
0000
,
1000
0010
0100
0001
1000
0100
0010
0001
1000
0000
0000
0000
0100
0000
1000
0000
,
1001
0000
0001
0000
0100
0000
0010
0000
1010
0000
1000
0000
0001
1000
0001
1000
,
0100
0000
0010
0000
0001
0100
0001
0100
0010
0000
0000
0000
1000
0000
0010
0000
,
0110
0000
0000
0000
0100
0000
0001
0000
1001
0000
1000
0000
0001
0010
0001
0010
,
0100
0000
1000
0000
0001
0100
0001
0100
0010
0000
0000
0000
0100
0000
0010
0000
,
1010
0000
1000
0000
0001
1000
0001
1000
0100
0000
0010
0000
0001
0000
1000
0000
,
1010
0000
0010
0000
0100
0001
0100
0001
1000
0000
0000
0000
0001
0000
0010
0000
,
0011
0000
0001
0000
0000
1000
0001
0100
0001
0100
0010
0100
0010
0100
0010
1000
,
0010
1000
0001
1000
0001
1000
0100
0010
0001
0000
0000
0000
1000
0001
0100
0001
,
1000
0000
0100
0000
0010
0001
1000
0001
0100
0000
0000
0000
0010
0100
0001
1000
,
0001
0000
1000
0001
0100
0001
1000
0100
0010
0000
0000
0000
0001
1000
0001
0100
,
0010
0000
0100
0000
0001
1000
0100
1000
0001
0100
0001
0100
0010
1000
0001
0100
,
0001
0100
0010
1000
0001
0010
0100
1000
0001
0000
0000
0000
1000
0001
1000
0001
,
0010
0000
0100
1000
0001
1000
0001
0000
0101
0000
0000
0000
0100
0000
0010
0000
,
1010
0000
1000
0000
0001
1000
0001
1000
0100
0000
0100
0000
0100
0000
0100
0000
,
0100
0000
0100
0000
0100
0000
0100
0000
0100
0010
0100
0010
0001
0010
0001
0010
,
0001
1000
0001
1000
0010
1000
0010
1000
0002
0000
0000
0000
1003
0000
0200
0000
,
0000
0310
0001
1000
0020
0000
0130
0002
,
0000
0000
1003
0000
0100
0000
0010
0000
0200
0000
0000
0000
1300
0001
1000
0001
,
1000
0000
0000
0000
0020
0000
0000
0000
0000
0000
0000
0000
0230
0000
0000
0000
0000
0000
0000
0000
0302
0000
0000
0000
0000
0000
0000
0000
1003
0200
0000
0000
,
0000
0000
0310
0000
0001
0000
1000
0000
0001
0100
0001
0100
0001
0000
1000
0100
,
1000
0100
1000
0000
0001
0010
0001
0000
1000
0010
1000
0010
1000
0000
0001
0100
,
0001
0100
0001
0000
1000
0100
1000
0000
0002
0000
0000
0003
0001
0000
1000
0000
,
0001
0000
0010
0000
0100
0000
1000
0000
0001
1000
0001
1000
0001
1000
0001
1000
,
0001
1000
0001
1000
0001
1000
0001
1000
0100
0010
0001
1000
0001
0100
0010
0100
,
0001
1000
0100
0010
0001
1000
0001
0100
0010
0100
0001
1000
0100
0010
0001
0100
,
0010
0100
0001
1000
0001
0100
0010
0100
0001
0010
0100
1000
0001
1000
0100
0010
,
0100
1000
0010
0100
0001
0010
0100
1000
0001
1000
0100
0010
0100
1000
0010
0100
,
0001
0010
0100
1000
0001
1000
0100
0010
0001
0010
0100
1000
0100
1000
0001
1000
,
0010
0100
0010
0100
0001
1000
0100
1000
0001
0010
0100
1000
0001
1000
0010
0100
,
0010
1000
0001
0010
0100
1000
0001
1000
0100
0010
0001
1000
0010
0100
0010
1000
,
0001
1000
0001
0010
0100
0010
0001
1000
0010
0100
0010
1000
0001
0100
0010
1000
,
0001
0100
0010
1000
0100
0010
0001
1000
0002
0000
0000
0000
0000
0000
0200
0000
,
0000
0003
2000
0300
0002
3000
0000
0020
,
0003
0000
1030
0001
1000
0000
0100
0000
0010
0001
0010
0001
0010
0000
0001
1000
,
0001
1000
0001
0000
1000
0010
1000
0000
0010
0100
0010
0100
0010
0100
0010
0100
,
0001
1000
0010
0100
0001
1000
0100
1000
0002
0000
0000
0000
0000
0000
0020
0000
,
0003
0000
2000
0030
0002
3000
0000
0200
,
0003
0000
0000
0000
1300
0000
0001
0000
1000
0100
1000
0100
1000
0000
0001
0000
,
0100
0010
0100
0010
0100
0000
0001
0000
1000
0100
0010
0001
1000
0100
0010
0001
,
1000
0010
0100
0010
1000
0100
0010
0001
2000
0000
0000
0000
0000
0000
0000
0000
,
3200
0000
0320
0000
0032
0000
1000
1000
,
2000
0000
0000
0000
0000
0000
0000
0000
0000
0003
0000
0000
3001
0000
0100
0000
0010
0000
1000
0000
0000
0100
0000
0000
,
1000
0000
0000
0001
0000
0000
0100
0000
0000
0010
0000
0000
1000
0000
0010
0000
0100
0000
0001
0000
0010
0000
0100
0000
,
2000
0000
0000
0000
0000
0000
0000
0000
3100
0010
0000
0100
1000
0100
0010
0001
,
1000
0001
0100
0010
1000
0001
0010
0100
0010
0001
1000
0100
1000
0001
0100
0010
,
0100
0000
0000
0000
0000
0000
0000
0000
0000
0000
0000
0000
0001
0000
0000
0000
0000
0000
0000
0000
0000
0000
0000
0000
1000
0000
0000
0000
0000
0000
0000
0000
0000
0000
0000
0000
0001
0000
0000
0000
0000
0000
0000
0000
0000
0000
0000
0000
0010
0000
0000
0000
0000
0000
0000
0000
0000
0000
0000
0000
0100
0000
0000
0000
0000
0000
0000
0000
0000
0000
0000
0000
1000
0000
0000
0000
0000
0000
0000
0000
0000
0000
0000
0000
0001
0000
0000
0000
0000
0000
0000
0000
0000
0000
0000
0000
0000
0100
0000
0000
0000
0000
0000
0000
0000
0000
0000
0000
0010
0000
0000
0000
0000
0000
0000
0000
0000
0000
0000
0000
0000
0100
0000
0000
0000
0000
0000
0000
0000
0000
0000
0000
0010
0000
0000
0000
0000
0000
0000
0000
0000
0000
0000
0000
0000
0100
0000
0000
0000
0000
0000
0000
0000
0000
0000
0000
0001
0000
0000
0000
0000
0000
0000
0000
0000
0000
0000
0000
0000
0100
0000
0000
0000
0000
0000
0000
0000
0000
0000
0000
0001
0000
0000
0000
0000
0000
0000
0000
0000
0000
0000
0000
,
0000
0100
0000
0000
0000
0000
0000
0000
0000
0000
0000
0000
0010
0000
0000
0000
0000
0000
0000
0000
0000
0000
0000
0000
0000
0100
0000
0000
0000
0000
0000
0000
0000
0000
0000
0000
0010
0000
0000
0000
0000
0000
0000
0000
0000
0000
0000
0000
0000
1000
0000
0000
0000
0000
0000
0000
0000
0000
0000
0000
0100
0000
0000
0000
0000
0000
0000
0000
0000
0000
0000
0000
0000
1000
0000
0000
0000
0000
0000
0000
0000
0000
0000
0000
0001
0000
0000
0000
0000
0000
0000
0000
0000
0000
0000
0000
0000
1000
0000
0000
0000
0000
0000
0000
0000
0000
0000
0000
0001
0000
0000
0000
0000
0000
0000
0000
0000
0000
0000
0000
0000
1000
0000
0000
0000
0000
0000
0000
0000
0000
0000
0000
0100
0000
0000
0000
0000
0000
0000
0000
0000
0000
0000
0000
0000
1000
0000
0000
0000
0000
0000
0000
0000
0000
0000
0000
0100
0000
0000
0000
0000
0000
0000
0000
0000
0000
0000
0000
0000
1000
0000
0000
0000
0000
0000
0000
0000
0000
0000
0000
0002
0000
0000
0000
0000
0000
0000
0000
0000
0000
0000
0000
,
0200
0000
0000
0000
0000
0000
0303
0000
0100
0010
0100
0001
1000
0001
1000
0010
,
0100
0001
1000
0001
1000
0100
0010
0001
0100
0001
1000
0001
0100
0010
0100
0001
,
1000
0001
0100
0010
0100
0001
1000
0100
0010
0001
0100
0010
0000
1000
0100
0010
,
0001
0000
0000
0001
1000
0100
0010
0002
0000
0000
0000
0000
0000
0003
0004
0000
,
0000
0000
0000
0000
0000
0000
0000
0000
0103
0010
1000
0001
0010
0001
0100
0010
,
1000
0001
1000
0100
1000
0001
0010
0100
1000
0010
0100
0001
1000
0001
1000
0100
,
0010
0001
1000
0100
0010
0100
1000
0001
0100
0010
1000
0001
0100
0010
1000
0001
,
0100
0010
1000
0001
0100
0010
1000
0001
0100
0010
0100
0010
1000
0010
1000
0010
,
1000
0001
1000
0001
0010
0001
0010
0001
1000
0000
0010
0000
0100
0010
0100
0000
,
0001
0000
1000
0000
0001
0010
0001
0000
1000
0000
0100
0000
0010
0100
0010
0000
,
0100
0000
1000
0000
0001
0100
0001
0000
0100
0000
0010
0000
1000
0010
1000
0000
,
0100
0000
0010
0000
0001
1000
0001
0000
0100
0000
0010
0000
0100
0001
0100
0000
,
0001
0000
0010
0000
0100
1000
0100
0000
0010
0000
0001
0000
1000
0010
1000
0000
,
0001
0000
0100
0000
0001
1000
0001
0000
0010
0000
0100
0000
1000
0001
1000
0000
,
0100
0000
0010
0000
0001
0100
0001
0000
1000
0000
0010
0000
0100
0010
0100
0000
,
0001
0000
1000
0000
0001
1000
0001
0000
1000
0100
1000
0100
0010
0100
0010
0100
,
0010
0001
0010
0001
1000
0001
1000
0001
0100
0000
0010
0000
1000
0010
1000
0000
,
0001
0000
1000
0000
0100
1000
0100
0000
0010
0000
0001
0000
1000
0001
1000
0000
,
0001
0000
0010
0000
0100
1000
0100
0000
0010
0000
0001
0000
1000
0001
1000
0000
,
0010
0000
0100
0000
0001
0100
0001
0000
1000
0000
0100
0000
0010
0001
0010
0000
,
0100
0000
0010
0000
0001
0010
0001
0000
1000
0000
0001
0000
0100
0001
0100
0000
,
0010
0000
1000
0000
0001
0010
0001
0000
1000
0000
0100
0000
0010
0001
0010
0000
,
0100
0000
1000
0000
0001
0100
0001
0000
1000
0000
0010
0000
1000
0001
1000
0000
,
0100
0000
0010
0000
0001
1000
0001
0000
1000
0010
1000
0010
0100
0001
0100
0001
,
1000
0100
1000
0100
0010
0001
0010
0001
1000
0000
0001
0000
0010
0001
1000
0000
,
0001
0000
0010
0000
0100
1000
0001
0000
0100
0000
0010
0000
1000
0010
0100
0000
,
0001
0000
1000
0000
0001
0010
0100
0000
0010
0000
0001
0000
1000
0100
0010
0000
,
0001
0000
0100
0000
0001
1000
0100
0000
0010
0000
0001
0000
0100
0010
1000
0000
,
0001
0000
1000
0000
0001
0010
0100
1000
0001
0000
0100
0000
0010
0100
0001
0000
,
1000
0000
0001
0000
0100
0001
0010
0000
0100
0000
1000
0000
0001
1000
0100
0000
,
0010
0000
0001
0000
1000
0010
0100
0000
0010
0000
0100
0000
0001
1000
0100
0000
,
0010
0000
0001
0000
1000
0001
0010
0000
0100
1000
0100
1000
0100
1000
0100
1000
,
0001
0100
0001
0100
0001
0100
0001
0100
0010
0000
1000
0000
0001
0010
0100
0000
,
1000
0000
0001
0000
0100
0010
1000
0000
0001
0000
1000
0000
0001
0010
0100
0000
,
1000
0000
0001
0000
0100
0010
1000
0000
0001
0000
1000
0000
0010
1000
0100
0000
,
0010
0000
0001
0000
1000
0100
0010
0000
0001
1000
0001
1000
0001
1000
0001
1000
,
0010
0100
0001
1000
0100
1000
0001
0010
0100
1000
0100
1000
0100
1000
0001
1000
,
0001
1000
0001
1000
0001
0100
0001
0100
0010
0100
0010
0100
0010
0100
0010
1000
,
0010
1000
0010
1000
0001
1000
0001
1000
0010
0100
0001
1000
0100
0010
0001
1000
,
0001
0100
0010
1000
1001
0000
0000
0000
0001
0010
0001
0010
0001
0010
0001
0010
,
0100
1000
0100
1000
0100
1000
0001
0000
2MM2
0000
0000
0000
0000
0000
0000
0000
,
0000
0000
0000
0000
,
0000
0000
0000
3003
M2M2
0000
0000
0000
,
0000
0000
0000
0000
,
0000
0000
0000
0303
M22M
0000
0000
0000
,
0000
0000
0000
0000
,
0000
0000
0000
0330
1M1M
0000
0000
1MM1
,
0000
0000
MM11
0000
M11M
0000
0000
11MM
,
0000
0000
0000
0000
1MM1
0000
0000
0000
0001
0000
1000
0000
0001
1000
0010
0000
,
1000
0000
0001
0000
0100
0010
1000
0000
0001
0000
0010
0000
0100
0010
0001
0000
,
1000
0000
0100
0000
0010
0001
1000
0000
1001
0000
0001
0000
0010
0001
1000
0000
,
0010
0000
0100
0000
0001
1000
0100
0000
0010
0000
0001
0000
1000
0001
0100
0000
,
0010
0000
1000
0000
0001
1000
0100
0000
0010
0001
1000
0001
0100
0010
1000
0001
,
0010
0001
1000
0100
0010
0001
1000
0010
0100
0001
0100
0010
1000
0001
1000
0100
,
0010
0000
0001
0000
0010
0000
0001
0000
1000
0000
0100
0000
0010
0001
1000
0000
,
0001
0000
0100
0000
0010
0100
0001
0000
1000
0001
1000
0001
1000
0001
1000
0001
,
0100
0010
1000
0001
0010
0001
1000
0100
0010
0000
0001
0000
0100
0010
1000
0000
,
0001
0000
1000
0000
0001
0010
0100
0000
1000
0000
0001
0000
0100
0010
1000
0000
,
0001
0000
1000
0000
0100
0010
0001
0000
1001
0000
1000
0000
0001
0010
0100
0000
,
1000
0000
0001
0000
0100
0010
1000
0000
0001
0000
1000
0000
0001
0010
0100
0000
,
1000
0000
0001
0000
1000
0010
0100
0000
0001
1000
0100
1000
0001
0010
0001
1000
,
0010
0100
0001
1000
0100
1000
0001
0010
0001
1000
0100
0010
0001
1000
0010
0100
,
0010
0100
0001
1000
0001
0010
0100
1000
0001
0100
0001
0100
0001
0100
0001
0100
,
0010
1000
0001
1000
0001
0100
0001
0100
0010
1000
0001
0100
0001
0100
0010
1000
,
0001
0100
0001
0100
0001
1000
0001
1000
0100
0000
0010
0000
0001
0010
0001
0000
,
1000
0000
0010
0000
1000
0010
1000
0000
0010
0000
0100
0000
0001
0100
0001
0000
,
1000
0000
0100
0000
1000
0000
0MMM
0000
0001
0100
0010
1000
0001
0100
0010
1000
,
0001
0100
0010
1000
0001
0100
0010
1000
0001
0100
0001
1000
0001
0100
0001
1000
,
0001
0100
0001
1000
0001
0100
0001
1000
0001
0010
0001
1000
0001
0010
0001
1000
,
0001
0010
0001
1000
0001
0010
0001
1000
0200
0000
0000
0000
1300
0000
2002
0000
,
0000
0000
3003
0000
;
