#TITLE:Destined Marionette;
#SUBTITLE:;
#ARTIST:beatMARIO;
#TITLETRANSLIT:;
#SUBTITLETRANSLIT:;
#ARTISTTRANSLIT:;
#CREDIT:;
#BANNER:destined_marionette.png;
#BACKGROUND:destined_marionette-bg.png;
#LYRICSPATH:;
#CDTITLE:cdtitle.png;
#MUSIC:destined_marionette.mp3;
#OFFSET:-5.230;
#SAMPLESTART:80.553;
#SAMPLELENGTH:12.000;
#SELECTABLE:YES;
#BPMS:0.000=46.500,16.000=186.000;
#STOPS:;
#BGCHANGES:;
// cache tags:
#FIRSTBEAT:0.000;
#LASTBEAT:340.000;
#SONGFILENAME:Songs/Japanese Collaboration Mix/destined_marionette/destined_marionette.sm;
#HASMUSIC:1;
#HASBANNER:1;
#MUSICLENGTH:136.705;
// end cache tags

//---------------dance-single - Hard----------------
#NOTES:
     dance-single:
     Hard:
     Hard:
     9:
     0.622,0.808,0.212,0.161,0.015,544.000,29.000,22.000,0.000,0.000:
0010
1000
0000
1000
0100
0001
0000
0001
,
1000
0100
0000
0100
1000
0010
0000
0010
,
1100
0001
0100
0001
0101
1000
0100
1000
,
0011
0000
0100
0000
1001
0000
0010
0000
2001
0000
0100
0000
3002
0100
0100
0100
,
0013
0001
1000
0001
0100
0001
0100
0001
,
1000
0010
0100
0001
0010
0001
1000
0001
,
0100
0001
0010
0100
0010
0001
1000
0100
,
0010
0001
0100
0001
0101
0000
1010
0000
,
1000
0001
0100
0010
1000
0001
0100
0001
,
0010
0001
1000
0001
0100
0001
1000
0001
,
0100
0010
1000
0010
0100
0010
1000
0001
,
0100
0010
1000
0100
1000
0000
1100
0000
,
0010
0100
0001
0100
0010
0000
1001
0000
,
0100
0010
1000
0010
1000
0100
1000
0001
,
1000
0100
0010
0001
0100
0000
1010
0000
,
0100
0001
0100
0001
0010
0001
0100
0001
,
1000
0001
0010
0001
0100
0000
0110
0000
,
1000
0001
1000
0100
0010
0000
0101
0000
,
0010
1000
0010
0100
0001
0100
0010
1000
,
0100
0001
0100
0010
0100
1000
0010
0000
,
0001
1000
0001
1000
0001
1000
0100
1000
,
0100
0010
1000
0001
1000
0002
0200
0003
,
0301
0000
1000
0000
0010
1000
0100
1000
,
0001
0100
0010
1000
0100
0000
1001
0000
,
0110
0000
1000
0001
0100
0001
0010
0001
,
0100
0001
0010
0001
1000
0002
2000
0003
,
3001
0000
1000
0000
0010
1000
0100
1000
,
0001
0000
0110
0000
0001
0100
1000
0000
,
0010
1000
0100
1000
0001
0100
0010
1000
,
0000
1000
0100
0001
1000
0020
0200
0030
,
0310
0000
1000
0000
0001
0100
0010
1000
,
0001
0100
0010
1000
0100
1000
0001
0100
,
0010
0000
1000
0001
0100
0010
1000
0100
,
0001
0100
0001
0010
0001
0200
0020
0300
,
0130
0000
1000
0000
0001
1000
0001
0100
,
0001
1000
0001
0010
0001
1000
0100
0010
,
0200
0000
1000
2300
0000
0000
3100
0200
,
0000
1000
0000
0310
0000
0000
1001
0000
,
0020
0000
0001
0032
0000
0000
1000
0000
,
0013
0001
0100
1000
,
0200
0000
0001
0302
0000
0000
0103
0200
,
0000
0001
0000
0310
0000
0000
1001
0000
,
0210
0000
1000
0000
0310
0000
0100
0001
,
0100
0000
0010
1000
0010
0000
0100
0000
,
1001
0000
0100
0001
0100
0010
1000
0001
,
1002
2000
0000
0000
,
0000
0000
3003
0000
,
1000
0100
0010
0100
1000
0001
1000
0100
,
0010
0100
1000
0001
1000
0000
0101
0000
,
1000
0100
0010
0100
1000
0001
1000
0100
,
0010
0100
1000
0001
0010
0000
0100
0000
,
1000
0100
0010
0100
1000
0001
1000
0100
,
0010
0100
1000
0001
1000
0000
0101
0000
,
1000
0100
0010
0100
1000
0001
1000
0100
,
0010
0100
1000
0010
0001
0000
0100
0000
,
1000
0100
0001
0100
1000
0010
1000
0100
,
0001
0100
1000
0010
1000
0000
0100
0000
,
0001
0100
1000
0100
0001
0010
0001
0100
,
1000
0100
0001
0010
0001
0000
0100
0000
,
1000
0100
0001
0100
1000
0010
1000
0100
,
0001
0100
1000
0010
1000
0000
0100
0000
,
0001
0100
1000
0100
0001
0010
0001
0100
,
1000
0100
0001
0010
0001
0000
1000
0000
,
0100
0000
0000
0000
0000
1000
0000
0100
,
1000
0010
0100
1001
,
0000
0200
0000
0000
0000
0000
0000
0000
,
0000
0000
0000
0000
0000
0000
0000
0000
0000
0000
0000
0000
0300
0000
0000
0011
0000
0000
0000
0000
1000
0000
0000
0000
,
0100
0000
0000
0000
0000
0000
0000
0000
0000
0000
0000
0000
0000
0000
0000
1001
0000
0000
0000
0000
0100
0000
0000
0000
,
0010
1000
0100
0001
,
0010
0001
1000
0001
0100
0001
0100
0010
,
1000
0001
0100
0001
0010
0001
0100
0001
,
0010
0100
1000
0100
0010
0001
1000
0100
,
0010
0001
0100
0001
0101
0000
1010
0000
,
1000
0001
0100
0010
1000
0001
0100
0001
,
0010
0001
1000
0001
0100
0001
1000
0001
,
0100
0010
1000
0010
0100
0010
1000
0001
,
0100
0010
1000
0100
1000
0000
1100
0000
,
0001
0100
1000
0010
1000
0100
0001
0010
,
0001
0100
1000
0010
1000
0100
0001
0010
,
0001
0100
1000
0010
1000
0100
0001
0010
,
0001
0100
1000
0010
,
1000
0100
0001
0010
0001
0100
1000
0010
,
1000
0100
0001
0010
0001
0100
1000
0010
,
1000
0100
0001
0010
0001
0100
1000
0010
,
0100
0000
1010
0000
0001
1000
0001
0100
,
0010
0000
0000
0000
;
