#TITLE:Miscake;
#SUBTITLE:;
#ARTIST:Kobaryo feat. 巡音ルカ;
#TITLETRANSLIT:;
#SUBTITLETRANSLIT:;
#ARTISTTRANSLIT:;
#CREDIT:Owem;
#BANNER:;
#BACKGROUND:;
#LYRICSPATH:;
#CDTITLE:;
#MUSIC:Miscake.ogg;
#OFFSET:-0.858;
#SAMPLESTART:85.712;
#SAMPLELENGTH:29.999;
#SELECTABLE:YES;
#DISPLAYBPM:*;
#BPMS:0.000=146.731,1.000=146.723,60.000=146.731,61.000=146.723,64.000=293.446,71.000=293.478,72.000=293.446,200.000=293.478,201.000=293.446,296.000=293.478,297.000=293.413,298.000=293.478,299.000=293.413,300.000=293.478,301.000=293.413,302.000=293.478,303.000=293.413,304.000=293.478,305.000=293.413,306.000=293.478,307.000=293.446,435.000=293.478,436.000=293.413,437.000=293.478,438.000=293.413,439.000=293.478,440.000=293.413,441.000=293.478,442.000=293.413,443.000=293.478,444.000=293.413,445.000=293.478,446.000=293.413,447.000=293.478,448.000=293.413,449.000=293.478,450.000=293.446,480.000=146.723,495.000=146.731,496.000=146.723,512.000=293.446,542.000=293.478,543.000=293.446,662.000=293.478,663.000=293.446;
#STOPS:;
#BGCHANGES:;
// cache tags:
#FIRSTBEAT:2.000;
#LASTBEAT:863.000;
#SONGFILENAME:Songs/Owem's Simfiles 08 1.1/Miscake - [Kellan] v1.0.0/Miscake.sm;
#HASMUSIC:1;
#HASBANNER:0;
#MUSICLENGTH:197.642;
// end cache tags

//---------------dance-single - 16/7/7/8/4/4/7/32/17----------------
#NOTES:
     dance-single:
     16/7/7/8/4/4/7/32/17:
     Challenge:
     41:
     1.000,1.000,0.116,0.238,1.000,2622.000,23.000,47.000,1001.000,0.000:
4000
0000
000M
0M00
,
00M0
0000
0000
0000
0000
0000
0M00
0000
0000
0000
0000
0000
00M0
0000
0000
0000
0000
0000
000M
0000
0000
0000
0000
0000
00M0
0000
0000
0000
0M00
0000
0000
0000
0000
00M0
0000
0000
000M
0000
0000
0M00
0000
0000
00M0
0000
0000
0000
0000
0000
,
3004
0000
0M00
0000
,
00M0
0000
0000
0000
0M00
0000
0000
0000
0M00
0M00
0M00
0M00
0M00
0M00
M000
M000
,
0043
0000
M000
0000
,
0M00
0000
0M00
0000
0M00
0000
0000
0000
M000
M000
M000
M000
M000
M000
0M00
0M00
,
0034
0000
00M0
0000
,
0M00
0M00
0M00
00M0
00M0
00M0
M000
0M00
00M0
0M00
M000
00M0
0M00
00M0
0M00
00M0
,
4003
0000
000M
0000
,
0M00
00M0
0M00
000M
0M00
00M0
0M00
000M
00M0
0M00
00M0
000M
0M00
00M0
0M00
0000
,
3004
0000
0000
0000
,
0000
0000
0000
0000
M000
0M00
00M0
0M00
M000
00M0
0M00
00M0
0M00
00M0
0M00
0000
,
4003
0000
0000
0000
,
0000
0000
0000
0000
0M00
00M0
000M
00M0
0M00
00M0
000M
0M00
00M0
0M00
0000
0000
,
3004
0000
0000
0000
,
0003
0000
0000
0000
M000
0M00
00M0
000M
00M0
0M00
M000
000M
0M00
0000
0000
0000
,
1000
0100
0010
0001
0010
0100
1000
0001
0100
0010
0100
0001
0010
0001
1000
0100
,
0010
0000
0000
0001
0000
0000
0010
0000
0000
0100
0000
0000
1000
0000
0000
0001
0000
0000
0100
0000
0000
0010
0000
0000
1000
0000
0000
0100
0000
0000
0010
0000
0000
0001
0000
0000
1000
0000
0010
0000
0100
0000
0001
0000
0010
0000
0001
0000
,
1000
0100
0010
0001
0010
0100
1000
0001
0100
0010
0100
0001
0010
0001
1000
0100
,
0010
0000
0000
0001
0000
0000
0010
0000
0000
0100
0000
0000
1000
0000
0000
0001
0000
0000
0100
0000
0000
0010
0000
0000
0100
0000
0000
0001
0000
0000
1000
0000
0000
0010
0000
0000
0100
0000
0001
0000
0100
0000
0010
0000
1000
0000
0001
0000
,
1000
0001
1000
0100
1000
0001
0010
0100
1000
0001
0100
0010
0100
0001
0010
0001
,
1000
0000
0000
0100
0000
0000
0010
0000
0000
0001
0000
0000
0010
0000
0000
0100
0000
0000
1000
0000
0000
0001
0000
0000
0100
0000
0000
0010
0000
0000
1000
0000
0000
0001
0000
0000
0100
0000
0010
0000
1000
0000
0001
0000
0100
0000
0010
0000
,
1000
0010
0100
0001
0010
0001
1000
0100
0010
0001
0010
0100
1000
0001
0100
0010
,
0100
0000
0000
0001
0000
0000
0010
0000
0000
0100
0000
0000
1000
0000
0000
0001
0000
0000
0100
0000
0000
0010
0000
0000
0100
0000
0000
0001
0000
0000
1000
0000
0000
0100
0000
0000
0010
0000
0001
0000
1000
0000
0001
0000
0100
0000
0010
0000
,
1000
0001
0100
0010
1000
0001
0010
0001
1000
0100
0010
0001
0010
0100
1000
0001
,
0100
0000
0000
0010
0000
0000
0100
0000
0000
0001
0000
0000
0010
0000
0000
0001
0000
0000
1000
0000
0000
0100
0000
0000
0010
0000
0000
0001
0000
0000
1000
0000
0000
0010
0000
0000
0100
0000
0001
0000
1000
0000
0100
0000
0010
0000
0001
0000
,
1000
0100
0010
0001
0010
0100
1000
0001
0100
0010
0100
0001
0010
0100
1000
0001
,
0100
0000
0000
0010
0000
0000
0100
0000
0000
0001
0000
0000
0010
0000
0000
0001
0000
0000
1000
0000
0000
0100
0000
0000
0010
0000
0000
0100
0000
0000
1000
0000
0000
0001
0000
0000
0100
0000
0010
0000
1000
0000
0001
0000
0010
0000
0100
0000
,
1000
0001
0100
0010
0100
0001
0010
0001
1000
0010
0100
0001
0010
0001
1000
0100
,
0010
0001
0010
0100
1000
0001
0100
0010
0100
0001
0010
0001
1000
0010
0100
0001
,
0010
0001
1000
0100
0010
0001
0010
0100
1000
0001
0100
0010
0100
0001
0010
0100
,
1000
0000
0000
0001
0000
0000
0100
0000
0000
0010
0000
0000
0100
0000
0000
0001
0000
0000
1000
0000
0000
0100
0000
0000
0010
0000
0000
0001
0000
0000
1000
0000
0000
0010
0000
0000
1000
0000
0100
0000
0010
0000
0001
0000
0010
0000
0100
0000
,
4000
3000
0040
4030
,
3004
0000
0403
0340
,
0031
0010
0100
1000
0001
0010
0100
1000
0001
0010
0100
1000
0001
0010
0100
1000
0001
0010
0100
1000
0001
0010
0100
1000
,
0001
1000
0100
0010
0001
1000
0100
0010
0001
1000
0100
0010
0001
1000
0100
0010
0001
1000
0100
0010
0001
1000
0100
0010
,
0004
0M00
00M0
0M00
,
00M0
M000
0M00
00M0
,
4003
0M00
00M0
0000
,
0M00
00M0
0000
0000
,
3002
0023
0230
2300
3002
0203
0320
2030
3200
0320
0230
2300
3002
0023
0230
2300
,
3002
0203
0320
2030
3200
0320
0230
2300
3002
0203
0320
2030
3100
0010
0001
1000
,
0020
0000
0000
0130
0000
0000
0001
0000
0000
1000
0000
0000
0100
0000
0010
0000
0001
0000
0010
0000
0100
0000
1000
0000
0001
0000
0000
0100
0000
0000
0010
0000
0000
0100
0000
0000
0001
0000
1000
0000
0100
0000
0010
0000
0001
0000
1000
0000
,
0100
0000
0000
0010
0000
0000
0001
0000
0000
0100
0000
0000
0010
0000
1000
0000
0100
0000
0010
0000
0100
0000
1000
0000
0001
0000
0000
0100
0000
0000
0010
0000
0000
1000
0000
0000
0001
0000
0000
0100
0000
0000
0010
0000
0000
0100
0000
0000
,
0001
0100
0010
1000
0001
0010
0100
1000
0001
0010
0001
1000
0100
0010
0001
1000
0010
0100
0001
0010
0001
1000
0100
0010
,
0001
0010
0100
1000
0001
0100
0010
0100
0001
0010
0001
1000
0100
0010
0001
0010
0100
1000
0001
0100
0010
0100
0001
1000
,
0010
0100
0001
1000
0100
0010
0001
0010
0100
1000
0001
0100
0010
0100
0001
0010
0100
1000
0001
0100
0010
0100
0001
1000
,
0100
0000
0000
0000
,
0010
0000
0000
0001
0000
0000
0100
0000
0000
0010
0000
0000
1000
0000
0000
0001
0000
0000
0100
0000
0000
0010
0000
0000
0100
0000
0000
0000
0000
0000
0010
0000
0000
0000
0000
0000
1000
0000
0100
0000
0010
0000
0001
0000
0100
0000
0010
0000
,
1000
0000
0000
0100
0000
0000
0000
0000
0000
0000
0000
0000
0000
0000
0000
0010
0000
0000
0000
0000
0000
0000
0000
0000
0001
0000
0000
0100
0000
0000
0010
0000
0000
1000
0000
0000
0001
0000
0010
0000
0100
0000
1000
0000
0001
0000
0100
0000
,
0010
0000
1000
0000
0100
0000
0010
0000
0001
0000
1000
0000
0010
0000
0000
0100
0000
0000
0001
0000
0000
0010
0000
0000
0100
0000
0000
1000
0000
0000
0001
0000
0000
0100
0000
0000
0010
0000
0000
0100
0000
0000
0001
0000
0000
0010
0000
0000
,
0001
0000
0100
0000
0040
0000
0000
0000
4030
0000
0000
0000
3001
0100
0010
1000
,
0001
0000
0000
0100
0000
0000
0010
0000
0000
1000
0000
0000
0100
0000
0000
0010
0000
0000
0100
0000
0000
1000
0000
0000
0001
0000
0000
0000
0000
0000
0100
0000
0000
0000
0000
0000
0010
0000
1000
0000
0100
0000
1000
0000
0001
0000
0100
0000
,
0010
0100
0000
0010
0100
0001
0100
0010
1000
0100
0010
0001
0100
0000
0000
0000
,
0010
0000
0000
0000
0000
0000
0000
0000
0000
0000
0000
0000
1000
0000
0000
0100
0000
0000
0010
0000
0000
0001
0000
0000
0010
0000
0000
0100
0000
0000
1000
0000
0000
0001
0000
0000
0100
0000
0000
0000
0010
0000
0000
0000
1000
0000
0000
0000
,
0001
0100
0010
1000
0004
0000
0000
0000
0403
0000
0000
0000
0340
0000
0000
0000
,
4030
3400
0000
0300
0020
0034
0000
0000
,
2003
3400
0000
0000
0320
0034
0103
0010
,
2000
3400
0000
0000
0320
0034
0000
0000
,
1003
0400
0000
0000
0320
0031
0100
0010
,
1000
0100
0010
0001
0010
0100
1000
0001
0100
0010
0100
0001
0010
0001
1000
0100
,
0010
0001
0010
0100
1000
0001
0100
0010
0100
0001
0010
0001
1000
0100
1000
0001
,
0010
0100
1000
0001
0100
0010
0100
0001
0010
0001
1000
0100
0010
0100
1000
0001
,
0100
0010
1000
0001
0010
0100
1000
0001
0100
0010
0100
0001
0010
0001
1000
0010
,
0100
0001
1000
0100
0010
0001
0010
0100
1000
0001
0100
0010
0100
0001
0010
0100
,
1000
0000
0000
0001
0000
0000
0100
0000
0000
0010
0000
0000
0100
0000
0000
0001
0000
0000
1000
0000
0000
0100
0000
0000
0010
0000
0001
0000
1000
0000
0100
0000
0010
0000
0001
0000
1000
0000
0100
0000
0010
0000
0001
0000
1000
0000
0100
0000
,
1000
0001
0100
0010
0100
0001
0010
0001
1000
0100
0010
0100
1000
0001
0100
0001
,
0040
0032
4003
3004
,
0103
0010
1000
0001
0010
0100
1000
0001
0100
0010
0100
0001
0010
0001
1000
0100
,
0010
0100
1000
0001
0100
0010
0100
0001
2000
3200
2300
3002
0203
0320
0230
0302
,
0103
0010
1000
0001
0010
0100
1000
0001
0100
0010
0100
0001
0010
0001
1000
0010
,
0100
0010
0100
0010
0100
0010
0001
1000
,
0002
0000
0000
0000
0000
0000
1003
0100
0010
0001
1000
0100
0020
0000
0000
0000
0000
0000
0031
0100
0010
1000
0001
0100
,
0010
1000
0100
0010
0100
1000
0001
0100
0010
0100
0001
0010
0001
1000
0010
0100
,
0001
1000
0100
0010
0100
1000
0001
0100
0010
0100
0001
0010
0001
1000
0100
0010
,
0004
0403
0301
0010
,
0010
0100
0001
1000
0100
0010
0100
1000
0001
0100
0010
0100
0010
0100
0001
0100
,
0010
0100
0001
0010
0100
0010
0001
0100
0010
0000
0000
0000
0000
0000
0000
0000
,
M00M
M00M
0MM0
0MM0
M00M
M00M
0MM0
0MM0
M00M
M00M
0MM0
0MM0
M00M
M00M
0MM0
0MM0
,
M00M
M00M
0MM0
0MM0
M00M
M00M
0MM0
0MM0
M00M
M00M
0MM0
0MM0
M00M
M00M
0MM0
0000
,
0010
0100
0001
0100
0010
1000
0100
0010
0100
1000
0001
0100
0010
0100
0001
0010
,
0100
0010
0001
1000
0010
0100
0001
0010
0100
1000
0001
0010
0001
1000
0100
0010
,
0100
1000
0001
0100
0010
0100
0001
0010
0100
1000
0001
0100
0010
0100
0001
1000
,
0100
0010
0001
0010
0100
1000
0001
0100
0010
0100
0001
0010
0100
1000
0001
0100
,
0010
0100
0001
0010
0001
1000
0100
0010
0001
0010
0100
1000
0001
0100
0010
0100
,
0001
0010
0001
1000
0100
0010
0100
1000
0001
0100
0010
0100
0001
0010
0001
0010
,
0100
1000
0001
0100
0010
0100
0001
0010
0100
1000
0100
0010
0001
1000
0010
1000
,
0001
0100
0010
1000
0100
0010
0001
0010
0100
1000
0001
0100
0010
0100
0001
1000
,
0040
0000
0130
0000
0001
0000
0100
0010
1000
0100
0010
0001
0010
0100
1000
0001
,
0400
0000
0310
0000
0100
0000
1000
0001
0100
0010
1000
0100
0010
0001
1000
0010
,
0400
0000
0301
0000
0100
0000
0010
1000
0100
1000
0001
0010
0100
1000
0001
0100
,
0002
0000
1003
0000
0100
0000
0010
0100
1000
0001
0100
0010
0100
0001
1000
0100
,
0010
0001
0010
0100
1000
0001
0100
0010
0100
0001
0010
0001
1000
0100
0010
0001
,
0010
0100
1000
0001
0100
0010
0100
0001
0010
0001
1000
0100
0010
0100
1000
0001
,
0100
0010
0100
0001
0010
0100
1000
0001
0100
0010
0100
0001
0010
0001
1000
0100
,
0010
0100
1000
0001
0100
0010
0100
0001
0010
0001
1000
0100
0010
0001
0010
0100
,
1000
0000
0000
0010
0000
0000
0100
0000
0000
0001
0010
0100
1000
0001
0010
0100
1000
0001
0010
0100
1000
0001
0010
0100
,
1000
0000
0000
0010
0000
0000
0100
0000
0000
0001
1000
0100
0010
0001
1000
0100
0010
0001
1000
0100
0010
0001
1000
0100
,
0010
0000
0000
0100
0000
0000
1000
0000
0000
0001
0100
0010
1000
0001
0100
0010
1000
0001
0100
0010
1000
0001
0100
0010
,
0100
0000
0000
0010
0000
0000
1000
0000
0000
0001
0010
0100
1000
0001
0010
0100
1000
0001
0010
0100
1000
0001
0010
0100
,
1000
0001
0100
0010
1000
0100
0010
0100
1000
0001
0010
0100
1000
0001
0100
0010
1000
0100
0010
0001
1000
0100
0010
0001
,
0010
0100
1000
0001
0100
0010
0100
0001
0010
0100
1000
0001
0100
0010
0100
0001
0010
0001
1000
0100
0010
0001
0010
0100
,
1000
0001
0100
0010
1000
0001
0010
0100
1000
0001
0100
0010
0100
0001
0010
0001
1000
0100
0010
0001
0010
0100
1000
0001
,
0100
0010
0100
0001
0010
0001
1000
0100
0010
0001
0010
0100
1000
0001
0100
0010
0100
0001
0010
0100
1000
0001
0100
0010
,
4000
0000
0000
0000
0000
0000
0M00
00M0
000M
00M0
0M00
00M0
000M
00M0
0M00
00M0
000M
00M0
0M00
00M0
000M
00M0
0M00
00M0
,
000M
00M0
0M00
00M0
000M
00M0
0M00
00M0
000M
00M0
0M00
00M0
000M
00M0
0M00
00M0
000M
00M0
0M00
00M0
00M0
000M
0000
0000
,
3M40
000M
0M00
000M
0M00
000M
0M00
000M
M000
000M
M000
000M
M000
000M
M000
0M00
M000
000M
M000
000M
M000
0M00
M000
000M
M000
0M00
M000
000M
M000
0M00
M000
000M
,
M000
0M00
M000
000M
M000
0M00
M000
000M
M000
0M00
M000
000M
M000
0M00
M000
000M
M000
0M00
M000
000M
M000
000M
M000
000M
M000
000M
M000
000M
M000
000M
M000
000M
,
M430
0000
0000
0000
000M
0000
M000
0000
000M
0000
M000
0000
000M
0000
M000
0000
000M
0000
M000
0000
000M
0000
M000
0000
00M0
0000
M000
0000
000M
0000
M000
0000
00M0
0000
M000
0000
000M
0000
M000
0000
00M0
0000
M000
0000
000M
0000
M000
0000
00M0
0000
M000
0000
000M
0000
M000
0000
00M0
0000
M000
0000
000M
0000
0000
00M0
0000
0000
M000
0000
0000
000M
0000
0000
M000
0000
0000
00M0
0000
0000
M000
0000
0000
000M
0000
0000
M000
0000
0000
00M0
0000
0000
M000
0000
0000
000M
0000
0000
,
M000
00M0
M000
000M
00M0
000M
00M0
000M
000M
000M
000M
000M
000M
000M
000M
000M
000M
000M
00M0
00M0
00M0
00M0
00M0
00M0
00M0
00M0
00M0
00M0
00M0
0000
0000
0000
,
430M
000M
00M0
00M0
0M00
0M00
00M0
00M0
,
000M
000M
0M00
0M00
00M0
00M0
0M00
0M00
,
3001
0100
0010
1000
0001
0010
0001
1000
0100
0010
0001
0010
0100
1000
0001
0100
,
0010
0100
0001
0010
0001
1000
0100
0010
0100
1000
0001
0100
0010
0100
0001
0010
,
0001
0100
0010
1000
0001
0010
0100
1000
0001
0100
0010
0100
0001
0010
0001
1000
,
0100
0010
0100
1000
0001
0100
0010
0100
0001
0010
0001
1000
0100
0010
0001
0010
,
0100
1000
0001
0100
0010
0100
0001
0010
0100
1000
0001
0100
0010
0100
0001
0010
,
0001
1000
0100
0010
0001
0010
0100
1000
0001
0100
0010
0100
0001
0010
0100
1000
,
0001
0010
0100
1000
0010
0100
0010
0100
0001
0010
0001
1000
0100
0010
0100
1000
,
0001
0010
0001
1000
0100
0010
0001
0010
0001
0000
0000
0000
0000
0000
0000
0000
,
4000
0000
0000
0000
,
0M00
00M0
000M
0M00
00M0
000M
0M00
00M0
000M
00M0
0M00
000M
00M0
0M00
00M0
000M
00M0
0M00
00M0
000M
0M00
00M0
0M00
000M
00M0
000M
0M00
00M0
0M00
000M
00M0
000M
0M00
00M0
0M00
000M
00M0
000M
0M00
00M0
0M00
000M
00M0
000M
0M00
00M0
0M00
000M
00M0
000M
0M00
00M0
0M00
0000
0000
0000
0000
0000
0000
0000
0000
0000
0000
0000
,
3004
0000
0000
0000
,
MMM0
MMM0
MMM0
MMM0
MMM0
MMM0
MMM0
MMM0
MMM0
MMM0
0MM0
0MM0
0MM0
0MM0
0MM0
0MM0
,
4MM3
0MM0
0MM0
0MM0
0MMM
0MMM
0MMM
0MMM
0MMM
0MMM
0MMM
0MMM
0MMM
0MMM
0MMM
0MMM
,
0MMM
0MMM
0MMM
0MMM
0MMM
0MMM
0MMM
0MMM
0MMM
0MMM
0MMM
0MMM
0MMM
0M0M
0M0M
0M0M
,
3M4M
0M0M
0M0M
MM0M
MM0M
MM0M
MM0M
MM0M
MM0M
MM0M
MM0M
0M0M
MM0M
MM0M
MM0M
MM0M
,
0M0M
MM0M
MM0M
M00M
MM0M
MM0M
MM0M
MM0M
MM0M
MM0M
0000
0000
0000
0000
0000
0000
,
1030
0100
0010
0001
0010
0100
1000
0001
0100
0010
0100
0001
0010
0001
1000
0100
,
0010
0000
0000
0100
0000
0000
1000
0000
0000
0001
0000
0000
0100
0000
0000
0010
0000
0000
0100
0000
0000
0001
0000
0000
0010
0000
0000
0001
0000
0000
1000
0000
0000
0100
0000
0000
0010
0000
0001
0000
0100
0000
0010
0000
1000
0000
0001
0000
,
0010
0100
0010
0100
0010
0001
0100
0010
0100
0001
0010
0001
1000
0100
0010
0100
,
1000
0000
0000
0001
0000
0000
0010
0000
0000
0001
0000
0000
0100
0000
0000
0010
0000
0000
0100
0000
0000
0001
0000
0000
0010
0000
0000
0100
0000
0000
1000
0000
0000
0001
0000
0000
0100
0000
0010
0000
1000
0000
0001
0000
0010
0000
0001
0000
,
1000
0010
0100
0001
0010
0001
0100
0010
1000
0001
0010
0100
0010
0100
1000
0001
,
0100
0000
0000
0010
0000
0000
0100
0000
0000
0001
0000
0000
0010
0000
0000
0001
0000
0000
1000
0000
0000
0100
0000
0000
0010
0000
0000
0001
0000
0000
0100
0000
0000
0010
0000
0000
0100
0000
0001
0000
0010
0000
0001
0000
1000
0000
0010
0000
,
0100
0001
0100
0010
0100
0001
0010
0100
1000
0001
0010
0001
1000
0100
0010
0100
,
1000
0000
0000
0001
0000
0000
0010
0000
0000
0100
0000
0000
1000
0000
0000
0001
0000
0000
0010
0000
0000
0001
0000
0000
0100
0000
0000
0010
0000
0000
1000
0000
0000
0001
0000
0000
0010
0000
0100
0000
0001
0000
0010
0000
0001
0000
1000
0000
,
0001
0010
0100
1000
0001
0010
0100
0010
0001
1000
0010
0100
0001
0010
0001
1000
,
0100
0010
0001
0010
0100
1000
0001
0100
0010
0100
0001
0010
0001
1000
0100
1000
,
0001
0010
0100
1000
0001
0100
0010
0100
0001
0010
0001
1000
0100
0010
0001
0010
,
0100
1000
0001
0100
0010
0100
0001
0010
0001
1000
0100
0010
0001
0010
0100
1000
,
0001
0100
0010
0100
0001
0010
0001
1000
0100
0010
0001
0010
0100
1000
0001
0100
,
0010
0100
0001
0010
0001
0010
0100
1000
0010
0100
0001
0010
0001
1000
0100
0010
,
0001
0010
0100
1000
0001
0100
0010
0100
0001
0010
0001
1000
0100
0010
0001
0010
,
0100
1000
0001
0100
0010
0100
0001
0010
0001
1000
0100
0010
0001
0010
0100
1000
,
0001
0010
0100
1000
0001
0100
0010
0100
0001
0010
0001
0010
0100
0010
0100
1000
,
0001
0100
0010
0100
0001
0010
0001
1000
0100
0010
0100
1000
0001
0010
0001
0100
,
0010
1000
0100
0010
0001
1000
0010
1000
0001
0100
0010
0100
0001
0010
0001
1000
,
0100
1000
0001
0100
0010
1000
0001
1000
0100
1000
0010
0100
0001
0010
0001
1000
,
0100
0010
0100
1000
0001
0100
0010
0100
0001
0010
0001
1000
0100
0010
0001
0010
,
0100
1000
0001
0100
0010
0100
0001
0010
0001
1000
0001
0010
0100
1000
0100
1000
,
0001
0100
0010
0100
0001
0010
0001
1000
0100
0010
0001
0010
0100
1000
0001
0100
,
0010
0100
0001
0010
0001
1000
0010
1000
0001
0010
0100
1000
0001
0010
0001
1000
,
0100
0010
0001
1000
0010
0100
0001
0010
0100
1000
0001
0100
0010
0100
0001
0010
,
0001
1000
0100
1000
0001
0010
0100
1000
0001
0100
0010
0100
0001
1000
0010
0100
,
0001
0100
0010
1000
0001
0010
0100
1000
0001
0100
0010
0100
0001
0010
0001
1000
,
0010
1000
0001
0010
0100
1000
0001
0100
0010
0100
0001
0010
0001
1000
0100
0010
,
0100
1000
0001
0100
0010
0100
0001
0100
0010
1000
0001
0010
0100
1000
0001
0100
,
0010
0100
0001
0010
0001
1000
0100
0010
0001
0010
0100
1000
0001
0100
0010
0100
,
0001
0010
0001
1000
0100
0010
0100
1000
0001
0100
0010
1000
0001
0010
0100
1000
,
0001
0100
0010
0100
0001
0100
0010
1000
0010
0100
0001
1000
0001
0000
0000
0000
,
1000
0000
0100
0000
0010
0000
0001
0000
1000
0000
0100
0000
0010
0000
0000
0001
0000
0000
0100
0000
0000
0010
0000
0000
1001
0000
0010
0000
0100
0000
1000
0000
0001
0000
0010
0000
0100
0000
1000
0000
0001
0000
0010
0000
0100
0000
1000
0000
,
0001
0010
0100
1000
0001
0000
0000
0000
1000
0100
0010
0001
1000
0000
0000
0000
0001
0010
0100
1000
0001
0000
0000
0000
1000
0100
0010
0001
1000
0100
0010
0001
,
1000
0000
0100
0000
0010
0000
0001
0000
1000
0000
0010
0000
0100
0000
0000
0001
0000
0000
0100
0000
0000
0010
0000
0000
1000
0000
0000
0010
0000
0000
0100
0000
0000
0001
0000
0000
1000
0000
0000
0001
0000
0000
1000
0000
0000
0010
0000
0000
,
0400
0304
0403
0310
,
0001
0000
0010
0000
0100
0000
1000
0000
0001
0000
0100
0000
0010
0000
0000
1000
0000
0000
0100
0000
0000
0010
0000
0000
0001
0000
1000
0000
0010
0000
0100
0000
0001
0000
1000
0000
0010
0000
0000
0100
0000
0000
0001
0000
0000
1000
0000
0000
,
0001
0010
0100
1000
0001
0000
0000
0000
1000
0100
0010
0001
1000
0000
0000
0000
0001
0010
0100
1000
0001
0000
0000
0000
1000
0010
0100
0001
1000
0010
0100
0001
,
0100
0010
1000
0001
0010
0100
1000
0001
0100
0010
0100
0001
0010
0001
1000
0010
,
0100
0001
0100
0010
1000
0100
0010
0100
,
0040
0000
0031
0100
0010
1000
0001
0100
0040
0000
1030
0100
0010
0100
1000
0001
,
1000
0100
0010
0001
0000
0000
0000
0000
0001
0010
0100
1000
0000
0000
0000
0000
1000
0100
0010
0001
0000
0000
0000
0000
1000
0100
0010
0001
1000
0100
0010
0001
,
1000
0100
0010
0001
0010
0100
1000
0001
0100
0010
0100
0001
0100
0010
1000
0001
,
1000
0010
0100
0001
0000
0000
0000
0000
0001
0100
0010
1000
0000
0000
0000
0000
0001
0100
0010
0100
0000
0000
0000
0000
0001
1000
0100
1000
0001
0100
0010
1000
,
0001
0100
0010
0100
0001
0100
0010
1000
0100
0010
0100
1000
0001
0010
0001
0100
,
0010
0100
0001
0100
0010
1000
0001
0010
0100
1000
0001
0100
0010
0100
0001
1000
,
0001
0000
0000
0000
0000
0000
0000
0000
0M00
00M0
0M00
00M0
0M00
00M0
0M00
00M0
,
0M00
00M0
0M00
00M0
0M00
00M0
0M00
00M0
0M00
00M0
0M00
0000
0000
0000
0000
0000
,
1000
0100
0010
0100
1000
0001
0010
0100
1000
0001
0100
0010
0100
0001
0010
0001
,
1000
0100
0010
0001
0010
0100
1000
0001
0100
0010
0100
0001
0010
0001
1000
0100
,
1000
0010
0100
0001
0010
0001
1000
0100
0010
0001
0010
0100
1000
0001
0100
0010
,
0100
0000
0001
0000
0010
0000
0100
0000
1000
0000
0001
0000
0100
0000
0010
0000
0100
0000
0001
0000
1000
0000
0100
0000
0010
0001
1000
0100
0010
0001
1000
0100
,
0010
0001
0010
0100
1000
0001
0100
0010
0100
0001
0010
0001
1000
0100
0010
0100
,
1000
0000
0001
0000
0100
0000
0010
0000
0100
0000
0001
0000
0010
0000
0001
0000
0010
0000
0100
0000
1000
0000
0001
0000
0100
0010
1000
0001
0100
0010
0100
0001
,
1000
0010
0100
0001
0010
0001
1000
0100
0010
0001
0010
0100
1000
0001
0100
0010
,
0100
0000
0001
0000
0010
0000
0001
0000
1000
0000
0100
0000
0010
0000
0100
0000
1000
0000
0001
0000
0100
0000
0010
0000
1000
0001
0100
0010
0100
0001
1000
0001
,
0010
0100
0010
0001
0100
1000
0001
0100
0010
0100
0001
0010
0001
1000
0100
1000
,
0001
0000
0010
0000
0100
0000
1000
0000
0001
0000
0100
0000
0010
0000
0100
0000
0001
0000
0010
0000
0001
0000
1000
0000
0001
0010
0100
1000
0001
0010
0100
0010
,
0001
0100
0010
0100
0001
0010
0001
1000
0100
0010
0001
0010
0100
1000
0001
0100
,
0010
0100
0001
1000
0100
1000
0010
0100
0001
0010
0001
1000
0001
0100
0010
0100
,
0001
0100
0010
1000
0001
0010
0100
1000
0001
0100
0010
0100
0001
0010
0001
1000
,
0100
0010
0001
0010
0100
1000
0001
0100
0010
0100
0001
0010
0001
1000
0010
0100
,
0001
0010
0001
1000
0100
0010
0001
0010
0100
1000
0001
0100
0010
0100
0001
0010
,
0001
0000
1000
0000
0100
0000
0010
0000
0001
0000
0010
0000
0100
0000
1000
0000
0001
0000
0010
0000
0100
0000
1000
0000
0001
0100
0010
0100
0001
1000
0010
0100
,
0001
0010
0100
1000
0001
0010
0100
1000
0001
0010
0100
1000
0001
0010
0100
1000
0001
0100
0010
1000
0001
0100
0010
1000
0001
0100
0010
1000
0001
0100
0010
1000
,
0001
0000
0400
0340
,
1030
0001
0010
0100
1000
0001
0010
0100
1000
0001
0010
0100
1000
0001
0010
0100
1000
0001
0010
0100
1000
0001
0010
0100
1000
0001
0010
0100
1000
0001
0010
0100
,
1000
0100
0010
0001
1000
0100
0010
0001
1000
0100
0010
0001
1000
0100
0010
0001
1000
0100
0010
0001
1000
0100
0010
0001
1000
0100
0010
0001
1000
0100
0010
0001
,
4000
0000
0000
0000
,
0000
0000
0000
0000
,
3040
0000
0000
0000
0000
0000
0000
0000
0000
0000
0000
0000
0000
0000
0000
0000
0M0M
0M0M
0M0M
0M0M
0M0M
0M0M
0M0M
0M0M
0M0M
0M0M
0000
0000
0000
0000
0000
0000
0000
0000
0000
0000
0000
0000
0000
0000
0000
0000
0000
0000
0000
0000
0000
0000
0000
0000
0000
0000
0000
0000
0000
0000
0000
0000
0000
0000
0000
0000
0000
0000
,
0000
0000
0000
0000
0000
0000
0000
0000
0000
0000
0000
0000
0000
0000
0000
0000
0000
0000
0000
0000
0000
0000
0000
0000
0000
0000
0000
0000
0000
0000
0000
0M0M
0M0M
0M0M
0M0M
0M0M
0M0M
0M0M
0M0M
0M0M
0M0M
0M0M
0M0M
0000
0000
0000
0000
0000
0000
0000
0000
0000
0000
0000
0000
0000
0000
0000
0000
0000
0000
0000
0000
0000
,
0130
0000
0000
0001
0000
0000
0100
0000
0000
0010
0000
0000
1000
0000
0000
0001
0000
0000
0010
0000
0000
0100
0000
0000
1000
0000
0000
0001
0000
0000
0100
0000
0000
0010
0000
0000
1000
0000
0001
0000
1000
0000
0100
0000
0010
0000
0001
0000
,
0100
0010
0100
0001
1000
0100
0010
0001
0010
0100
1000
0001
0100
0010
1000
0001
,
1000
0100
0010
0001
0010
0100
1000
0001
0100
0010
1000
0001
0010
0100
1000
0001
0100
0010
0100
0001
0010
0001
1000
0100
,
0010
0000
0001
0000
0010
0000
0100
0000
1000
0000
0001
0000
0100
0000
0010
0000
0100
0000
0001
0000
1000
0000
0010
0000
0100
0000
0001
0000
0010
0000
0001
0000
1000
0000
0010
0000
0100
0000
0000
0010
0000
0000
1000
0000
0000
0001
0000
0000
,
1000
0100
0010
0001
1000
0100
0010
0001
1000
0100
0010
0001
1000
0010
0100
0001
1000
0010
0100
0001
0100
0010
1000
0001
,
0010
0100
1000
0001
0010
0100
1000
0001
0100
0010
0100
0001
1000
0100
0010
0001
0010
0100
1000
0001
0100
0010
0100
0001
,
1000
0100
0010
0001
0010
0100
1000
0001
0100
0010
0100
0001
0010
0001
1000
0100
0010
0001
0010
0100
1000
0010
0100
0001
,
1000
0000
0000
0000
0000
0000
0000
0000
0000
0000
0000
0000
0MMM
0MMM
0MMM
0MMM
0MMM
0MMM
0MMM
0MMM
0MMM
0MMM
0000
0000
0000
0000
0000
0000
0000
0000
0000
0000
0000
0000
0000
0000
0000
0000
0000
0000
0000
0000
0000
0000
0000
0000
0000
0000
,
1000
0000
0000
0000
0000
0000
0000
0000
0000
0000
0000
0000
0MMM
0MMM
0MMM
0MMM
0MMM
0MMM
0MMM
0MMM
0MMM
0MMM
0000
0000
0MMM
0MMM
0MMM
0MMM
0MMM
0MMM
0MMM
0MMM
0MMM
0MMM
0000
0000
0MMM
0MMM
0MMM
0MMM
0MMM
0MMM
0MMM
0MMM
0MMM
0MMM
0000
0000
,
0MMM
0MMM
0MMM
0MMM
0MMM
0MMM
0MMM
0MMM
0MMM
0MMM
0000
0000
0MMM
0MMM
0MMM
0MMM
0MMM
0MMM
0MMM
0MMM
0MMM
0MMM
0000
0000
0MMM
0MMM
0MMM
0MMM
0MMM
0MMM
0MMM
0MMM
0MMM
0MMM
000M
0000
0MMM
0MMM
0MMM
0MMM
0MMM
0MMM
0MMM
0MMM
0MMM
0MMM
0000
0000
,
0000
M000
0MM0
M00M
,
0M0M
M0M0
M00M
0MM0
,
M00M
0MM0
00MM
M00M
,
M0M0
0MM0
M00M
M0M0
,
0M0M
M0M0
0M0M
M0M0
,
M00M
0000
M00M
MMMM
MMMM
MMMM
MMMM
MMMM
MMMM
MMMM
MMMM
MMMM
MMM0
0000
0000
0000
;
