#TITLE:Isotope;
#SUBTITLE:EXoduz Violation;
#ARTIST:NightHawk22;
#TITLETRANSLIT:;
#SUBTITLETRANSLIT:;
#ARTISTTRANSLIT:;
#CREDIT:;
#BANNER:../Banner.png;
#BACKGROUND:../Background.png;
#LYRICSPATH:;
#CDTITLE:;
#MUSIC:Isotope.ogg;
#OFFSET:1.308;
#SAMPLESTART:30.000;
#SAMPLELENGTH:9.680;
#SELECTABLE:YES;
#DISPLAYBPM:178.000;
#BPMS:0.000=178.000,708.000=89.000,738.500=57.000,739.000=30.000,739.250=15.000;
#STOPS:;
#BGCHANGES:;
// cache tags:
#FIRSTBEAT:4.000;
#LASTBEAT:740.250;
#SONGFILENAME:Songs/EXoduz Violation/Isotope/sm.sm;
#HASMUSIC:1;
#HASBANNER:1;
#MUSICLENGTH:265.600;
// end cache tags

//---------------dance-single - ----------------
#NOTES:
     dance-single:
     :
     Challenge:
     16:
     1.000,1.000,0.218,0.670,1.000,2740.000,58.000,178.000,0.000,0.000:

0000
0000
0000
0000
,
2000
3002
0203
0320
,
2030
0000
3200
0000
0310
0001
0010
0001
,
0020
0230
2300
3020
,
0230
0000
0302
0000
1003
0010
1000
0010
,
2000
3002
0203
0320
,
2030
0000
3200
0000
0310
0001
0100
0010
,
2000
3002
2003
3002
,
0203
0000
0320
0000
0130
0100
0110
0100
,
0220
0330
2020
3030
0220
0330
0202
0303
,
0022
0033
2200
3300
0001
0010
0100
1000
,
2020
3030
0202
0303
2020
3030
0220
0330
,
0220
0330
0202
0303
0100
1000
0001
0010
,
2200
3300
2020
3030
2200
3300
0202
0303
,
0220
0330
2002
3003
1000
0001
0100
0010
,
2020
3030
0220
0330
2020
3030
0202
0303
,
0001
0000
0000
1000
0000
0000
0001
0000
0000
1000
0000
0000
0010
0000
0000
0100
0000
0000
0001
0000
0000
0010
0000
0000
0100
0000
0000
1000
0000
0000
0001
0000
0000
0010
0000
0000
0100
0000
1000
0000
0010
0000
1000
0000
0010
0000
0100
0000
,
0001
1000
0010
0100
0001
1000
0001
1000
0010
0100
0001
0010
0100
1000
0100
0010
,
0001
0100
0001
0010
0100
1000
0100
0010
0001
0100
0001
0100
0010
1000
0001
1000
,
0001
1000
0100
0010
0001
0010
0100
1000
0100
0010
0001
0010
0100
1000
0100
0010
,
0001
1000
0010
1000
0010
0100
0001
1000
0001
1000
0100
0010
0001
0100
0001
0100
,
0010
1000
0001
0100
0010
1000
0100
0010
0100
1000
0001
0010
0100
0010
0001
1000
,
0001
1000
0010
0100
0001
0010
0100
1000
0100
0010
0001
1000
0010
1000
0010
1000
,
0010
0100
0001
0010
0100
1000
0100
0010
0001
0010
0100
1000
0010
0100
0001
1000
,
0001
0000
0000
1000
0000
0000
0100
0000
0000
0010
0000
0000
0001
0000
0000
0010
0000
0000
0100
0000
0000
1000
0000
0000
0001
0000
1000
0000
0001
0000
1000
0000
0001
0000
1000
0000
0001
0000
1000
0000
0001
0000
1000
0000
0001
0000
1000
0000
,
0001
0010
0100
1000
0010
0100
0001
1000
0001
1000
0010
0100
0001
0010
0100
1000
,
0001
0010
0100
1000
0010
0100
0001
1000
0001
1000
0100
0010
0001
0100
0001
0010
,
0100
1000
0001
0010
0100
1000
0010
0100
0001
1000
0001
1000
0100
1000
0001
1000
,
0010
0100
0001
0010
0100
1000
0001
0010
0100
1000
0010
0100
0001
1000
0001
1000
,
0010
0100
0001
0010
0100
1000
0100
0010
0001
0010
0100
1000
0010
0100
0001
1000
,
0100
1000
0010
1000
0001
1000
0100
0010
0001
0100
0001
0010
0001
1000
0001
0100
,
0001
0010
0100
1000
0001
0010
0100
1000
0010
0100
0001
1000
0001
1000
0100
0010
,
0001
0000
0000
1000
0000
0000
0100
0000
0000
0010
0000
0000
0001
0000
0000
1000
0000
0000
0010
0000
0000
0100
0000
0000
0001
0000
1000
0000
0001
0000
1000
0000
0001
0000
1000
0000
0001
0000
1000
0000
0001
0000
1000
0000
0001
0000
1000
0000
,
0001
1000
0010
0100
0001
1000
0001
1000
0100
0010
0001
1000
0010
0100
0001
1000
,
0001
1000
0100
0010
0100
1000
0001
0010
0100
1000
0001
0010
0100
1000
0010
0100
,
0001
1000
0001
1000
0100
0010
0001
0100
0001
0100
0010
1000
0001
0100
0010
1000
,
0001
1000
0001
1000
0001
1000
0001
0000
0000
0100
0001
0100
0001
0100
0001
0100
0000
0000
0010
1000
0010
1000
0010
1000
,
0010
0100
0001
1000
0010
1000
0010
0100
0001
0010
0100
1000
0001
0010
0001
0010
,
0100
1000
0001
1000
0001
1000
0010
0100
0001
1000
0010
0100
0001
0010
0100
1000
,
0100
1000
0001
0010
0100
1000
0001
0000
0000
1000
0010
1000
0010
0100
0001
1000
0000
0000
1000
0001
1000
0001
1000
0001
,
1000
0000
0000
0001
0000
0000
1000
0000
0000
0010
0000
0000
0100
0000
0000
0010
0000
0000
0100
0000
0000
0010
0000
0000
0100
0000
0000
0010
0000
0000
0100
0000
0000
0001
0000
0000
1000
0000
0000
0001
0000
0000
1000
0000
0000
0001
0000
0000
1000
0000
0000
0001
0000
0000
1000
0000
0000
0001
0000
0000
1000
0000
0000
0000
,
0001
1000
0010
0100
0001
1000
0001
1000
0010
0100
0001
0010
0100
1000
0001
0010
,
0100
1000
0001
0010
0100
1000
0010
0100
0001
1000
0001
1000
0100
0010
0001
0100
,
0001
0100
0010
1000
0001
1000
0010
0100
0001
0010
0100
1000
0001
0010
0100
1000
,
0010
0100
0001
1000
0001
1000
0010
0100
0001
0010
0100
1000
0001
0010
0100
1000
,
0010
0100
0001
1000
0001
1000
0100
0010
0001
0100
0010
1000
0001
0100
0001
0100
,
0001
1000
0010
1000
0010
0100
0001
0010
0100
1000
0100
0010
0001
1000
0010
0100
,
0001
1000
0010
0100
0001
1000
0001
1000
0010
0100
0001
0010
0100
1000
0001
0010
,
0100
1000
0100
1000
0100
1000
0100
1000
0100
1000
0100
1000
0100
1000
0100
1000
0100
1000
0100
1000
0100
1000
0100
1000
,
0100
1000
0001
0010
0100
1000
0010
0100
0001
1000
0001
1000
0010
0100
0001
0010
,
0100
1000
0100
1000
0010
0100
0001
1000
0001
1000
0100
1000
0001
1000
0100
1000
,
0001
1000
0010
0100
0001
0010
0001
0100
0001
1000
0001
0100
0001
0010
0100
1000
,
0100
0010
0001
1000
0010
1000
0010
0100
0001
1000
0010
0100
0001
0010
0100
1000
,
0001
0010
0100
1000
0010
0100
0001
1000
0001
1000
0001
1000
0001
1000
0010
0100
,
0001
0010
0100
1000
0001
0010
0100
1000
0010
1000
0010
0100
0001
1000
0001
1000
,
0100
0010
0001
1000
0010
1000
0010
0100
0001
0100
0001
1000
0010
1000
0010
0100
,
0001
0000
0000
0010
0000
0000
0100
0000
0000
1000
0000
0000
0010
0000
0000
0100
0000
0000
0001
0000
0000
1000
0000
0000
0001
0000
1000
0000
0001
0000
1000
0000
0001
0000
1000
0000
0001
0000
1000
0000
0001
0000
1000
0000
0010
0000
0100
0000
,
0001
1000
0010
0100
0001
1000
0001
1000
0100
0010
0001
0100
0001
0100
0001
0010
,
0100
1000
0010
0100
0001
1000
0001
1000
0010
0100
0001
0010
0100
1000
0001
0010
,
0100
1000
0010
0100
0001
1000
0001
1000
0010
0100
0001
0010
0100
1000
0001
0010
,
0100
1000
0010
0100
0001
1000
0001
1000
0010
0100
0001
1000
0001
1000
0010
0100
,
0001
0010
0100
1000
0100
1000
0001
0010
0100
1000
0010
0100
0001
1000
0001
1000
,
0010
0100
0001
0100
0001
1000
0010
0100
0001
0010
0100
1000
0001
0010
0100
1000
,
0010
0100
0001
1000
0001
1000
0010
0100
0001
0100
0001
1000
0010
0100
0001
0010
,
0100
0000
0000
1000
0000
0000
0100
0000
0000
0010
0000
0000
0001
0000
0000
0010
0000
0000
0100
0000
0000
1000
0000
0000
0100
0000
0010
0000
0001
0000
0010
0000
0001
0000
1000
0000
0010
0000
1000
0000
0010
0000
1000
0000
0010
0000
0100
0000
,
0001
0100
0001
1000
0010
0100
0001
1000
0001
1000
0100
0010
0001
0010
0100
1000
,
0010
0100
0001
1000
0001
1000
0010
0100
0001
0010
0100
1000
0100
0010
0001
1000
,
0010
1000
0010
0100
0001
1000
0001
1000
0100
0010
0001
0100
0001
0010
0100
1000
,
0100
1000
0010
0100
0001
1000
0001
1000
0010
0100
0001
0010
0100
1000
0010
0100
,
0001
1000
0010
0100
0001
0010
0100
1000
0001
0010
0100
1000
0010
0100
0010
0100
,
0001
1000
0001
1000
0010
0100
0001
0010
0100
1000
0010
0100
0001
1000
0001
1000
,
0100
0010
0001
1000
0100
0010
0001
1000
0010
0100
0001
1000
0001
1000
0100
0010
,
0001
0000
0000
1000
0000
0000
0010
0000
0000
0100
0000
0000
0001
0000
0000
0010
0000
0000
0100
0000
0000
1000
0000
0000
0001
0000
0010
0000
0100
0000
1000
0000
0100
0000
1000
0000
0001
0000
0010
0000
0100
0000
1000
0000
0100
0000
1000
0000
,
0100
1000
0010
0100
0001
1000
0001
1000
0010
0100
0001
0010
0100
1000
0001
0010
,
0100
1000
0010
0100
0001
1000
0001
1000
0010
0100
0001
0010
0100
1000
0001
0010
,
0100
1000
0010
0100
0001
1000
0001
1000
0010
0100
0001
0010
0100
1000
0100
0010
,
0001
1000
0010
1000
0010
0100
0001
1000
0001
1000
0100
0010
0001
1000
0001
1000
,
0010
0100
0001
0010
0100
1000
0001
0010
0100
1000
0010
0100
0001
1000
0001
1000
,
0010
0100
0001
0010
0100
1000
0001
0010
0100
1000
0010
0100
0001
1000
0001
1000
,
0100
0010
0001
1000
0010
0100
0001
0010
0100
1000
0100
1000
0001
0010
0100
1000
,
0010
0000
0000
0000
0000
0000
0000
0000
0000
0000
0000
0000
0100
0000
0000
0000
0000
0000
0000
0000
0000
0000
0000
0000
0001
0000
0000
0000
0000
0000
0000
0000
0000
0000
0000
0000
1000
0000
0000
0000
0000
0000
0000
0000
0000
0000
0000
0000
0001
0000
0000
0000
0000
0000
0000
0000
0000
0000
0000
0000
1000
0000
0000
0000
0000
0000
0000
0000
0000
0000
0000
0000
0010
0000
0000
0000
0000
0000
0000
0000
0000
0000
0000
0000
0100
0000
0000
0000
0000
0000
0000
0000
0000
0000
0000
0000
0001
0000
0000
0000
0000
0000
0000
0000
1000
0000
0000
0000
0000
0000
0000
0000
0001
0000
0000
0000
0000
0000
0000
0000
1000
0000
0000
0000
0000
0000
0000
0000
0010
0000
0000
0000
0000
0000
0000
0000
1000
0000
0000
0000
0000
0000
0000
0000
0010
0000
0000
0000
0000
0000
0000
0000
0100
0000
0000
0000
0000
0000
0000
0000
0001
0000
0000
0000
0000
0000
0000
0000
1000
0000
0000
0000
0000
0000
0001
0000
0000
0000
0000
0000
1000
0000
0000
0000
0000
0000
0001
0000
0000
0000
0000
0000
,
1000
0010
0100
0010
0100
0001
1000
0001
1000
0010
0100
0001
0010
0100
1000
0001
,
0010
0100
1000
0010
1000
0010
0100
0001
1000
0001
1000
0100
0010
0001
1000
0010
,
0100
0001
1000
0010
0100
0001
0010
0100
1000
0001
0010
0100
1000
0100
0010
0001
,
0010
0100
1000
0010
1000
0010
0100
0001
1000
0001
1000
0100
1000
0100
0010
0100
,
0010
0001
0010
0001
1000
0010
1000
0010
0100
0010
0100
0001
0100
0001
1000
0001
,
1000
0001
1000
0100
1000
0100
0010
0100
0010
0001
0010
0001
1000
0010
1000
0010
,
1000
0001
1000
0001
1000
0100
0010
0001
0010
0100
1000
0100
0010
0001
1000
0010
,
0100
0000
0000
0001
0000
0000
1000
0000
0000
0010
0000
0000
0100
0000
0000
0001
0000
0000
1000
0000
0000
0010
0000
0000
0100
0000
0000
0001
0000
0000
0010
0000
0100
0000
1000
0000
0100
0000
1000
0000
0001
0000
0010
0000
0100
0000
1000
0000
,
0100
0000
0000
1000
0000
0000
0010
0000
0000
0100
0000
0000
0001
0000
0000
0010
0000
0000
0100
0000
0000
1000
0000
0000
0010
0000
0000
0100
0000
0000
0001
0000
0000
1000
0000
0000
0001
0000
0000
1000
0000
0000
0001
0000
0000
1000
0000
0000
0010
0000
0000
0100
0000
0000
0010
0000
0000
0100
0000
0000
0001
0000
0000
0100
,
0000
0000
0001
0000
0000
0100
0000
0000
0001
0000
0000
1000
0000
0000
0010
0000
0000
1000
0000
0000
0010
0000
0000
0100
0000
0000
0010
0000
0000
0100
0000
0000
0001
0000
0000
1000
0000
0000
0010
0000
0000
0100
0000
0000
0001
0000
0000
0010
0000
0000
0100
0000
0000
1000
0000
0000
0001
0000
0000
0010
0000
0000
0100
0000
,
0000
1000
0000
0000
0010
0000
0000
0100
0000
0000
0010
0000
0000
0100
0000
0000
0010
0000
0000
0100
0000
0000
0001
0000
0000
1000
0000
0000
0001
0000
0000
1000
0000
0000
0010
0000
0000
0100
0000
0000
0010
0000
0000
0100
0000
0000
0001
0000
0000
0010
0000
0000
0100
0000
0000
1000
0000
0000
0001
0000
0000
0010
0000
0000
,
0100
0000
0000
1000
0000
0000
0010
0000
0000
0100
0000
0000
0010
0000
0000
0100
0000
0000
0001
0000
0000
1000
0000
0000
0001
0000
0000
1000
0000
0000
0010
0000
0000
0100
0000
0000
0001
0000
0000
0010
0000
0000
0100
0000
0000
1000
0000
0000
0001
0000
0000
0010
0000
0000
0100
0000
0000
1000
0000
0000
0010
0000
0000
0100
,
0000
0000
0001
0000
0000
1000
0000
0000
0010
0000
0000
0100
0000
0000
0001
0000
0000
1000
0000
0000
0001
0000
0000
1000
0000
0000
0010
0000
0000
0100
0000
0000
0001
0000
0000
0010
0000
0000
0100
0000
0000
1000
0000
0000
0001
0000
0000
0010
0000
0000
0100
0000
0000
1000
0000
0000
0010
0000
0000
0100
0000
0000
0001
0000
,
0000
1000
0000
0000
0001
0000
0000
1000
0000
0000
0010
0000
0000
0100
0000
0000
0001
0000
0000
0010
0000
0000
0100
0000
0000
1000
0000
0000
0010
0000
0000
0100
0000
0000
0001
0000
0000
1000
0000
0000
0001
0000
0000
1000
0000
0000
0010
0000
0000
0100
0000
0000
0010
0000
0000
0100
0000
0000
0001
0000
0000
0010
0000
0000
,
0100
0000
0000
1000
0000
0000
0010
0000
0000
0100
0000
0000
0001
0000
0000
1000
0000
0000
0001
0000
0000
1000
0000
0000
0100
0000
0000
0010
0000
0000
0001
0000
0000
1000
0000
0000
0010
0000
0000
0100
0000
0000
0001
0000
0000
0010
0000
0000
0100
0000
0000
1000
0000
0000
0001
0000
0000
0010
0000
0000
0100
0000
0000
1000
,
0000
0000
0000
0000
0000
0000
0010
0000
0000
0000
0000
0000
0000
0000
0000
0000
0100
0000
0000
0000
0000
0000
0000
0000
0010
0000
0000
0000
0000
0000
0000
0000
0100
0000
0000
0000
0000
0000
0000
0000
0010
0000
0000
0000
0000
0000
0000
0000
0100
0000
0000
0000
0000
0000
0000
0000
0010
0000
0000
0000
0000
0000
0000
0000
0100
0000
0000
0000
0000
0000
0000
0000
0010
0000
0000
0000
0000
0000
0000
0000
0100
0000
0000
0000
0000
0000
0000
0000
0010
0000
0000
0000
0000
0000
0000
0000
0100
0000
0000
0000
0000
0000
0000
0000
0010
0000
0000
0000
0000
0000
0000
0000
0100
0000
0000
0000
0000
0000
0000
0000
0010
0000
0000
0000
0000
0000
0000
0000
0100
0000
0000
0000
0000
0000
0000
0000
0010
0000
0000
0000
0000
0000
0000
0000
0100
0000
0000
0000
0000
0000
0000
0000
0010
0000
0000
0000
0000
0000
0000
0000
0100
0000
0000
0000
0000
0000
0000
0000
0010
0000
0000
0000
0000
0000
0000
0000
0100
0000
0000
0000
0000
0000
0000
0000
0010
0000
0000
0000
0000
0000
0000
0000
,
0100
0001
1000
0010
0100
0001
0010
0100
1000
0001
0010
0100
1000
0010
0100
0001
,
1000
0001
1000
0010
0100
0001
0010
0001
0010
0100
1000
0010
0100
0001
1000
0001
,
1000
0010
0100
0001
0010
0100
1000
0001
0010
0100
1000
0010
0100
0001
1000
0001
,
1000
0010
0100
0001
0010
0100
1000
0001
0010
0100
1000
0010
0100
0001
1000
0001
,
1000
0100
0010
0001
0100
0001
0100
0010
1000
0010
1000
0100
0010
0001
1000
0010
,
0100
0001
0010
0100
1000
0001
0010
0100
1000
0100
0010
0001
1000
0010
0100
0001
,
1000
0001
1000
0010
0100
0001
0010
0100
1000
0100
1000
0010
0100
0001
1000
0001
,
1000
0100
0010
0001
1000
0010
0100
0001
0010
0001
0010
0100
1000
0010
0100
0001
,
1000
0001
1000
0010
0100
0001
0010
0100
1000
0001
0010
0100
1000
0010
0100
0001
,
0100
0001
1000
0010
1000
0010
0100
0001
0010
0100
1000
0001
0010
0100
1000
0010
,
0100
0001
1000
0001
1000
0010
0100
0001
0010
0100
1000
0001
0010
0100
1000
0010
,
0100
0010
0100
0001
0100
0001
1000
0010
1000
0010
0100
0001
0010
0100
1000
0001
,
0010
0100
1000
0010
0100
0001
1000
0001
1000
0010
0100
0001
0010
0100
1000
0001
,
0010
0100
1000
0010
0100
0001
1000
0001
1000
0010
0100
0001
0010
0100
1000
0001
,
0010
0100
1000
0010
0100
0001
1000
0001
1000
0010
0100
0001
0100
0001
1000
0010
,
0100
0000
0000
0001
0000
0000
1000
0000
0000
0001
0000
0000
1000
0000
0000
0010
0000
0000
0100
0000
0000
0001
0000
0000
0010
0000
0100
0000
1000
0000
0100
0000
1000
0000
0001
0000
0010
0000
0100
0000
1000
0000
0010
0000
1000
0000
0010
0000
,
1000
0001
1000
0001
1000
0010
0100
0001
0010
0100
1000
0001
0010
0100
1000
0010
,
1000
0010
0100
0001
1000
0001
1000
0010
0100
0001
0010
0100
1000
0001
0010
0100
,
1000
0010
0100
0001
1000
0001
1000
0010
0100
0001
0010
0100
1000
0001
0010
0100
,
1000
0010
0100
0001
1000
0001
1000
0010
0100
0001
0010
0100
1000
0001
0010
0100
,
1000
0010
0100
0001
1000
0001
1000
0010
0100
0001
0010
0100
1000
0001
0010
0100
,
1000
0010
0100
0001
1000
0001
1000
0010
0100
0001
0010
0100
1000
0001
0010
0100
,
1000
0100
0010
0001
1000
0010
0100
0001
0010
0100
1000
0010
0100
0001
1000
0001
,
1000
0001
1000
0010
0100
0001
0010
0100
1000
0001
0010
0100
1000
0010
0100
0001
,
1000
0001
1000
0010
0100
0001
0010
0100
1000
0010
1000
0010
0100
0001
1000
0001
,
1000
0100
0010
0001
0100
0001
0100
0001
0010
0100
1000
0100
0010
0001
0010
0100
,
1000
0010
0100
0001
1000
0001
1000
0100
0010
0001
1000
0001
1000
0010
0100
0001
,
0010
0100
1000
0001
0010
0100
1000
0010
1000
0010
0100
0001
1000
0001
1000
0100
,
0010
0001
0010
0100
1000
0010
0100
0001
1000
0001
1000
0010
0100
0001
0010
0100
,
1000
0100
0010
0001
1000
0010
1000
0010
0100
0001
1000
0001
1000
0100
0010
0001
,
0100
0010
1000
0001
1000
0100
0010
0001
1000
0010
0100
0001
1000
0001
1000
0010
,
0100
0001
0010
0001
0010
0001
0010
0001
0010
0001
0010
0001
0010
0100
0010
0100
0010
0100
0010
0100
0010
0100
0010
0100
,
0020
0230
2300
3020
,
0230
0000
0302
0000
1003
0010
1000
0010
,
2000
3002
2003
3020
,
0230
0000
0302
0000
0013
0100
1000
0010
,
0200
0302
0023
0230
,
2300
0000
3020
0000
0130
0001
0100
0001
,
0200
0302
0023
0230
,
2300
0000
3020
0000
0130
0001
0100
0010
,
0220
0330
2020
3030
0202
0303
0022
0033
,
0220
0330
2200
3300
0110
0110
0110
0110
,
0220
0330
0022
0033
0202
0303
2020
3030
,
0220
0330
2002
3003
0101
0101
0101
0101
,
0202
0303
2020
3030
0220
0330
0022
0033
,
0220
0330
2200
3300
0110
0110
0110
0110
,
0220
0330
0202
0303
2020
3030
2200
3300
,
1000
0000
0000
0100
0000
0000
0010
0000
0000
0001
0000
0000
0010
0000
0000
0001
0000
0000
1000
0000
0000
0010
0000
0000
0100
0000
0001
0000
0100
0000
0001
0000
0100
0000
0001
0000
0100
0000
0001
0000
0100
0000
0001
0000
0100
0000
0001
0000
,
0100
0010
1000
0100
0010
0001
1000
0100
0010
0001
1000
0010
1000
0010
0100
0001
,
0010
0100
1000
0100
0010
0001
1000
0010
1000
0010
0100
0001
0100
0001
1000
0010
,
0100
0001
0010
0100
1000
0100
0010
0001
1000
0010
1000
0010
0100
0001
1000
0001
,
1000
0001
1000
0010
0100
0001
0010
0100
1000
0100
0010
0001
1000
0010
1000
0010
,
0100
0001
1000
0001
1000
0100
0010
0001
1000
0010
1000
0010
0100
0001
0010
0100
,
1000
0100
0010
0001
1000
0010
1000
0010
0100
0001
1000
0001
1000
0100
0010
0001
,
1000
0010
1000
0010
0100
0001
0010
0100
1000
0001
0010
0100
1000
0010
0100
0001
,
1000
0000
0000
0001
0000
0000
1000
0000
0000
0100
0000
0000
0010
0000
0000
1001
0000
0000
0010
0000
0000
0100
0000
0000
0001
0000
1000
0000
0010
0000
1000
0000
0010
0000
1000
0000
0010
0000
1000
0000
0010
0000
1000
0000
0010
0000
1000
0000
,
0010
0100
0001
0010
0100
1000
0001
0010
0100
1000
0010
1000
0010
0100
0001
1000
,
0100
0010
0001
0010
0001
1000
0010
0100
0001
1000
0100
0010
0001
1000
0100
0010
,
0100
1000
0001
0010
0100
0010
0100
1000
0100
1000
1000
0010
0100
0001
0010
0100
,
0010
0001
1000
0100
0010
0100
1000
0010
0100
0001
1000
0001
1000
0100
0010
0001
,
1000
0010
0100
0001
0010
0100
1000
0100
0010
0001
1000
0010
1000
0010
0100
0001
,
1000
0100
0010
0001
1000
0010
1000
0010
0100
0001
0010
0100
1000
0001
0010
0100
,
1000
0010
0100
0001
1000
0001
1000
0010
0100
0001
0010
0100
1000
0001
0010
0100
,
1000
0000
0000
0000
0000
0000
0000
0000
0000
0001
0000
0000
0000
0000
0000
0000
0000
0000
1000
0000
0000
0000
0000
0000
0000
0000
0000
0010
0000
0000
0000
0000
0000
0000
0000
0000
0100
0000
0000
0000
0000
0000
0000
0000
0000
0010
0000
0000
0000
0000
0000
0000
0000
0000
0100
0000
0000
0000
0000
0000
0000
0000
0000
0001
0000
0000
0000
0000
0000
0000
0000
0000
1000
0000
0000
0000
0000
0000
0000
0000
0000
0010
0000
0000
0000
0000
0000
0000
0000
0000
0100
0000
0000
0000
0000
0000
0000
0000
0000
0001
0000
0000
0000
0000
0000
0000
0000
0000
0010
0000
0000
0000
0000
0000
0000
0000
0000
0100
0000
0000
0000
0000
0000
0000
0000
0000
1000
0000
0000
0000
0000
0000
0000
0000
0000
0010
0000
0000
0000
0000
0000
0000
0000
0000
0100
0000
0000
0000
0000
0000
0000
0000
0001
0000
0000
0000
0000
0000
0000
0000
0100
0000
0000
0000
0000
0000
0000
0000
0001
0000
0000
0000
0000
0000
0000
0000
0100
0000
0000
0000
0000
0000
0000
0000
0001
0000
0000
0000
0000
0000
0000
0000
,
0100
0010
1000
0100
0010
0001
0010
0001
1000
0010
0100
0001
1000
0001
1000
0100
,
0010
0001
1000
0010
1000
0010
0100
0001
0010
0100
1000
0001
0010
0100
1000
0010
,
1000
0010
0100
0001
1000
0001
1000
0010
0100
0001
0010
0100
1000
0001
0010
0100
,
1000
0010
0100
0001
1000
0001
1000
0010
0100
0001
1000
0010
0100
0001
0010
0100
,
1000
0100
0010
0001
1000
0010
1000
0010
0100
0001
0010
0100
1000
0001
0010
0100
,
1000
0010
0100
0001
1000
0001
1000
0010
0100
0001
0010
0100
1000
0001
0010
0100
,
1000
0010
0100
0001
1000
0010
1000
0010
0100
0001
1000
0010
0100
0001
0010
0100
,
1000
0000
0000
0001
0000
0000
0010
0000
0000
0100
0000
0000
1000
0000
0000
0010
0000
0000
0100
0000
0000
0001
0000
0000
1000
0000
0001
0000
1000
0000
0001
0000
1000
0000
0001
0000
1000
0000
0001
0000
1000
0000
0001
0000
1000
0000
0001
0000
,
1000
0000
0000
0001
0000
0000
1000
0000
0000
0010
0000
0000
1000
0000
0000
0001
0000
0000
0100
0000
0000
0010
0000
0000
0100
0000
0000
0010
0000
0000
0100
0000
0000
0001
0000
0000
0100
0000
0000
0001
0000
0000
1000
0000
0000
0001
0000
0000
1000
0000
0000
0001
0000
0000
1000
0000
0000
0010
0000
0000
1000
0000
0000
0010
,
0000
0000
1000
0000
0000
0100
0000
0000
0010
0000
0000
0001
0000
0000
1000
0000
0000
0010
0000
0000
0100
0000
0000
0001
0000
0000
0010
0000
0000
0100
0000
0000
1000
0000
0000
0010
0000
0000
0100
0000
0000
0001
0000
0000
1000
0000
0000
0001
0000
0000
1000
0000
0000
0001
0000
0000
1000
0000
0000
0010
0000
0000
1000
0000
,
0000
0010
0000
0000
0100
0000
0000
0001
0000
0000
1000
0000
0000
0100
0000
0000
0010
0000
0000
0001
0000
0000
1000
0000
0000
0010
0000
0000
0100
0000
0000
0001
0000
0000
0010
0000
0000
0100
0000
0000
1000
0000
0000
0010
0000
0000
1000
0000
0000
0001
0000
0000
1000
0000
0000
0001
0000
0000
1000
0000
0000
0001
0000
0000
,
1000
0000
0000
0001
0000
0000
0100
0000
0000
0010
0000
0000
1000
0000
0000
0010
0000
0000
0100
0000
0000
0001
0000
0000
0100
0000
0000
0010
0000
0000
1000
0000
0000
0010
0000
0000
0100
0000
0000
0001
0000
0000
0010
0000
0000
0100
0000
0000
1000
0000
0000
0100
0000
0000
0010
0000
0000
0001
0000
0000
0010
0000
0000
0100
,
0000
0000
1000
0000
0000
0010
0000
0000
1000
0000
0000
0010
0000
0000
0100
0000
0000
0001
0000
0000
0100
0000
0000
0001
0000
0000
0010
0000
0000
0100
0000
0000
1000
0000
0000
0010
0000
0000
0100
0000
0000
0001
0000
0000
1000
0000
0000
0001
0000
0000
1000
0000
0000
0001
0000
0000
1000
0000
0000
0010
0000
0000
0100
0000
,
0000
0001
0000
0000
0010
0000
0000
0100
0000
0000
1000
0000
0000
0010
0000
0000
0100
0000
0000
0001
0000
0000
1000
0000
0000
0010
0000
0000
0100
0000
0000
0001
0000
0000
0010
0000
0000
0100
0000
0000
1000
0000
0000
0001
0000
0000
1000
0000
0000
0010
0000
0000
1000
0000
0000
0010
0000
0000
1000
0000
0000
0010
0000
0000
,
1000
0000
0000
0100
0000
0000
0010
0000
0000
0001
0000
0000
0100
0000
0000
0010
0000
0000
0100
0000
0000
0010
0000
0000
0100
0000
0000
0010
0000
0000
1000
0000
0000
0100
0000
0000
0010
0000
0000
0001
0000
0000
0010
0000
0000
0100
0000
0000
1000
0000
0000
0001
0000
0000
1000
0000
0000
0001
0000
0000
1000
0000
0000
0001
,
0000
0000
0000
0000
0000
0000
1000
0000
0000
0000
0000
0000
0000
0000
0000
0010
0000
0000
0000
0000
0000
0000
0000
0000
1000
0000
0000
0000
0000
0000
0000
0000
0000
0010
0000
0000
0000
0000
0000
0000
0000
0000
0100
0000
0000
0000
0000
0000
0000
0000
0000
0010
0000
0000
0000
0000
0000
0000
0000
0000
0100
0000
0000
0000
0000
0000
0000
0000
0000
0001
0000
0000
0000
0000
0000
0000
0000
0000
0100
0000
0000
0000
0000
0000
0000
0000
0000
0001
0000
0000
0000
0000
0000
0000
0000
0000
0100
0000
0000
0000
0000
0000
0000
0000
0001
0000
0000
0000
0000
0000
0000
0000
1000
0000
0000
0000
0000
0000
0000
0000
0001
0000
0000
0000
0000
0000
0000
0000
1000
0000
0000
0000
0000
0000
0000
0000
0001
0000
0000
0000
0000
0000
0000
0000
1000
0000
0000
0000
0000
0000
0000
0000
0001
0000
0000
0000
0000
0000
0000
0000
1000
0000
0000
0000
0000
0000
0000
0000
0001
0000
0000
0000
0000
0000
0000
0000
1000
0000
0000
0000
0000
0000
0000
0000
0001
0000
0000
0000
0000
0000
0000
0000
,
2000
0000
3200
0000
0320
0000
0031
0100
0020
0000
1030
0100
0020
0000
0032
0000
,
2003
0000
3010
0100
0002
0000
0013
0100
2000
0000
3010
0100
0002
0000
2003
0000
,
3200
0000
0310
0001
0020
0000
0130
1000
0200
0000
1300
0010
2000
0000
3002
0000
,
0203
0000
0310
1000
0002
0000
0013
0100
2000
0000
3001
0100
0020
0000
2030
0000
,
3200
0000
0310
0001
2000
0000
3010
0100
0002
0000
0013
0100
2000
0000
3002
0000
,
0203
0000
0310
1000
0020
0000
0130
0001
0200
0000
0310
1000
0020
0000
2030
0000
,
3200
0000
0310
0001
0200
0000
0301
1000
0020
0000
0230
0000
0302
0000
0023
0000
,
0230
0000
0000
0000
1300
0000
0010
0000
0200
0000
0000
0000
0301
0000
1000
0000
0200
0000
0000
0000
2300
0000
0000
0000
3010
0000
0100
0020
0000
0000
0000
0000
,
0000
0030
0000
0000
0000
0000
0000
0000
0000
0000
0000
0000
0000
0000
0000
0000
;
