#TITLE:Sunset Hill Zone Act 3;
#SUBTITLE:Sonic 1 Megamix v3.0;
#ARTIST:Tweaker & Team Megamix;
#TITLETRANSLIT:;
#SUBTITLETRANSLIT:;
#ARTISTTRANSLIT:;
#CREDIT:owenviau1;
#BANNER:../Banner.png;
#BACKGROUND:BG.PNG;
#LYRICSPATH:;
#CDTITLE:../CDTitleOV1.png;
#MUSIC:Sunset Hill Zone Act 3.mp3;
#OFFSET:-0.939;
#SAMPLESTART:66.272;
#SAMPLELENGTH:29.999;
#SELECTABLE:YES;
#BPMS:0.000=180.000;
#STOPS:;
#BGCHANGES:;
// cache tags:
#FIRSTBEAT:0.000;
#LASTBEAT:370.000;
#SONGFILENAME:Songs/owenviau1 (2016) (Pad & Index)/Sunset Hill Zone Act 3 - [owenviau1] v1.0.2/Sunset Hill Zone Act 3.sm;
#HASMUSIC:1;
#HASBANNER:1;
#MUSICLENGTH:124.565;
// end cache tags

//---------------dance-single - 1.02 (1) (owenviau1)----------------
#NOTES:
     dance-single:
     1.02 (1) (owenviau1):
     Beginner:
     1:
     0.149,0.148,0.112,0.000,0.000,116.000,14.000,0.000,0.000,0.000:
0000
0000
0000
0000
,
1000
0000
0000
0010
,
0000
0000
0100
0000
,
0000
0001
0000
0000
,
1000
0000
0000
0000
,
1001
0000
0000
0001
,
0000
0000
0000
0100
,
0000
0000
0000
0000
,
0010
0000
0000
0000
,
1001
0000
1000
0000
,
0000
0010
0000
0000
,
0100
0000
0000
0001
,
0000
0000
1000
0000
,
0000
0000
0100
0000
,
0000
0010
0000
0000
,
0001
0000
0000
0000
,
1000
0000
0000
0000
,
0001
0000
0100
0000
,
0000
0010
0000
0000
,
1000
0000
0000
0100
,
0000
0000
0000
1000
,
0000
0010
0000
0000
,
0100
0000
0000
0001
,
0000
0000
1000
0000
,
0000
0100
0000
0000
,
0110
0000
0000
0001
,
0000
0000
1000
0000
,
0010
0000
0000
0100
,
0000
0000
0001
0000
,
1000
0000
0000
0100
,
0000
0000
0010
0000
,
0001
0000
0000
1000
,
0000
0000
0010
0000
,
1001
0000
0000
0001
,
0000
0000
0100
0000
,
0000
0001
0000
0000
,
1000
0000
0000
0000
,
1001
0000
0000
0001
,
0000
0000
0000
0100
,
0000
0000
0000
0000
,
0010
0000
0000
0000
,
0110
0000
0000
0010
,
0000
0000
0100
0000
,
0000
0001
0000
0000
,
1000
0000
0000
0000
,
1001
0000
0000
0001
,
0000
0000
0000
0100
,
0000
0000
0000
0000
,
0010
0000
0000
0000
,
1001
0000
1000
0000
,
0000
0010
0000
0000
,
0100
0000
0000
0001
,
0000
0000
1000
0000
,
0000
0000
0100
0000
,
0000
0010
0000
0000
,
0001
0000
0000
0000
,
1000
0000
0000
0000
,
0001
0000
0100
0000
,
0000
0010
0000
0000
,
1000
0000
0000
0100
,
0000
0000
0000
1000
,
0000
0010
0000
0000
,
0100
0000
0000
0001
,
0000
0000
1000
0000
,
0000
0100
0000
0000
,
0110
0000
0000
0001
,
0000
0000
1000
0000
,
0010
0000
0000
0100
,
0000
0000
0001
0000
,
1000
0000
0000
0100
,
0000
0000
0010
0000
,
0001
0000
0000
1000
,
0000
0000
0010
0000
,
1001
0000
0000
0001
,
0000
0000
0100
0000
,
0000
0001
0000
0000
,
1000
0000
0000
0000
,
1001
0000
0000
0001
,
0000
0000
0000
0100
,
0000
0000
0000
0000
,
0010
0000
0000
0000
,
0110
0000
0000
0001
,
0000
0000
0100
0000
,
0000
0001
0000
0000
,
1000
0000
0000
0000
,
1001
0000
0000
0001
,
0000
0000
0000
0100
,
0000
0000
0000
0000
,
0010
0000
0000
0000
,
1001
0000
1000
0000
,
0000
0010
0000
0000
,
0100
0000
0000
0000
,
0001
0000
0000
0000
;

//---------------dance-single - 5.21 (5) (owenviau1)----------------
#NOTES:
     dance-single:
     5.21 (5) (owenviau1):
     Easy:
     5:
     0.421,0.445,0.000,0.233,0.000,338.000,0.000,29.000,0.000,0.000:
0000
0000
0000
0000
,
1000
0000
0000
0010
0000
0000
1000
0000
,
0000
0001
0000
0000
1000
0000
0010
0000
,
0100
0000
0000
0001
0000
0000
1000
0000
,
0100
0010
0001
1000
,
0010
0000
0000
0100
0000
0000
0001
0000
,
1000
0000
0000
0010
0000
0000
0100
0000
,
0001
0000
0000
1000
0000
0000
0100
0000
,
0010
0001
1000
0010
,
2000
0000
3002
0000
0103
0010
0000
1000
,
0010
0000
0100
0001
0000
2000
0000
0000
,
0000
0000
0000
3100
0010
0001
0000
1000
,
0010
0000
0100
0010
0000
2000
0000
0000
,
3100
0000
0010
0000
0001
0100
0000
0010
,
0100
0000
0001
1000
0000
0200
0000
0000
,
0000
0000
0000
0310
0001
0010
0000
0100
,
1000
0000
0010
1000
0000
0002
0000
0000
,
1003
0000
0100
0000
0010
0001
0000
1000
,
0001
0000
0100
0001
0000
0020
0000
0000
,
0000
0000
0000
0031
1000
0001
0000
0100
,
0010
0000
0100
0001
0000
2000
0000
0000
,
3100
0000
0010
0000
0001
0100
0000
0010
,
0100
0000
0010
1000
0000
0002
0000
0000
,
0000
0000
0000
1003
0100
1000
0000
0010
,
0100
0000
0000
0000
0010
0000
1000
0000
0000
0000
0002
0000
0000
0000
0000
0003
,
1000
0000
0000
0010
0000
0000
0100
0000
,
0000
0001
0000
0000
1000
0100
1000
0100
,
1000
0000
0000
0010
0000
0000
0100
0000
,
0000
0001
0000
0000
1000
0000
0020
0000
,
0130
0000
0000
0001
0000
0000
1000
0000
,
0000
0100
0000
0000
0010
0001
0010
0001
,
0020
0000
0000
0000
0230
0000
0000
1300
,
0000
0001
0100
0001
,
1000
0000
0000
0010
0000
0000
1000
0000
,
0000
0001
0000
0000
1000
0000
0010
0000
,
0100
0000
0000
0001
0000
0000
1000
0000
,
0100
0010
0001
1000
,
0010
0000
0000
0100
0000
0000
0001
0000
,
1000
0000
0000
0010
0000
0000
0100
0000
,
0001
0000
0000
1000
0000
0000
0100
0000
,
0010
0001
1000
0100
,
1000
0000
0000
0010
0000
0000
0100
0000
,
0000
0001
0000
0000
1000
0000
0010
0000
,
0100
0000
0000
0001
0000
0000
1000
0000
,
0100
0010
0001
1000
,
0010
0000
0000
0100
0000
0000
0001
0000
,
1000
0000
0000
0010
0000
0000
0100
0000
,
0001
0000
0000
1000
0000
0000
0100
0000
,
0010
0001
1000
0010
,
2000
0000
3002
0000
0103
0010
0000
1000
,
0010
0000
0100
0001
0000
2000
0000
0000
,
0000
0000
0000
3100
0010
0001
0000
1000
,
0010
0000
0100
0010
0000
2000
0000
0000
,
3100
0000
0010
0000
0001
0100
0000
0010
,
0100
0000
0001
1000
0000
0200
0000
0000
,
0000
0000
0000
0310
0001
0010
0000
0100
,
1000
0000
0010
1000
0000
0002
0000
0000
,
1003
0000
0100
0000
0010
0001
0000
1000
,
0001
0000
0100
0001
0000
0020
0000
0000
,
0000
0000
0000
0031
1000
0001
0000
0100
,
0010
0000
0100
0001
0000
2000
0000
0000
,
3100
0000
0010
0000
0001
0100
0000
0010
,
0100
0000
0010
1000
0000
0002
0000
0000
,
0000
0000
0000
1003
0100
1000
0000
0010
,
0100
0000
0000
0000
0010
0000
1000
0000
0000
0000
0002
0000
0000
0000
0000
0003
,
1000
0000
0000
0010
0000
0000
0100
0000
,
0000
0001
0000
0000
1000
0100
1000
0100
,
1000
0000
0000
0010
0000
0000
0100
0000
,
0000
0001
0000
0000
1000
0000
0020
0000
,
0130
0000
0000
0001
0000
0000
1000
0000
,
0000
0100
0000
0000
0010
0001
0010
0001
,
0020
0000
0000
0000
0230
0000
0000
1300
,
0000
0001
0010
0100
,
1000
0000
0000
0010
0000
0000
1000
0000
,
0000
0001
0000
0000
1000
0000
0010
0000
,
0100
0000
0000
0001
0000
0000
1000
0000
,
0100
0010
0001
1000
,
0010
0000
0000
0100
0000
0000
0001
0000
,
1000
0000
0000
0010
0000
0000
0100
0000
,
0001
0000
0000
1000
0000
0000
0100
0000
,
0010
0001
0100
0010
,
1000
0000
0000
0010
0000
0000
0100
0000
,
0000
0001
0000
0000
1000
0000
0010
0000
,
0100
0000
0000
0001
0000
0000
1000
0000
,
0100
0010
0001
1000
,
0010
0000
0000
0100
0000
0000
0001
0000
,
1000
0000
0000
0010
0000
0000
0100
0000
,
0001
0000
0000
1000
0000
0000
0100
0000
,
0010
0001
1000
0010
,
2000
0000
3002
0000
0103
0010
0000
1000
,
0010
0000
0100
0001
0000
2000
0000
0000
,
0000
0000
0000
3100
0010
0001
0000
1000
,
0010
0000
0100
0010
0000
0000
0000
0000
;

//---------------dance-single - 9.14 (9) (owenviau1)----------------
#NOTES:
     dance-single:
     9.14 (9) (owenviau1):
     Medium:
     9:
     0.884,0.928,0.016,0.161,0.032,749.000,2.000,20.000,0.000,0.000:
1000
0010
1000
0010
0100
0001
0100
0001
1000
0100
1000
0100
0010
0001
0010
0001
,
0010
0100
1000
0010
0100
0001
1000
0100
,
1000
0001
0010
0001
0100
0010
1000
0001
,
0010
0100
1000
0010
0100
0001
1000
0100
,
0010
0001
1000
0010
1000
0001
0010
0100
,
1000
0010
0100
0001
1000
0010
1000
0001
,
0100
0001
1000
0100
0010
0001
1000
0100
,
1000
0001
0010
0100
1000
0010
1000
0001
,
0100
0010
1000
0100
1000
0001
0010
0001
,
0200
0310
2000
3001
0100
0010
1000
0001
,
0010
0001
1000
0100
0010
0001
0100
0010
,
1000
0001
0010
0100
1000
0001
0100
0001
,
1000
0010
0100
0010
1000
0001
0010
0001
,
1000
0100
0010
0001
0100
0010
1000
0001
,
0010
0001
1000
0100
1000
0010
0100
0001
,
1000
0100
1000
0001
0100
0010
1000
0001
,
0010
0100
1000
0001
0010
0001
0100
0010
,
1000
0001
0010
0100
1000
0010
0100
0001
,
1000
0100
1000
0001
0100
0001
1000
0010
,
0100
0010
1000
0001
0100
0001
1000
0100
,
0010
0001
0100
0010
1000
0001
0010
0100
,
1000
0001
0010
0001
1000
0100
1000
0010
,
0100
0001
1000
0100
0010
0001
0100
0010
,
1000
0001
0100
0001
1000
0010
1000
0001
,
0010
0100
1000
0001
0100
0010
0100
0001
,
1001
1000
0100
0010
0001
0100
0010
1000
,
0001
0010
0001
1000
0100
1000
0010
0100
,
0001
1000
0100
0010
0001
0100
0010
1000
,
0001
0010
0100
1000
0001
0100
0001
1000
,
0010
0100
0010
1000
0001
0010
0001
1000
,
0100
0010
0001
0100
0010
1000
0001
0010
,
0001
1000
0100
0010
0001
0100
0010
1000
,
0001
0200
0320
2030
3200
0320
0032
2003
,
3010
0010
1000
0010
0100
0001
1000
0100
,
1000
0001
0010
0001
0100
0010
1000
0001
,
0010
0100
1000
0010
0100
0001
1000
0100
,
0010
0001
1000
0010
1000
0001
0010
0100
,
1000
0010
0100
0001
1000
0010
1000
0001
,
0100
0001
1000
0100
0010
0001
1000
0100
,
1000
0001
0010
0100
1000
0010
1000
0001
,
0100
0010
1000
0100
1000
0001
0100
0001
,
0010
0100
1000
0010
0100
0001
1000
0100
,
1000
0001
0010
0001
0100
0010
1000
0001
,
0010
0100
1000
0010
0100
0001
1000
0100
,
0010
0001
1000
0010
1000
0001
0010
0100
,
1000
0010
0100
0001
1000
0010
1000
0001
,
0100
0001
1000
0100
0010
0001
1000
0100
,
1000
0001
0010
0100
1000
0010
1000
0001
,
0100
0010
1000
0100
1000
0001
0010
0001
,
0200
0310
2000
3001
0100
0010
1000
0001
,
0010
0001
1000
0100
0010
0001
0100
0010
,
1000
0001
0010
0100
1000
0001
0100
0001
,
1000
0010
0100
0010
1000
0001
0010
0001
,
1000
0100
0010
0001
0100
0010
1000
0001
,
0010
0001
1000
0100
1000
0010
0100
0001
,
1000
0100
1000
0001
0100
0010
1000
0001
,
0010
0100
1000
0001
0010
0001
0100
0010
,
1000
0001
0010
0100
1000
0010
0100
0001
,
1000
0100
1000
0001
0100
0001
1000
0010
,
0100
0010
1000
0001
0100
0001
1000
0100
,
0010
0001
0100
0010
1000
0001
0010
0100
,
1000
0001
0010
0001
1000
0100
1000
0010
,
0100
0001
1000
0100
0010
0001
0100
0010
,
1000
0001
0100
0001
1000
0010
1000
0001
,
0010
0100
1000
0001
0100
0010
0100
0001
,
1001
1000
0100
0010
0001
0100
0010
1000
,
0001
0010
0001
1000
0100
1000
0010
0100
,
0001
1000
0100
0010
0001
0100
0010
1000
,
0001
0010
0100
1000
0001
0100
0001
1000
,
0010
0100
0010
1000
0001
0010
0001
1000
,
0100
0010
0001
0100
0010
1000
0001
0010
,
0001
1000
0100
0010
0001
0100
0010
1000
,
0001
0200
0320
2030
3200
0320
0032
2003
,
3010
0010
1000
0010
0100
0001
1000
0100
,
1000
0001
0010
0001
0100
0010
1000
0001
,
0010
0100
1000
0010
0100
0001
1000
0100
,
0010
0001
1000
0010
1000
0001
0010
0100
,
1000
0010
0100
0001
1000
0010
1000
0001
,
0100
0001
1000
0100
0010
0001
1000
0100
,
1000
0001
0010
0100
1000
0010
1000
0001
,
0100
0010
1000
0100
1000
0001
0010
0001
,
1000
0100
1000
0010
0100
0001
1000
0100
,
1000
0001
0010
0001
0100
0010
1000
0001
,
0010
0100
1000
0010
0100
0001
1000
0100
,
0010
0001
1000
0010
1000
0001
0010
0100
,
1000
0010
0100
0001
1000
0010
1000
0001
,
0100
0001
1000
0100
0010
0001
1000
0100
,
1000
0001
0010
0100
1000
0010
1000
0001
,
0100
0010
1000
0100
1000
0001
0010
0001
,
0200
0310
2000
3001
0100
0010
1000
0001
,
0010
0001
1000
0100
0010
0001
0100
0010
,
1000
0001
0010
0100
1000
0001
0100
0001
,
1000
0010
0100
0001
1000
0000
0000
0000
;

//---------------dance-single - 13.60 (13+) (owenvia----------------
#NOTES:
     dance-single:
     13.60 (13+) (owenvia:
     Hard:
     13:
     1.000,1.000,0.000,0.161,0.803,941.000,0.000,20.000,0.000,0.000:
1000
0010
1000
0010
0100
0001
0100
0001
1000
0100
0010
0001
0100
0010
1000
0001
,
0010
0100
1000
0010
0100
0001
1000
0100
,
1000
0001
0010
0001
0100
0010
1000
0001
,
0010
0100
1000
0010
0100
0001
1000
0100
,
0010
0001
1000
0100
1000
0010
0100
0010
1000
0001
0010
0001
0100
0010
1000
0001
,
0010
0100
1000
0001
0100
0001
1000
0010
,
0100
0001
1000
0100
0010
0001
1000
0100
,
1000
0001
0010
0100
1000
0010
1000
0001
,
0100
0010
1000
0100
0010
0001
0100
0010
1000
0001
0100
0001
1000
0100
0010
0001
,
0200
0310
2000
3001
0100
0010
1000
0001
,
0010
0001
1000
0100
0010
0001
0100
0010
,
1000
0001
0010
0100
1000
0001
0100
0001
,
1000
0010
0100
0010
1000
0001
0010
0001
,
1000
0100
0010
0001
0100
0010
1000
0001
,
0010
0001
1000
0100
1000
0010
0100
0001
,
1000
0100
1000
0001
0100
0010
1000
0001
,
0010
0100
1000
0001
0010
0001
0100
0010
,
1000
0001
0010
0100
1000
0010
0100
0001
,
1000
0100
1000
0001
0100
0001
1000
0010
,
0100
0010
1000
0001
0100
0001
1000
0100
,
0010
0001
0100
0010
1000
0001
0010
0100
,
1000
0001
0010
0001
1000
0100
1000
0010
,
0100
0001
1000
0100
0010
0001
0100
0010
,
1000
0001
0100
0001
1000
0010
1000
0001
,
0010
0100
1000
0001
0100
0010
0100
0001
,
1000
0010
0100
0001
1000
0100
0010
0001
0100
0001
1000
0010
0100
0001
1000
0100
,
1000
0010
0100
0001
0100
0010
1000
0100
0010
0001
1000
0010
1000
0100
0010
0001
,
0100
0010
1000
0001
0010
0001
0100
0010
1000
0001
0010
0001
0100
0010
1000
0100
,
1000
0001
0010
0001
0100
0010
1000
0001
0010
0100
1000
0010
0100
0001
1000
0100
,
1000
0010
0100
0010
1000
0001
0100
0001
0010
0100
1000
0010
0100
0001
1000
0100
,
1000
0010
0100
0001
0100
0010
1000
0001
1000
0010
0100
0010
1000
0001
0010
0100
,
1000
0010
0100
0001
1000
0100
0010
0001
1000
0010
0100
0001
0010
0001
0100
0010
,
1000
0200
0320
0032
0203
0320
2030
3002
,
0013
0100
1000
0010
0100
0001
1000
0100
,
1000
0001
0010
0001
0100
0010
1000
0001
,
0010
0100
1000
0010
0100
0001
1000
0100
,
0010
0001
1000
0100
1000
0010
0100
0010
1000
0001
0010
0001
0100
0010
1000
0001
,
0010
0100
1000
0001
0100
0001
1000
0010
,
0100
0001
1000
0100
0010
0001
1000
0100
,
1000
0001
0010
0100
1000
0010
1000
0001
,
0100
0010
1000
0100
0010
0001
0100
0010
1000
0001
0100
0001
1000
0100
0010
0001
,
1000
0100
1000
0010
0100
0001
1000
0100
,
1000
0001
0010
0001
0100
0010
1000
0001
,
0010
0100
1000
0010
0100
0001
1000
0100
,
0010
0001
1000
0100
1000
0010
0100
0010
1000
0001
0010
0001
0100
0010
1000
0001
,
0010
0100
1000
0001
0100
0001
1000
0010
,
0100
0001
1000
0100
0010
0001
1000
0100
,
1000
0001
0010
0100
1000
0010
1000
0001
,
0100
0010
1000
0100
0010
0001
0100
0010
1000
0001
0100
0001
1000
0100
0010
0001
,
0200
0310
2000
3001
0100
0010
1000
0001
,
0010
0001
1000
0100
0010
0001
0100
0010
,
1000
0001
0010
0100
1000
0001
0100
0001
,
1000
0010
0100
0010
1000
0001
0010
0001
,
1000
0100
0010
0001
0100
0010
1000
0001
,
0010
0001
1000
0100
1000
0010
0100
0001
,
1000
0100
1000
0001
0100
0010
1000
0001
,
0010
0100
1000
0001
0010
0001
0100
0010
,
1000
0001
0010
0100
1000
0010
0100
0001
,
1000
0100
1000
0001
0100
0001
1000
0010
,
0100
0010
1000
0001
0100
0001
1000
0100
,
0010
0001
0100
0010
1000
0001
0010
0100
,
1000
0001
0010
0001
1000
0100
1000
0010
,
0100
0001
1000
0100
0010
0001
0100
0010
,
1000
0001
0100
0001
1000
0010
1000
0001
,
0010
0100
1000
0001
0100
0010
0100
0001
,
1000
0010
0100
0001
1000
0100
0010
0001
0100
0001
1000
0010
0100
0001
1000
0100
,
1000
0010
0100
0001
0100
0010
1000
0100
0010
0001
1000
0010
1000
0100
0010
0001
,
0100
0010
1000
0001
0010
0001
0100
0010
1000
0001
0010
0001
0100
0010
1000
0100
,
1000
0001
0010
0001
0100
0010
1000
0001
0010
0100
1000
0010
0100
0001
1000
0100
,
1000
0010
0100
0010
1000
0001
0100
0001
0010
0100
1000
0010
0100
0001
1000
0100
,
1000
0010
0100
0001
0100
0010
1000
0001
1000
0010
0100
0010
1000
0001
0010
0100
,
1000
0010
0100
0001
1000
0100
0010
0001
1000
0010
0100
0001
0010
0001
0100
0010
,
1000
0200
0320
0032
0203
0320
2030
3002
,
0013
0100
1000
0010
0100
0001
1000
0100
,
1000
0001
0010
0001
0100
0010
1000
0001
,
0010
0100
1000
0010
0100
0001
1000
0100
,
0010
0001
1000
0100
1000
0010
0100
0010
1000
0001
0010
0001
0100
0010
1000
0001
,
0010
0100
1000
0001
0100
0001
1000
0010
,
0100
0001
1000
0100
0010
0001
1000
0100
,
1000
0001
0010
0100
1000
0010
1000
0001
,
0100
0010
1000
0100
0010
0001
0100
0010
1000
0001
0100
0001
1000
0100
0010
0001
,
1000
0100
0010
0001
0100
0001
1000
0100
,
1000
0001
0010
0001
0100
0010
1000
0001
,
0010
0100
1000
0010
0100
0001
1000
0100
,
0010
0001
1000
0100
1000
0010
0100
0010
1000
0001
0010
0001
0100
0010
1000
0001
,
0010
0100
1000
0001
0100
0001
1000
0010
,
0100
0001
1000
0100
0010
0001
1000
0100
,
1000
0001
0010
0100
1000
0010
1000
0001
,
0100
0010
1000
0100
0010
0001
0100
0010
1000
0001
0100
0001
1000
0100
0010
0001
,
0200
0310
2000
3001
0100
0010
1000
0001
,
0010
0001
1000
0100
0010
0001
0100
0010
,
1000
0001
0010
0100
1000
0001
0100
0001
,
1000
0010
0100
0010
1000
0000
0000
0000
;

//---------------dance-single - 14.82 (15-) (owenvia----------------
#NOTES:
     dance-single:
     14.82 (15-) (owenvia:
     Challenge:
     15:
     1.000,1.000,0.000,0.177,1.000,1436.000,0.000,22.000,0.000,0.000:
1000
0010
1000
0010
0100
0001
0100
0001
1000
0100
0010
0001
0100
0010
1000
0001
,
0010
0100
1000
0010
0100
0001
0010
0001
0100
0010
1000
0001
0010
0100
1000
0010
,
0100
0001
0100
0010
1000
0000
0010
0000
0100
0001
1000
0100
1000
0010
0100
0001
,
0010
0100
1000
0001
0010
0001
0100
0010
1000
0001
0100
0001
0010
0100
1000
0010
,
0100
0001
1000
0100
1000
0010
0100
0010
1000
0001
0010
0001
0100
0010
1000
0001
,
0010
0100
1000
0010
0100
0001
0100
0010
1000
0100
0010
0001
1000
0010
0100
0001
,
1000
0100
0010
0001
0010
0100
1000
0010
0100
0001
1000
0000
0010
0100
0001
1000
,
0100
1000
0010
0100
0001
1000
0100
0010
0001
0100
0010
1000
0010
0100
0001
1000
,
0100
1000
0010
0100
0010
1000
0001
0100
0001
1000
0100
0010
0001
0100
0010
1000
,
0002
0000
0013
0000
0200
0000
1300
0000
0001
0100
0010
1000
0010
0100
0001
1000
,
0100
0010
0001
0100
0001
1000
0010
0100
0001
1000
0100
1000
0010
0100
0001
0100
,
0010
1000
0100
0010
0001
1000
0010
1000
0100
0010
0001
0100
0010
1000
0001
0010
,
0001
0100
0010
1000
0001
0010
0001
0100
0010
1000
0100
1000
0001
0010
0001
0100
,
0010
1000
0001
0010
0100
1000
0010
0100
0001
1000
0100
1000
0010
0100
0010
1000
,
0001
0100
0001
0010
0100
1000
0010
0100
0001
1000
0100
1000
0010
0100
0001
0100
,
0010
1000
0001
1000
0010
0100
0010
1000
0001
0010
0100
1000
0010
0100
0001
1000
,
0100
0010
0001
1000
0001
0100
0010
1000
0100
0010
0001
1000
0010
1000
0100
0010
,
0002
0000
1003
0000
0020
0000
0130
0000
0001
1000
0100
1000
0010
0100
0001
1000
,
0100
0010
0001
0100
0001
1000
0010
0100
0001
1000
0100
1000
0010
0100
0001
0100
,
0010
1000
0100
0010
0001
0100
0010
1000
0100
0010
0001
0100
0010
1000
0001
0010
,
0001
0100
0010
1000
0001
0010
0001
0100
0010
1000
0100
1000
0001
0010
0001
0100
,
0010
1000
0001
0010
0100
1000
0010
0100
0001
1000
0100
1000
0010
0100
0010
1000
,
0001
0100
0001
0010
0100
1000
0010
0100
0001
1000
0100
1000
0010
0100
0001
0100
,
0010
1000
0001
1000
0010
0100
0010
1000
0001
0100
0010
0100
0001
1000
0010
1000
,
0100
0010
0001
1000
0001
0100
0010
1000
0100
0010
0001
1000
0010
1000
0100
0010
,
0001
0100
0010
1000
0010
0100
0001
1000
0100
0010
0001
0100
0001
1000
0010
0100
,
0001
1000
0100
1000
0010
0100
0001
0100
0010
1000
0100
0010
0001
1000
0010
1000
,
0100
0010
0001
0100
0010
1000
0001
0010
0001
0100
0010
1000
0001
0010
0001
0100
,
0010
1000
0100
1000
0001
0010
0001
0100
0010
1000
0001
0010
0100
1000
0010
0100
,
0001
1000
0100
1000
0010
0100
0010
1000
0001
0100
0001
0010
0100
1000
0010
0100
,
0001
1000
0100
1000
0010
0100
0001
0100
0010
1000
0001
1000
0010
0100
0010
1000
,
0001
0010
0100
1000
0010
0100
0001
1000
0100
0010
0001
1000
0010
0100
0020
1030
,
0001
0000
0020
0000
0230
0000
2300
0000
3001
0010
0200
1300
0010
0100
0002
0000
,
0013
0100
1000
0010
0100
0001
0010
0001
0100
0010
1000
0001
0010
0100
1000
0010
,
0100
0001
0100
0010
1000
0000
0010
0000
0100
0001
1000
0100
1000
0010
0100
0001
,
0010
0100
1000
0001
0010
0001
0100
0010
1000
0001
0100
0001
0010
0100
1000
0010
,
0100
0001
1000
0100
1000
0010
0100
0010
1000
0001
0010
0001
0100
0010
1000
0001
,
0010
0100
1000
0010
0100
0001
0100
0010
1000
0100
0010
0001
1000
0010
0100
0001
,
1000
0100
0010
0001
0010
0100
1000
0010
0100
0001
1000
0000
0010
0100
0001
1000
,
0100
1000
0010
0100
0001
1000
0100
0010
0001
0100
0010
1000
0010
0100
0001
1000
,
0100
1000
0010
0100
0010
1000
0001
0100
0001
1000
0100
0010
0001
0100
0010
1000
,
0001
0010
0100
1000
0010
0100
0001
1000
0001
0100
0010
1000
0010
0100
0001
1000
,
0100
0010
0001
0100
0001
0000
1000
0000
0100
0010
0001
1000
0010
0100
0001
0100
,
0010
1000
0100
0010
0001
1000
0010
1000
0100
0010
0001
0100
0010
1000
0001
0010
,
0001
0100
0010
1000
0001
0010
0001
0100
0010
1000
0100
1000
0001
0010
0001
0100
,
0010
1000
0001
0010
0100
1000
0010
0100
0001
1000
0100
1000
0010
0100
0010
1000
,
0001
0100
0001
0010
0100
1000
0010
0100
0001
0000
0100
0000
0010
1000
0001
0010
,
0100
1000
0001
1000
0010
0100
0010
1000
0001
0010
0100
1000
0010
0100
0001
1000
,
0100
0010
0001
1000
0001
0100
0010
1000
0100
0010
0001
1000
0010
1000
0100
0010
,
0002
0000
0013
0000
0200
0000
1300
0000
0001
0100
0010
1000
0010
0100
0001
1000
,
0100
0010
0001
0100
0001
1000
0010
0100
0001
1000
0100
1000
0010
0100
0001
0100
,
0010
1000
0100
0010
0001
1000
0010
1000
0100
0010
0001
0100
0010
1000
0001
0010
,
0001
0100
0010
1000
0001
0010
0001
0100
0010
1000
0100
1000
0001
0010
0001
0100
,
0010
1000
0001
0010
0100
1000
0010
0100
0001
1000
0100
1000
0010
0100
0010
1000
,
0001
0100
0001
0010
0100
1000
0010
0100
0001
1000
0100
1000
0010
0100
0001
0100
,
0010
1000
0001
1000
0010
0100
0010
1000
0001
0010
0100
1000
0010
0100
0001
1000
,
0100
0010
0001
1000
0001
0100
0010
1000
0100
0010
0001
1000
0010
1000
0100
0010
,
0002
0000
1003
0000
0020
0000
0130
0000
0001
1000
0100
1000
0010
0100
0001
1000
,
0100
0010
0001
0100
0001
1000
0010
0100
0001
1000
0100
1000
0010
0100
0001
0100
,
0010
1000
0100
0010
0001
0100
0010
1000
0100
0010
0001
0100
0010
1000
0001
0010
,
0001
0100
0010
1000
0001
0010
0001
0100
0010
1000
0100
1000
0001
0010
0001
0100
,
0010
1000
0001
0010
0100
1000
0010
0100
0001
1000
0100
1000
0010
0100
0010
1000
,
0001
0100
0001
0010
0100
1000
0010
0100
0001
1000
0100
1000
0010
0100
0001
0100
,
0010
1000
0001
1000
0010
0100
0010
1000
0001
0100
0010
0100
0001
1000
0010
1000
,
0100
0010
0001
1000
0001
0100
0010
1000
0100
0010
0001
1000
0010
1000
0100
0010
,
0001
0100
0010
1000
0010
0100
0001
1000
0100
0010
0001
0100
0001
1000
0010
0100
,
0001
1000
0100
1000
0010
0100
0001
0100
0010
1000
0100
0010
0001
1000
0010
1000
,
0100
0010
0001
0100
0010
1000
0001
0010
0001
0100
0010
1000
0001
0010
0001
0100
,
0010
1000
0100
1000
0001
0010
0001
0100
0010
1000
0001
0010
0100
1000
0010
0100
,
0001
1000
0100
1000
0010
0100
0010
1000
0001
0100
0001
0010
0100
1000
0010
0100
,
0001
1000
0100
1000
0010
0100
0001
0100
0010
1000
0001
1000
0010
0100
0010
1000
,
0001
0010
0100
1000
0010
0100
0001
1000
0100
0010
0001
1000
0010
0100
0020
1030
,
0001
0000
0020
0000
0230
0000
2300
0000
3001
0010
0200
1300
0010
0100
0002
0000
,
0013
0100
1000
0010
0100
0001
0010
0001
0100
0010
1000
0001
0010
0100
1000
0010
,
0100
0001
0100
0010
1000
0000
0010
0000
0100
0001
1000
0100
1000
0010
0100
0001
,
0010
0100
1000
0001
0010
0001
0100
0010
1000
0001
0100
0001
0010
0100
1000
0010
,
0100
0001
1000
0100
1000
0010
0100
0010
1000
0001
0010
0001
0100
0010
1000
0001
,
0010
0100
1000
0010
0100
0001
0100
0010
1000
0100
0010
0001
1000
0010
0100
0001
,
1000
0100
0010
0001
0010
0100
1000
0010
0100
0001
1000
0000
0010
0100
0001
1000
,
0100
1000
0010
0100
0001
1000
0100
0010
0001
0100
0010
1000
0010
0100
0001
1000
,
0100
1000
0010
0100
0010
1000
0001
0100
0001
1000
0100
0010
0001
0100
0010
1000
,
0001
0010
0100
1000
0010
0100
0001
1000
0001
0100
0010
1000
0010
0100
0001
1000
,
0100
0010
0001
0100
0001
0000
1000
0000
0100
0010
0001
1000
0010
0100
0001
0100
,
0010
1000
0100
0010
0001
1000
0010
1000
0100
0010
0001
0100
0010
1000
0001
0010
,
0001
0100
0010
1000
0001
0010
0001
0100
0010
1000
0100
1000
0001
0010
0001
0100
,
0010
1000
0001
0010
0100
1000
0010
0100
0001
1000
0100
1000
0010
0100
0010
1000
,
0001
0100
0001
0010
0100
1000
0010
0100
0001
1000
0100
1000
0010
0100
0001
0100
,
0010
1000
0001
1000
0010
0100
0010
1000
0001
0010
0100
1000
0010
0100
0001
1000
,
0100
0010
0001
1000
0001
0100
0010
1000
0100
0010
0001
1000
0010
1000
0100
0010
,
0002
0000
1003
0000
0020
0000
0130
0000
0001
1000
0100
1000
0010
0100
0001
1000
,
0100
0010
0001
0100
0001
1000
0010
0100
0001
1000
0100
1000
0010
0100
0001
0100
,
0010
1000
0100
0010
0001
0100
0010
1000
0100
0010
0001
0100
0010
1000
0001
0010
,
0001
0100
0010
1000
0001
0010
0001
1000
0010
0000
0000
0000
0000
0000
0000
0000
;
