#TITLE:Queen Of My World;
#SUBTITLE:Dimensions (2007);
#ARTIST:Freedom Call;
#TITLETRANSLIT:;
#SUBTITLETRANSLIT:;
#ARTISTTRANSLIT:;
#CREDIT:SulferDragon;
#BANNER:Queen Of My World-banner.png;
#BACKGROUND:Queen Of My World-bg.png;
#LYRICSPATH:;
#CDTITLE:!SulferDragon.png;
#MUSIC:Queen Of My World.mp3;
#OFFSET:-0.225;
#SAMPLESTART:60.220;
#SAMPLELENGTH:16.600;
#SELECTABLE:YES;
#BPMS:0.000=159.990,64.000=80.000,111.000=159.990,241.000=80.000,271.000=159.990;
#STOPS:;
#BGCHANGES:;
// cache tags:
#FIRSTBEAT:0.000;
#LASTBEAT:644.000;
#SONGFILENAME:Songs/Astronomic Metal Collection/Queen Of My World (SulferDragon)/Queen Of My World.sm;
#HASMUSIC:1;
#HASBANNER:1;
#MUSICLENGTH:266.718;
// end cache tags

//---------------dance-single - ----------------
#NOTES:
     dance-single:
     :
     Challenge:
     12:
     1.000,1.000,1.000,1.000,0.744,1446.000,555.000,368.000,0.000,94.000:
0100
0000
0001
0000
0100
0010
1000
0000
,
0001
1000
0100
0010
0001
0000
0100
0000
,
0000
1000
0001
0100
0010
0001
0100
0010
,
1000
0000
0000
0000
0000
0010
0001
0010
1000
0100
0000
0000
0010
0000
0000
0000
0000
0000
1000
0000
0000
0000
0000
0000
,
0100
0000
0000
0000
0001
0000
0000
0000
0100
0000
0010
0000
1000
0000
0000
0100
,
0001
0001
1000
0000
0100
0000
0010
0000
0100
0000
0010
0000
0001
0000
0000
0000
,
0000
1000
0001
0100
0010
0001
0100
0010
,
1000
0000
0000
0000
0000
0000
0000
0000
0000
0000
0000
0000
0000
0000
0000
0000
0100
0000
0000
0000
0000
0000
0000
0000
1000
0000
0000
0000
0000
0000
0000
0000
0011
0000
0000
0000
0000
0000
0000
0000
0100
0000
0000
0000
0000
1001
0000
0000
0000
0110
0000
0000
0000
0000
0000
0000
0101
0000
0000
0000
0000
0000
0000
0000
,
1101
0000
0000
0000
0000
0000
1010
0000
0000
0000
0000
0000
0002
0003
0000
0000
0000
0000
1010
0000
0000
0000
0000
0000
0200
0300
0000
0000
0000
0000
0021
0030
0000
0000
0000
0000
2000
0000
0000
0000
3000
0000
0110
0000
0000
0000
0000
0000
,
0002
0003
0000
0000
0000
0000
2010
3000
0000
0000
0000
0000
0200
0300
0000
0000
0000
0000
1020
0030
0000
0000
0000
0000
0002
0000
0000
0000
0000
0000
1013
0000
0000
0000
0000
0000
0200
0000
0000
0000
0300
0000
0011
0000
0000
0000
0000
0000
,
0100
0000
0000
0000
0000
0000
2010
3000
0000
0000
0000
0000
0002
0003
0000
0000
0000
0000
1200
0300
0000
0000
0000
0000
0020
0030
0000
0000
0000
0000
1002
0003
0000
0000
0000
0000
0200
0300
0000
0000
0000
0000
0021
0030
0000
0000
0000
0000
,
2000
0000
0000
0000
0000
0000
3101
0000
0000
0000
0000
0000
0002
0003
0020
0030
2000
3000
0201
0300
0000
0000
0000
0000
0020
0000
0000
0000
0030
0000
0101
0000
0000
0000
0000
0000
2000
0000
0000
0000
3000
0000
0011
0000
0000
0000
0000
0000
,
0210
0000
0000
0000
0000
0000
1310
0000
0000
0000
0000
0000
0002
0003
0000
0000
0000
0000
1010
0000
0000
0000
0000
0000
0200
0300
0000
0000
0000
0000
0021
0030
0000
0000
0000
0000
2000
0000
0000
0000
0000
0000
3110
0000
0000
0000
0000
0000
,
0002
0000
0000
0000
0000
0000
0000
0000
0000
0000
0000
0000
0000
0000
0000
0000
0003
0000
0000
0000
0000
0000
0000
0000
1100
0000
0000
0000
0000
0000
0000
0000
0000
0000
0000
0000
0000
0000
0000
0000
0000
0000
0000
0000
0000
0000
0000
0000
0020
0000
0000
0000
0030
0000
0000
0000
0000
0000
0000
0000
0000
0000
0000
0000
0000
0000
0000
0000
0000
0000
0000
0000
0201
0000
0000
0000
0300
0000
0000
0000
0000
0000
0000
0000
0000
0000
0000
0000
0000
0000
0000
0000
0000
0000
0000
0000
2000
0000
0000
0000
3000
0000
0000
0000
0000
0000
0000
0000
0000
0000
0000
0000
0000
0000
0000
0000
0000
0000
0000
0000
0210
0000
0000
0000
0300
0000
0000
0000
0000
0000
0000
0000
0000
0000
0000
0000
0000
0000
0000
0000
0000
0000
0000
0000
1012
0000
0000
0003
0000
0000
0000
0000
0000
0000
0000
0000
0000
0000
0000
0000
0000
0000
0000
0000
0000
0000
0000
0000
0000
0000
0000
0000
0000
0000
0000
0000
0000
0000
0000
0000
0000
0000
0000
0000
0000
0000
0000
0000
0000
0000
0000
0000
,
0000
0000
1100
1100
1010
0110
0101
0000
0000
1010
0110
0101
,
0011
0000
0000
0000
0000
0000
0000
0000
0000
0000
0000
0000
0000
0000
0000
0000
0000
0000
0000
0000
0000
0000
0000
0000
0000
0000
0000
0000
0000
0000
0000
0000
0000
0000
0000
0000
0000
0000
0000
0000
0000
0000
0000
0000
0000
0000
0000
0000
1000
0000
0000
0000
0000
0000
0001
0000
0000
0000
0000
0000
0000
0000
0000
0000
0100
0000
0000
0000
0000
0000
0000
0000
0000
0000
0000
0000
0000
0000
0000
0000
1010
0000
0000
0000
0000
0000
0000
0000
0000
0000
0000
0000
0000
0000
0000
0000
0110
0000
0000
0000
0000
0000
0000
0000
0000
0000
0000
0000
0000
0000
0000
0000
1100
0000
0000
0000
0000
0000
0000
0000
0000
0000
0000
0000
0000
0000
0000
0000
1001
0000
0000
0000
0000
0000
0000
0000
0000
0000
0000
0000
0000
0000
0000
0000
0101
0000
0000
0000
0000
0000
0000
0000
0000
0000
0000
0000
0000
0000
0000
0000
0110
0000
0000
0000
0000
0000
0000
0000
0000
0000
0000
0000
0000
0000
0000
0000
0011
0000
0000
0000
0000
0000
0000
0000
0000
0000
0000
0000
0000
0000
0000
0000
,
1102
1003
0100
0000
0011
0000
0100
0100
0010
0010
0001
0000
0011
0001
1000
0000
,
1000
0000
1000
0000
0100
0000
0000
0000
0011
0000
0000
0000
0100
0000
0100
0000
0010
0000
0001
0000
0100
0000
0100
0000
1022
0000
0000
0000
0000
0000
0000
0033
,
1000
1000
0100
0000
0011
0000
0100
0100
0010
0010
0001
0000
0011
0001
1000
0000
,
1010
0000
1010
0000
0110
0000
0000
0000
0000
0000
0000
0000
0110
0000
0110
0000
0101
0000
0011
0000
0110
0000
0110
0000
1022
0000
0000
0000
0000
0000
0000
0033
,
0101
0100
0010
0000
1100
0000
0010
0010
0101
0001
1000
0000
1100
1000
0100
0000
,
0101
0000
0100
0000
0010
0000
0000
0000
1100
0000
0000
0000
0010
0000
0010
0000
0101
0000
1001
0000
0010
0000
0010
0000
2201
0000
0000
0000
0000
0000
0000
3300
,
1010
0010
0001
0000
0110
0000
0001
0001
1010
1000
0100
0000
0110
0100
0010
0000
,
1010
0000
0010
0000
0001
0000
0000
0000
0110
0000
0000
0000
0001
0000
0001
0000
1010
0000
0110
0000
0001
0000
0001
0000
2120
0000
0000
0000
0000
0000
0000
3030
,
0101
0001
1000
0000
0110
0000
1000
1000
0101
0100
0010
0000
0110
0010
0001
0000
,
0101
0000
0001
0000
1000
0000
0000
0000
0110
0000
0000
0000
1000
0000
1000
0000
0101
0000
0110
0000
1000
0000
1000
0000
0221
0000
0000
0000
0000
0000
0000
0330
,
1010
1000
0100
0000
1001
0000
0100
0100
1010
0010
0001
0000
1001
0001
1000
0000
,
1010
1000
0100
0000
1001
0000
0100
0100
1010
0001
0100
0100
0001
1000
0001
1000
,
0001
1000
0001
1000
0010
0100
0001
0100
2010
3001
0100
0010
0200
1300
0010
0100
,
0021
1030
0100
0001
0010
0001
0100
0010
1200
0301
0010
1000
0020
0130
0001
1000
,
0102
0013
1000
0100
0011
1000
0001
0100
2001
3010
1000
0001
0200
0310
0100
1000
,
0021
0130
0001
1000
0010
0001
0100
0010
1200
0301
0010
0100
0020
1030
0001
0100
,
0012
0013
0100
0001
1100
0010
1000
0001
2010
3100
0010
1000
0200
0301
0010
0001
,
0120
1030
0001
0100
0010
0100
0010
1000
0201
0310
0001
0100
0020
1030
0001
0100
,
1002
0000
0000
0013
0000
0000
1000
0000
0000
0100
0000
0000
0021
0000
0000
0000
0000
0000
0000
0000
0000
0000
0000
0000
0001
0000
0000
0000
0000
0030
2000
0000
0000
0000
0000
0000
0000
0000
0000
0000
0000
0000
3000
0000
0000
0000
0000
0000
,
0102
0000
0000
0000
0003
0000
0000
0000
2010
0000
0010
0000
0000
0000
0000
0000
0010
0000
0010
3000
0200
0000
0001
0000
0010
0000
1000
0000
0010
0000
0301
0000
,
1120
0000
0030
0000
1102
0003
0010
0000
1100
0000
0010
0000
1100
0000
0010
0000
,
1100
0000
0010
0000
1100
0000
0010
0000
1100
0000
0021
0030
1002
0003
0100
0000
,
2011
3000
1020
0030
0211
0300
0010
0000
1200
0300
0021
0000
0131
0000
1000
0000
,
0101
0000
1000
0000
0101
0000
1000
0000
0101
0000
1000
0000
0012
0003
1000
0000
,
0211
0300
0120
0030
2101
3000
0100
0000
1002
0003
2010
0000
3011
0000
0100
0000
,
0011
0100
0011
0100
0011
0100
0011
0100
,
0011
0000
0000
0000
0000
0000
0100
0000
0000
0000
0000
0000
0012
0000
0000
0000
0000
0000
0100
0000
0000
0000
0000
0000
1010
0000
0000
0000
0000
0003
0200
0000
0000
0000
0000
0000
0011
0000
0000
0000
0000
0000
1300
0000
0000
0000
0000
0000
,
0021
0000
0000
0000
0130
0000
0000
0000
2010
0000
0000
0000
0001
0000
0100
0000
0010
0000
0100
3000
0020
0000
1000
0000
0100
0000
1000
0000
0001
0000
0130
0000
,
1012
0000
0003
0000
2110
3000
0001
0000
1010
0000
0001
0000
1010
0000
0001
0000
,
1010
0000
0001
0000
1010
0000
0001
0000
1010
0000
1002
0003
0201
0300
0010
0000
,
2100
3000
0210
0300
1021
0030
0100
0000
0012
0003
1020
0000
1031
0000
0010
0000
,
1001
0000
0010
0000
1001
0000
0010
0000
1001
0000
0010
0000
1200
0300
0010
0000
,
2101
3000
1002
0003
1120
0030
0001
0000
2100
3000
0201
0000
0311
0000
1000
0000
,
0011
1000
0111
1000
0011
1000
0021
0130
,
1002
0000
0000
0000
0013
0000
0000
0000
1201
0000
0000
0000
0010
0000
0000
0000
1001
0000
0000
0000
0010
0000
0000
0300
0102
0000
0000
0000
1000
0000
0000
0003
,
0110
0000
0000
0000
0000
0000
0000
0000
1000
0000
0000
0000
0000
0000
0000
0000
0010
0000
0000
0000
0000
0000
0000
0000
1000
0000
0000
0000
0000
0000
0000
0000
0010
0000
0000
0000
0000
0000
0000
0000
0100
0000
0000
0000
0000
0000
0000
0000
0011
0000
0000
0000
0000
0000
0000
0000
0000
0000
0000
0000
0000
0000
0000
0000
0000
0000
0000
0000
0000
0000
0000
0000
0000
0000
0000
0000
0000
0000
0000
0000
0000
0000
0000
0000
0000
0000
0000
0000
0000
0000
0000
0000
0000
0000
0000
0000
0000
0000
0000
0000
0000
0000
0000
0000
0000
0000
0000
0000
0000
0000
0000
0000
0000
0000
0000
0000
0000
0000
0000
0000
0000
0000
0000
0000
0000
0000
0000
0000
0000
0000
0000
0000
0000
0000
0000
0000
0000
0000
0000
0000
0000
0000
0000
0000
0000
0000
0000
0000
0000
0000
0000
0000
0000
0000
0000
0000
0000
0000
0000
0000
0000
0000
0000
0000
0000
0000
0000
0000
0000
0000
0000
0000
0000
0000
0110
0000
0000
0000
0000
0000
0000
0000
0000
1001
0000
0000
0000
0000
0000
0000
0000
0000
,
0110
0000
0000
0000
0000
0000
1001
0000
0000
0000
0000
0000
1101
0000
0000
0000
0000
0000
1010
0000
0000
0000
0000
0000
0002
0003
0000
0000
0000
0000
1010
0000
0000
0000
0000
0000
0200
0300
0000
0000
0000
0000
0021
0030
0000
0000
0000
0000
,
2000
0000
0000
0000
3000
0000
0110
0000
0000
0000
0000
0000
0002
0003
0000
0000
0000
0000
2010
3000
0000
0000
0000
0000
0200
0300
0000
0000
0000
0000
1020
0030
0000
0000
0000
0000
0002
0000
0000
0000
0000
0000
1013
0000
0000
0000
0000
0000
,
0200
0000
0000
0000
0300
0000
0011
0000
0000
0000
0000
0000
0100
0000
0000
0000
0000
0000
2010
3000
0000
0000
0000
0000
0002
0003
0000
0000
0000
0000
1200
0300
0000
0000
0000
0000
0020
0030
0000
0000
0000
0000
1002
0003
0000
0000
0000
0000
,
0200
0300
0000
0000
0000
0000
0021
0030
0000
0000
0000
0000
2000
0000
0000
0000
0000
0000
3101
0000
0000
0000
0000
0000
0002
0003
0020
0030
2000
3000
0201
0300
0000
0000
0000
0000
0020
0000
0000
0000
0030
0000
0101
0000
0000
0000
0000
0000
,
2010
0000
0000
0000
3000
0000
0011
0000
0000
0000
0000
0000
0210
0000
0000
0000
0000
0000
1310
0000
0000
0000
0000
0000
0002
0003
0000
0000
0000
0000
1010
0000
0000
0000
0000
0000
0200
0300
0000
0000
0000
0000
0021
0030
0000
0000
0000
0000
,
2000
0000
0000
0000
0000
0000
3110
0000
0000
0002
0003
0000
0002
0003
0000
0000
0000
0000
2100
3000
0000
0000
0000
0000
0020
0030
0000
0000
0000
0000
0201
0300
0000
0000
0000
0000
2000
3000
0000
0000
0000
0000
0210
0300
0000
0000
0000
0000
,
0002
0000
0000
0000
0000
0000
1013
0000
0000
0000
0000
0000
0100
0000
0000
0000
0000
0000
2010
3000
0000
0000
0000
0000
0002
0003
0000
0000
0000
0000
1200
0300
0000
0000
0000
0000
0020
0030
0000
0000
0000
0000
1002
0003
0000
0000
0000
0000
,
0200
0300
0000
0000
0000
0000
0021
0030
0000
0000
0000
0000
2001
0000
0000
0000
0000
0000
3000
0000
0000
0110
0000
0000
0210
0300
0000
0000
0000
0000
2100
3000
0000
0000
0000
0000
0201
0300
0000
0000
0000
0000
0021
0030
0000
0000
0000
0000
,
2010
3000
0000
0000
0000
0000
0210
0300
0000
0000
0000
0000
1012
0003
0000
1000
0000
0000
0100
0000
0000
0000
0000
0000
0011
0000
0000
0000
0000
0000
0100
0000
0000
0100
0000
0000
0010
0000
0000
0010
0000
0000
0001
0000
0000
0000
0000
0000
,
0011
0001
1000
0000
1000
1000
0100
0000
0011
0000
0100
0100
0010
0001
0100
0100
,
1022
0000
0000
0000
0000
0000
0000
0033
1000
0000
1000
0000
0100
0000
0000
0000
0011
0000
0000
0000
0100
0000
0100
0000
0010
0000
0010
0000
0001
0000
0000
0000
,
0011
0001
1000
0000
1010
1010
0110
0000
0000
0000
0110
0110
0101
0011
0110
0110
,
1101
0001
1000
0000
0110
0000
1000
1000
0101
0100
0010
0000
0110
0010
0001
0000
,
0101
0000
0001
0000
1000
0000
0000
0000
0110
0000
0000
0000
1000
0000
1000
0000
0101
0000
0110
0000
1000
0000
1000
0000
0221
0000
0000
0000
0000
0000
0000
0330
,
1010
1000
0100
0000
1001
0000
0100
0100
1010
0010
0001
0000
1001
0001
1000
0000
,
1010
1000
0100
0000
1001
0000
0100
0100
1010
0001
0100
0100
0001
1000
0001
1000
,
0001
1000
0001
1000
0010
0100
0001
0100
2010
3001
0100
0010
0200
1300
0010
0100
,
0021
1030
0100
0001
0010
0001
0100
0010
1200
0301
0010
1000
0020
0130
0001
1000
,
0102
0013
1000
0100
0011
1000
0001
0100
2001
3010
1000
0001
0200
0310
0100
1000
,
0021
0130
0001
1000
0010
0001
0100
0010
1200
0301
0010
0100
0020
1030
0001
0100
,
0012
1003
0100
0001
0100
0010
1000
0001
2010
3100
0010
1000
0200
0301
0010
0001
,
0120
1030
0001
0100
0010
0100
0010
1000
0201
0310
0001
0100
0020
1030
0001
0100
,
1002
0000
0000
0013
0000
0000
1000
0000
0000
0100
0000
0000
0021
0000
0000
0000
0000
0000
0000
0000
0000
0000
0000
0000
0001
0000
0000
0000
0000
0030
2000
0000
0000
0000
0000
0000
0000
0000
0000
0000
0000
0000
3000
0000
0000
0000
0000
0000
,
0102
0000
0000
0000
0003
0000
0000
0000
2010
0000
0100
0000
0001
0000
0100
0000
0010
0000
0001
3000
0210
0000
0001
0000
1000
0000
0010
0000
0001
0000
1300
0000
,
0121
0000
0030
0000
1102
0003
0010
0000
1001
0000
0010
0000
1001
0000
0010
0000
,
1001
0000
0010
0000
1001
0000
0010
0000
1001
0000
0102
0003
1200
0300
0010
0000
,
2101
3000
0012
0003
1120
0030
0001
0000
2100
3000
0201
0000
0311
0000
1000
0000
,
0011
0000
1000
0000
0011
0000
1000
0000
0011
0000
1000
0000
0201
0300
0010
0000
,
1021
0030
1002
0003
2110
3000
0010
0000
1200
0300
2001
0000
3101
0000
0010
0000
,
0101
0010
0101
0010
0101
0010
0101
0010
,
0101
0000
0000
0000
0000
0000
0010
0000
0000
0000
0000
0000
1002
0000
0000
0000
0000
0000
0100
0000
0000
0000
0000
0000
1010
0000
0000
0000
0000
0003
0200
0000
0000
0000
0000
0000
1001
0000
0000
0000
0000
0000
0310
0000
0000
0000
0000
0000
,
2100
0000
0000
0000
3001
0000
0000
0000
0210
0000
0000
0000
0001
0000
1010
0000
0000
0000
0000
0300
0020
0000
1000
0000
0100
0000
1000
0000
0001
0000
0130
0000
,
1012
0000
0003
0000
2011
3000
0100
0000
1010
0000
0100
0000
1010
0000
0100
0000
,
1010
0000
0100
0000
1010
0000
0100
0000
1010
0000
0021
0030
1002
0003
0010
0000
,
0201
0300
0120
0030
2101
3000
0010
0000
1200
0300
0102
0000
0113
0000
1000
0000
,
0110
0000
1000
0000
0110
0000
1000
0000
0110
0000
1000
0000
0102
0003
0010
0000
,
2101
3000
0021
0030
0211
0300
0010
0000
0201
0300
1002
0000
1103
0000
0001
0000
,
1100
0001
1110
0001
1100
0001
0210
1300
,
0012
0000
0000
0000
0103
0000
0000
0000
1021
0000
0000
0000
0100
0000
0000
0000
1001
0000
0000
0000
0100
0000
0000
0030
2010
0000
0000
0000
0001
0000
0000
3000
,
0210
0000
0000
0300
0002
0000
0000
0000
1100
0000
0000
0000
0013
0000
1000
0000
0010
0000
0001
0000
0100
0000
0010
0000
0001
0000
1000
0000
0010
0000
0100
0000
,
1000
0100
0001
1000
0022
0000
0000
0000
0000
0000
0000
0000
0000
0000
0000
0000
,
0000
0000
0000
0000
0000
0033
0000
0000
0000
0000
0000
0000
1100
0000
0000
0000
0000
0000
1010
0000
0000
1010
0000
0000
0000
0000
0000
0000
0000
0000
0110
0000
0000
0000
0000
0000
0110
0000
0000
0110
0000
0000
0011
0000
0000
0011
0000
0000
,
1100
1100
0000
0000
0022
0000
0000
0000
0000
0000
0000
0000
0000
0000
0000
0000
,
0000
0000
0000
0000
0000
0000
0000
0000
0000
0000
0000
0000
0000
0000
0000
0000
0000
0000
0000
0000
0033
0000
0000
0000
0000
0000
0000
0000
0000
0000
0000
0000
0000
0000
0000
0000
0000
0000
0000
0000
0000
0000
0000
0000
0000
0000
0000
0000
1100
0000
0000
0000
0000
0000
0000
0000
0000
0000
0000
0000
0000
0000
0000
0000
0000
0000
0000
0000
0000
0000
0000
0000
1001
0000
0000
0000
0000
0000
0000
0000
0000
0000
0000
0000
1001
0000
0000
0000
0000
0000
0000
0000
0000
0000
0000
0000
0000
0000
0000
0000
0000
0000
0000
0000
0000
0000
0000
0000
0011
0000
0000
0000
0000
0000
0000
0000
0000
0000
0000
0000
0011
0000
0000
0000
0000
0000
0000
0000
0000
0000
0000
0000
0000
0000
0000
0000
0000
0000
0000
0000
0000
0000
0000
0000
1100
0000
0000
0000
0000
0000
0000
0000
0000
0000
0000
0000
0000
0000
0000
0000
0000
0000
0000
0000
0000
0000
0000
0000
0010
0000
0000
1000
0000
0000
0000
0000
0000
0000
0000
0000
0000
0000
0000
0000
0000
0000
0000
0000
0000
0000
0000
0000
,
0101
0101
0000
0000
0022
0000
0000
0000
0000
0000
0000
0000
0000
0000
0000
0000
,
0000
0000
0000
0000
0000
0033
0000
0000
0000
0000
0000
0000
1100
0000
0000
1100
0000
0000
1100
0000
0000
1100
0000
0000
0000
0000
0000
0000
0000
0000
0110
0000
0000
0110
0000
0000
0110
0000
0000
0110
0000
0000
0000
0000
0000
0000
0000
0000
,
0101
0101
0000
0000
0022
0000
0000
0000
0000
0000
0000
0000
0000
0000
0000
0000
,
0000
0000
0000
0000
0000
0033
0000
0000
0000
0000
0000
0000
1001
0000
0000
0000
0000
0000
0000
0000
0000
0010
0000
0000
1000
0000
0000
0010
0000
0000
1000
0000
0000
0010
0000
0000
1000
0000
0000
0010
0000
0000
1000
0000
0000
0010
0000
0000
,
1000
0010
1000
0010
1100
0001
0100
1000
0101
0010
0100
0010
1001
0010
1000
0001
,
1010
0001
1000
0001
0110
1000
0010
0100
0011
0100
1000
0001
1100
0010
0001
1000
,
0101
1000
0010
0001
1110
0001
1100
0010
0100
0001
0110
1000
0010
0001
0100
0010
,
1100
0001
1000
0010
1001
0100
0001
1000
0011
0100
0010
0100
0001
0010
1000
0010
,
1001
0100
1000
0100
1011
0100
0001
0010
1100
0010
0100
0001
0110
1000
0001
0100
,
0011
1000
0010
0001
1010
0100
0010
1000
0101
0010
0001
1000
0011
0100
0010
1000
,
0110
0001
0100
0010
1101
0010
1000
0001
1100
0010
0001
1000
0011
0100
1001
0100
,
0010
1000
0001
0010
1100
0010
1000
0001
1000
0001
1000
0001
1000
0001
1000
0001
,
2100
0000
0000
3000
0102
0000
0000
0000
0100
0000
0003
0000
0120
0000
0030
0000
,
2100
0100
3100
0102
,
0100
0000
0000
0003
1120
0000
0000
0000
0100
0000
0030
0000
2100
0000
3000
0000
,
0102
0100
0103
0100
,
0100
0000
2101
0000
0100
3000
0102
0003
,
0120
0000
0100
0030
0100
0000
2100
0000
,
0100
0000
3112
0000
0100
0003
0120
0030
,
2100
0000
0000
0000
0101
0000
0000
0000
0000
0100
0001
0010
0100
0010
0001
0100
,
0010
0000
0000
0000
0001
0000
0000
0000
0100
0000
0000
0000
0001
0000
0000
0000
3120
0000
0000
0000
0000
0000
0000
0000
0030
0000
0000
0000
0000
0000
0000
0000
0000
0000
2000
3000
0000
0000
0000
0000
0000
0000
0000
0000
0000
0000
0000
0000
0020
0000
0030
0000
0000
0000
0000
0000
0000
0000
0000
0000
0000
0000
0000
0000
,
2000
0000
0000
0000
0000
0000
3000
0000
0000
0000
0000
0000
0000
0000
0000
0000
0000
0000
0000
0000
0000
0000
0000
0000
0002
0000
0000
0000
0000
0000
0000
0000
0000
0000
0000
0000
0000
0000
0000
0000
0000
0000
0000
0000
0000
0000
0000
0000
0000
0000
0000
0000
0000
0000
0000
0000
0000
0000
0000
0000
0000
0000
0000
0000
0000
0000
0000
0000
0000
0000
0000
0000
0003
0000
0000
0000
0000
0000
0000
0000
0000
0000
0000
0000
0000
0000
0000
0000
0000
0000
0000
0000
0000
0000
0000
0000
0200
0000
0000
0300
0000
0000
0000
0000
0000
0000
0000
0000
0000
0000
0000
0000
0000
0000
0000
0000
0000
0000
0000
0000
0000
0000
0000
0000
0000
0000
0000
0000
0000
0000
0000
0000
0000
0000
0000
0000
0000
0000
0000
0000
0000
0000
0000
0000
0020
0000
0000
0000
0000
0000
0000
0000
0000
0000
0000
0000
0000
0000
0000
0000
0000
0000
0000
0000
0000
0000
0000
0000
0000
0000
0000
0000
0030
0000
0000
0000
0000
0000
0000
0000
0010
0000
0000
0000
0000
0000
0000
0000
0000
0000
0000
0000
,
2000
0000
3000
0000
0000
0000
0000
0000
0000
0000
0000
0000
0000
0000
0000
0000
0120
0000
0000
0000
0000
0000
0000
0000
0030
0000
0000
0000
0000
0000
0000
0000
0000
0000
2000
3000
0000
0000
0000
0000
0000
0000
0000
0000
0000
0000
0000
0000
0020
0000
0030
0000
0000
0000
0000
0000
0000
0000
0000
0000
0000
0000
0000
0000
,
2000
3000
0000
0000
0000
0002
0000
0000
0000
0000
0000
0000
0000
0000
0000
0000
0000
0000
0000
0000
0000
0000
0000
0000
0000
0000
0000
0000
0000
0000
0000
0000
,
0003
0000
0000
0000
0000
0000
0000
0000
0200
0000
0000
0000
0000
0000
0000
0000
0000
0000
0000
0000
0000
0000
0000
0000
0000
0000
0000
0000
0300
0000
0000
0000
0000
0000
0000
0000
2000
3000
0000
0000
0000
0000
0000
0000
0000
0000
0000
0000
0020
0000
0030
0000
0000
0000
0000
0000
0000
0000
0000
0000
0000
0000
0000
0000
,
2000
0000
0000
0000
0000
0000
3000
0000
0000
0000
0000
0000
0000
0000
0000
0000
0000
0000
0000
0000
0000
0000
0000
0000
0000
0000
0000
0000
0000
0000
0002
0000
0000
0000
0000
0000
0000
0000
0000
0000
0000
0000
0000
0000
0000
0000
0000
0000
0000
0000
0000
0000
0000
0000
0000
0000
0000
0000
0000
0000
0000
0000
0000
0000
0000
0000
0000
0000
0000
0000
0000
0000
0003
0000
0000
0000
0000
0000
0000
0000
0000
0000
0000
0000
0000
0000
0000
0000
0000
0000
0000
0000
0000
0000
0000
0000
2000
0000
0000
0000
3000
0000
0000
0000
0000
0000
0000
0000
0000
0000
0000
0000
0000
0000
0000
0000
0000
0000
0000
0000
0000
0000
0000
0000
0000
0000
0000
0000
0000
0000
0000
0000
0000
0000
0000
0000
0000
0000
0000
0000
0000
0000
0000
0000
0200
0000
0000
0000
0000
0000
0000
0000
0000
0000
0000
0000
0000
0000
0000
0000
0000
0000
0000
0000
0000
0000
0000
0000
0000
0000
0000
0000
0000
0000
0300
0000
0000
0000
0000
0000
0000
0000
0000
0000
0000
0000
0000
0000
0000
0000
0000
0000
,
0020
0000
0000
0000
0000
0000
0000
0000
0000
0000
0000
0000
0000
0000
0030
0000
2001
0000
0000
0000
0000
0000
0000
0000
3000
0000
0000
0000
0000
0000
0000
0000
0020
0000
0030
0000
0000
0000
0000
0000
0000
0000
0000
0000
0000
0000
0000
0000
2000
3000
0000
0000
0000
0000
0000
0000
0000
0000
0000
0000
0000
0000
0020
0000
,
0030
0000
0100
0002
0000
0000
0000
0000
0000
0000
0000
0000
0200
0000
0000
0000
,
0003
0000
0000
0000
0000
0000
0000
0000
0000
0000
0000
0000
0000
0000
0000
0000
0000
0000
0000
0000
0000
0000
0000
0000
0000
0000
0000
0000
0000
0000
0000
0000
0000
0000
0000
0000
0000
0000
0000
0000
0000
0000
0300
0000
0000
0000
0000
0000
0010
0000
0000
0000
0000
0000
0000
0000
2000
0000
0000
0000
0000
0000
0000
0000
0000
0000
0000
0000
0000
0000
0000
0000
0000
0000
0000
0000
0000
0000
0000
0000
0000
0000
0000
0000
0000
0000
0000
0000
0000
0000
0000
0000
0000
0000
0000
0000
0000
0000
0000
0000
0000
0000
0000
0000
0000
0000
0000
0000
0000
0000
0000
0000
0000
0000
0000
0000
0000
0000
0000
0000
0000
0000
0000
0000
0000
0000
0000
0000
0000
0000
0000
0000
0000
0000
0000
0000
0000
0000
0000
0000
0000
0000
0000
0000
0000
0000
0000
0000
0000
0000
0000
0000
0000
0000
0000
0000
0000
0000
0000
0000
0000
0000
0000
0000
0000
0000
0000
0000
0000
0000
0000
0000
0000
0000
0000
0000
0000
0000
0000
0000
0000
0000
0000
0000
0000
0000
3000
0000
0000
0000
0000
0000
,
0010
0000
0100
0000
1000
0000
0000
0000
0200
0000
0000
0000
0000
0000
0000
0000
0000
0000
0000
0000
0000
0000
0300
0000
0020
0000
0000
0030
0000
0000
2000
0000
,
0000
3000
0000
0000
0200
0000
0300
0000
0012
0000
0000
0000
0000
0000
0000
0000
0000
0000
0000
0000
0000
0000
0000
0000
0000
0000
0000
0000
0000
0000
0003
0000
,
0200
0000
0000
0300
0001
2000
0000
0000
0000
0000
0000
0000
3010
0000
0001
0100
,
0000
0000
0000
0000
1000
0000
0000
0000
0101
0000
1000
0000
0100
0000
0001
0010
0100
0000
1000
0000
0100
0000
0010
0000
0100
0000
0001
0000
0010
0000
0100
0000
,
0001
0010
1000
0010
0100
1000
0100
0001
0010
1000
0100
0010
0100
0001
0010
0100
,
0001
0000
0000
0010
0000
0000
1000
0000
0000
0010
0000
0000
1200
0000
0000
0000
0000
0000
1000
0000
0000
1000
0000
0000
0000
0000
0000
0000
0000
0300
1002
0000
0000
0000
0000
0000
0010
0000
0000
1000
0000
0000
0013
0000
0000
1000
0000
0000
,
0020
0000
0000
1000
0000
0000
0130
0000
0000
1000
0000
0000
0201
0000
0000
0000
0000
0000
0011
0000
0000
0011
0000
0000
0000
0000
0000
0000
0000
0300
2000
0000
0000
0000
0000
0000
0010
0000
0000
0100
0000
0000
0010
0000
0000
3100
0000
0000
,
0020
0100
0031
0010
1201
0300
0011
0000
1000
0000
0011
0000
1000
0000
0011
0000
,
1000
0000
0011
0000
1000
0000
0011
0000
1000
0000
0012
0003
0210
0300
0001
0000
,
2100
3000
0201
0300
1021
0030
0110
0000
2010
3000
1002
0000
0103
0000
1010
0000
,
0100
0000
1010
0000
0100
0000
1010
0000
0100
0000
1010
0000
0210
0300
0011
0000
,
2010
3000
1002
0003
1021
0030
1100
0000
0102
0003
0210
0000
0301
0000
0110
0000
,
0001
0110
0001
0110
0001
0110
0001
0110
,
0001
0000
0000
0000
0000
0000
0110
0000
0000
0000
0000
0000
2001
0000
0000
0000
0000
0000
0011
0000
0000
0000
0000
0000
0100
0000
0000
0000
0000
3000
0021
0000
0000
0000
0000
0000
1000
0000
0000
0000
0000
0000
0131
0000
0000
0000
0000
0000
,
2000
0000
0000
0000
3011
0000
0000
0000
1200
0000
0000
0000
0010
0000
1000
0000
0001
0000
0010
0300
0002
0000
0010
0000
0100
0000
1000
0000
0010
0000
0103
0000
,
2000
0001
3100
1000
0020
0030
1001
0000
0010
0000
1001
0000
0010
0000
1001
0000
,
0010
0000
1001
0000
0010
0000
1001
0000
0010
0000
0201
0300
1002
0003
1010
0000
,
0021
0030
0210
0300
2101
3000
0011
0000
1200
0300
0102
0000
0013
0000
1100
0000
,
0010
0000
1100
0000
0010
0000
1100
0000
0010
0000
1100
0000
0201
0300
0011
0000
,
2101
3000
0021
0030
0211
0300
1010
0000
0102
0003
0120
0000
1030
0000
0101
0000
,
1000
0101
1010
0101
1000
0101
2000
3110
,
0002
0000
0000
0000
1103
0000
0000
0000
0020
0000
0000
0000
1100
0000
0000
0000
0001
0000
0000
0000
1100
0000
0000
0030
0002
0000
1000
0000
0100
0000
0010
0003
,
2000
0000
0000
0000
0000
0000
0000
0000
0000
0000
0000
0000
0001
0000
0000
0000
0000
0000
3000
0000
0000
0000
0000
0000
0200
0000
0000
0000
0000
0000
0000
0000
0000
0000
0000
0000
0001
0000
0000
0000
0000
0000
0300
0000
0000
0000
0000
0000
1010
0000
0000
0000
0000
0000
0000
0000
0000
0000
0000
0000
0000
0000
0000
0000
0000
0000
0000
0000
0000
0000
0000
0000
0000
0000
0000
0000
0000
0000
0000
0000
0000
0000
0000
0000
0000
0000
0000
0000
0000
0000
0000
0000
0000
0000
0000
0000
0000
0000
0000
0000
0000
0000
0000
0000
0000
0000
0000
0000
0000
0000
0000
0000
0000
0000
0000
0000
0000
0000
0000
0000
0000
0000
0000
0000
0000
0000
0000
0000
0000
0000
0000
0000
0000
0000
0000
0000
0000
0000
0000
0000
0000
0000
0000
0000
0000
0000
0000
0000
0000
0000
0000
0000
0000
0000
0000
0000
0000
0000
0000
0000
0000
0000
0000
0000
0000
0000
0000
0000
0000
0000
0000
0000
0000
0000
0000
0000
1001
0000
0000
0000
0000
0000
0000
0000
0000
0000
0110
0000
0000
0000
0000
0000
,
0000
0000
0000
0000
0000
0000
0110
0000
0000
0000
0000
0000
1101
0000
0000
0000
0000
0000
1010
0000
0000
0000
0000
0000
0002
0003
0000
0000
0000
0000
1010
0000
0000
0000
0000
0000
0200
0300
0000
0000
0000
0000
0021
0030
0000
0000
0000
0000
,
2000
0000
0000
0000
3000
0000
0110
0000
0000
0000
0000
0000
0002
0003
0000
0000
0000
0000
2010
3000
0000
0000
0000
0000
0200
0300
0000
0000
0000
0000
1020
0030
0000
0000
0000
0000
0002
0000
0000
0000
0000
0000
1013
0000
0000
0000
0000
0000
,
0200
0000
0000
0000
0300
0000
0011
0000
0000
0000
0000
0000
0110
0000
0000
0000
0000
0000
2010
3000
0000
0000
0000
0000
0002
0003
0000
0000
0000
0000
1200
0300
0000
0000
0000
0000
0020
0030
0000
0000
0000
0000
1002
0003
0000
0000
0000
0000
,
0200
0300
0000
0000
0000
0000
0021
0030
0000
0000
0000
0000
2000
0000
0000
0000
0000
0000
3101
0000
0000
0000
0000
0000
0002
0003
0020
0030
2000
3000
0201
0300
0000
0000
0000
0000
0020
0000
0000
0000
0030
0000
0101
0000
0000
0000
0000
0000
,
2000
0000
0000
0000
3000
0000
0011
0000
0000
0000
0000
0000
0210
0000
0000
0000
0000
0000
1310
0000
0000
0000
0000
0000
0002
0003
0000
0000
0000
0000
1010
0000
0000
0000
0000
0000
0200
0300
0000
0000
0000
0000
0021
0030
0000
0000
0000
0000
,
2000
0000
0000
0000
0000
0000
3110
0000
0000
0000
0000
0000
0002
0000
0000
0000
0003
0000
1100
0000
0000
0000
0000
0000
0020
0030
0000
0000
0000
0000
0201
0300
0000
0000
0000
0000
2000
3000
0000
0000
0000
0000
0210
0300
0000
0000
0000
0000
,
1012
0000
0000
0003
0000
0000
0000
0000
0000
0000
0000
0000
0000
0000
0000
0000
0000
0000
0000
0000
0000
0000
0000
0000
0000
0000
0000
0000
0000
0000
0000
0000
0000
0000
0000
0000
0000
0000
0000
0000
0000
0000
0000
0000
0000
0000
0000
0000
0000
0000
0000
0000
0000
0000
0000
0000
0000
0000
0000
0000
0000
0000
0000
0000
0000
0000
0000
0000
0000
0000
0000
0000
0000
0000
0000
0000
0000
0000
0000
0000
1100
0000
0000
0000
0000
0000
0000
0000
0000
0000
0000
0000
0000
0000
0000
0000
1100
0000
0000
0000
0000
0000
0000
0000
0000
0000
0000
0000
0000
0000
0000
0000
1010
0000
0000
0000
0000
0000
0000
0000
0000
0000
0000
0000
0000
0000
0000
0000
0110
0000
0000
0000
0000
0000
0000
0000
0000
0000
0000
0000
0000
0000
0000
0000
0101
0000
0000
0000
0000
0000
0000
0000
0000
0000
0000
0000
0000
0000
0000
0000
0000
0000
0000
0000
0000
0000
0000
0000
0000
0000
0000
0000
0000
0000
0000
0000
0000
0000
0000
0000
0000
0000
0000
0000
0000
0000
0000
0000
0000
0000
0000
0000
,
1010
0000
0000
0000
0000
0000
0000
0000
0000
0000
0000
0000
0000
0000
0000
0000
0110
0000
0000
0000
0000
0000
0000
0000
0000
0000
0000
0000
0000
0000
0000
0000
0101
0000
0000
0000
0000
0000
0000
0000
0000
0000
0000
0000
0000
0000
0000
0000
0011
0000
0000
0000
0000
0000
0000
0000
0000
0000
0000
0000
0000
0000
0000
0000
0000
0000
0000
0000
0000
0000
0000
0000
0000
0000
0000
0000
0000
0000
0000
0000
0000
0000
0000
0000
0000
0000
0000
0000
0000
0000
0000
0000
0000
0000
0000
0000
1000
0000
0000
0000
0000
0000
0001
0000
0000
0000
0000
0000
0000
0000
0000
0000
0100
0000
0000
0000
0000
0000
0000
0000
0000
0000
0000
0000
0000
0000
0000
0000
1010
0000
0000
0000
0000
0000
0000
0000
0000
0000
0000
0000
0000
0000
0000
0000
0110
0000
0000
0000
0000
0000
0000
0000
0000
0000
0000
0000
0000
0000
0000
0000
1100
0000
0000
0000
0000
0000
0000
0000
0000
0000
0000
0000
0000
0000
0000
0000
1001
0000
0000
0000
0000
0000
0000
0000
0000
0000
0000
0000
0000
0000
0000
0000
,
0101
0000
0000
0000
0110
0000
0000
0000
0011
0000
0000
0000
1102
0000
0000
0003
0000
0000
0000
0000
0000
0000
0000
0000
0000
0000
0000
0000
0000
0000
0000
0000
0000
0000
0000
0000
0000
0000
0000
0000
0000
0000
0000
0000
0000
0000
0000
0000
,
0000
0000
0000
0000
,
0000
0000
0000
0000
,
0000
0000
0000
0000
,
0000
0000
0000
0000
,
1000
0000
0000
0000
;

//---------------dance-single - ----------------
#NOTES:
     dance-single:
     :
     Hard:
     11:
     1.000,1.000,0.697,0.334,1.000,1619.000,186.000,89.000,0.000,0.000:
0100
0000
0001
0000
0100
0010
1000
0000
,
0001
1000
0100
0010
0001
0000
0100
0000
,
0000
1000
0001
0100
0010
0001
0100
0010
,
1000
0000
0000
0000
0000
0010
0001
0010
0100
1000
0000
0000
0010
0000
0000
0000
0000
0000
1000
0000
0000
0000
0000
0000
,
0100
0000
0000
0000
0001
0000
0000
0000
0100
0000
0010
0000
1000
0000
0000
0001
,
0100
0010
1000
0000
0100
0000
0010
0000
0100
0000
0010
0000
0001
0000
0000
0000
,
0000
1000
0001
0100
0010
0001
0100
0010
,
1000
0000
0000
0000
0000
0000
0000
0000
0000
0000
0000
0000
0000
0000
0000
0000
0100
0000
0000
0000
0000
0000
0000
0000
1000
0000
0000
0000
0000
0000
0000
0000
0011
0000
0000
0000
0000
0000
0000
0000
0100
0000
0000
0000
0000
0010
0000
0000
0000
1001
0000
0000
0000
0000
0000
0000
0011
0000
0000
0000
0000
0000
0000
0000
,
1100
0000
0001
0000
0100
0010
1000
0000
,
0001
1000
0100
0010
0001
0000
0100
0000
,
0000
1000
0001
0100
0010
0001
0100
0010
,
1000
0000
0000
0000
0000
0000
0001
0010
0100
1000
0000
0000
0010
0000
0000
0000
0000
0000
1000
0000
0000
0000
0000
0000
,
0101
0000
0001
0000
0100
0010
1000
0000
,
0001
0000
0010
0100
1000
0010
1001
0000
,
0000
0000
1000
0100
0010
0100
0010
0000
0000
0100
0010
0100
,
0010
0000
0000
0000
0000
0000
0000
0000
0000
0000
0000
0000
0000
0000
0000
0000
0000
0000
0000
0000
0000
0000
0000
0000
0000
0000
0000
0000
0000
0000
0000
0000
0000
0000
0000
0000
0000
0000
0000
0000
0000
0000
0000
0000
0000
0000
0000
0000
1000
0000
0000
0000
0000
0000
0001
0000
0000
0000
0000
0000
0000
0000
0000
0000
0100
0000
0000
0000
0000
0000
0000
0000
0000
0000
0000
0000
0000
0000
0000
0000
0010
0000
0000
0000
0000
0000
0000
0000
0000
0000
0000
0000
0000
0000
0000
0000
1000
0000
0000
0000
0000
0000
0000
0000
0000
0000
0000
0000
0000
0000
0000
0000
0100
0000
0000
0000
0000
0000
0000
0000
0000
0000
0000
0000
0000
0000
0000
0000
0010
0000
0000
0000
0000
0000
0000
0000
0000
0000
0000
0000
0000
0000
0000
0000
0001
0000
0000
0000
0000
0000
0000
0000
0000
0000
0000
0000
0000
0000
0000
0000
0010
0000
0000
0000
0000
0000
0000
0000
0000
0000
0000
0000
0000
0000
0000
0000
0100
0000
0000
0000
0000
0000
0000
0000
0000
0000
0000
0000
0000
0000
0000
0000
,
1001
1000
0100
0000
0011
0000
0100
0100
0010
0010
0001
0000
0011
0001
1000
0000
,
1000
0000
1000
0000
0100
0000
0000
0000
0011
0000
0000
0000
0100
0000
0100
0000
0010
0000
0001
0000
0100
0000
0100
0000
0022
0000
0000
0000
0000
0000
0000
0033
,
1000
1000
0100
0000
0011
0000
0100
0100
0010
0010
0001
0000
0011
0001
1000
0000
,
1010
0000
1010
0000
0110
0000
0000
0000
0000
0000
0000
0000
0110
0000
0110
0000
0101
0000
0011
0000
0110
0000
0110
0000
0022
0000
0000
0000
0000
0000
0000
0033
,
0100
0100
0010
0000
1100
0000
0010
0010
0001
0001
1000
0000
1100
1000
0100
0000
,
0100
0000
0100
0000
0010
0000
0000
0000
1100
0000
0000
0000
0010
0000
0010
0000
0100
0000
0001
0000
0010
0000
0010
0000
2200
0000
0000
0000
0000
0000
0000
3300
,
0010
0010
0001
0000
0110
0000
0001
0001
1000
1000
0100
0000
0110
0100
0010
0000
,
0010
0000
0010
0000
0001
0000
0000
0000
0110
0000
0000
0000
0001
0000
0001
0000
1000
0000
0010
0000
0001
0000
0001
0000
2020
0000
0000
0000
0000
0000
0000
3030
,
0001
0001
1000
0000
0110
0000
1000
1000
0100
0100
0010
0000
0110
0010
0001
0000
,
0001
0000
0001
0000
1000
0000
0000
0000
0110
0000
0000
0000
1000
0000
1000
0000
0001
0000
0010
0000
1000
0000
1000
0000
0220
0000
0000
0000
0000
0000
0000
0330
,
1000
1000
0100
0000
1001
0000
0100
0100
0010
0010
0001
0000
1001
0001
1000
0000
,
1000
1000
0100
0000
1001
0000
0100
0100
0010
0001
0100
0100
0001
1000
0001
1000
,
0001
1000
0001
1000
0010
0100
0010
1000
0100
0010
0100
1000
0010
0100
0001
1000
,
0001
0100
0001
0010
0100
1000
0100
0010
0001
0100
0010
1000
0001
1000
0001
0100
,
0010
1000
0100
0010
0100
0010
0001
0100
0010
1000
0010
0100
0010
1000
0100
0010
,
0001
0100
0010
1000
0001
0010
0001
0010
0100
1000
0100
1000
0010
0100
0001
1000
,
0010
1000
0001
0100
0010
1000
0100
1000
0001
0010
0001
0100
0010
1000
0100
0010
,
0100
1000
0100
0010
0001
0100
0010
0100
0001
1000
0010
0100
0001
0010
0100
0010
,
0001
0000
0000
1000
0000
0000
0010
0000
0000
0100
0000
0000
0021
0000
0000
0000
0000
0000
0000
0000
0000
0000
0000
0000
0000
0000
0000
0000
0000
0030
2000
0000
0000
0000
0000
0000
0000
0000
0000
0000
0000
0000
3000
0000
0000
0000
0000
0000
,
0002
0000
0003
0000
0100
0010
0000
0000
0100
0010
1000
0100
0010
0001
0010
0100
,
1001
0000
0000
0000
1001
0000
1000
0010
0100
0010
0100
0001
0010
0100
1000
0100
,
0010
0001
0100
0010
0100
0001
1000
0100
0010
0001
1010
0000
0011
0000
1000
0000
,
0101
0000
0110
0000
1100
0000
0010
0000
1001
0000
1010
0000
0100
0010
0001
0010
,
0100
1000
0010
0100
0001
1000
0001
1000
0010
0100
0001
1000
0011
0000
0100
0000
,
1001
0000
1010
0000
0101
0000
0010
0000
1100
0000
0110
0000
0001
1000
0100
0010
,
0001
0100
0010
0100
0001
1000
0100
0010
0100
0010
0001
1000
0100
0010
0001
1000
,
0001
0000
0000
0100
0000
0000
0010
0000
0000
1000
0000
0000
0002
0000
0000
0000
0000
0000
0000
0000
0000
0000
0000
0000
0000
0000
0000
0000
0000
0003
0200
0000
0000
0000
0000
0000
0000
0000
0000
0000
0000
0000
0300
0000
0000
0000
0000
0000
,
0020
0000
0030
0000
2000
0000
0000
3010
0100
0010
0100
0001
1000
0010
0100
0001
,
1100
0000
0000
0000
0011
0000
0100
0010
1000
0001
0100
0001
1000
0100
1000
0010
,
0100
0001
0100
0010
0100
0001
0010
0100
1000
0010
1100
0000
0101
0000
0010
0000
,
1001
0000
0011
0000
1010
0000
0100
0000
1001
0000
0110
0000
1000
0010
1000
0010
,
0100
0001
0100
0010
1000
0100
0010
0001
0010
0100
1000
0010
1001
0000
0100
0000
,
0011
0000
0110
0000
1100
0000
0010
0000
0101
0000
0110
0000
0010
1000
0001
0100
,
0001
1000
0100
0010
0001
1000
0010
1000
0010
0100
0001
1000
0020
0000
0030
0000
,
0200
0000
0000
0000
0300
0000
0000
0000
2001
0000
0000
0000
0000
0000
0000
0000
0000
0000
0000
0000
0000
0000
0000
3000
0002
0000
0000
0000
0000
0000
0000
0003
,
0100
0000
0000
0000
0010
0000
0000
0000
0100
0000
0000
0000
0010
0000
0000
0000
1001
0000
0000
0000
0000
0000
0000
0000
0000
0000
0000
0000
0000
0000
0000
0000
0000
0000
0000
0000
0000
0000
0000
0000
0000
0000
0000
0000
0000
0000
0000
0000
0000
0000
0000
0000
0000
0000
0000
0000
0000
0000
0010
0000
0000
1000
0000
0000
,
0001
0101
1010
0000
0001
0000
0100
0010
,
1000
0000
0001
1000
0100
0010
0001
0000
,
0100
0000
0000
1000
0001
0100
0010
0001
,
0100
0000
0000
0010
0000
0000
1000
0000
0000
0000
0000
0000
0001
0010
0100
1000
0000
0000
0010
0000
0000
0000
0000
0000
,
1010
0000
0110
0000
0001
0000
0100
0010
,
1000
0000
0000
0010
0100
0000
1000
0000
0010
0000
0100
0000
1000
0000
0100
0000
,
0001
0000
0000
1000
0001
0100
0010
0001
,
0100
0000
0010
0000
1000
0000
0000
0001
1100
0000
1010
0000
0101
0000
0011
0000
,
1001
0000
0101
0000
1001
1000
0100
0000
0011
0000
0100
0100
0010
0010
0001
0000
,
0011
0001
1000
0000
1000
1000
0100
0000
0011
0000
0100
0100
0010
0001
0100
0100
,
0022
0000
0000
0000
0000
0000
0000
0033
1000
0000
1000
0000
0100
0000
0000
0000
0011
0000
0000
0000
0100
0000
0100
0000
0010
0000
0010
0000
0001
0000
0000
0000
,
0011
0001
1000
0000
1010
1010
0110
0000
0000
0000
0110
0110
0101
0011
0110
0110
,
0101
0001
1000
0000
0011
0000
1000
1000
0100
0100
0010
0000
0011
0010
0001
0000
,
0001
0000
0001
0000
1000
0000
0000
0000
0011
0000
0000
0000
1000
0000
1000
0000
0001
0000
0100
0000
1000
0000
1000
0000
0220
0000
0000
0000
0000
0000
0000
0330
,
1000
1000
0100
0000
1001
0000
0100
0100
0010
0010
0001
0000
1001
0001
1000
0000
,
1000
1000
0100
0000
1001
0000
0100
0100
0010
0001
0100
0100
0001
1000
0001
1000
,
0001
1000
0001
1000
0010
0100
0001
0010
0100
0010
0001
0100
0010
1000
0100
0010
,
0100
1000
0010
0100
0001
1000
0001
1000
0010
0100
0010
0100
0001
1000
0001
0100
,
0001
0010
0100
1000
0100
0010
0001
0010
0100
0010
0001
0100
0010
1000
0100
1000
,
0010
0100
0010
0100
0001
0100
0001
0010
0100
1000
0010
0100
0001
1000
0001
0010
,
0001
0010
0100
1000
0100
1000
0010
0100
0001
1000
0001
0010
0100
1000
0001
1000
,
0100
1000
0010
0100
0001
1000
0010
1000
0010
0100
0001
1000
0100
0010
0001
0010
,
0100
0000
0000
1000
0000
0000
0010
0000
0000
0100
0000
0000
0021
0000
0000
0000
0000
0000
0000
0000
0000
0000
0000
0000
0000
0000
0000
0000
0000
0030
2000
0000
0000
0000
0000
0000
0000
0000
0000
0000
0000
0000
3000
0000
0000
0000
0000
0000
,
0002
0000
0003
0000
1000
0100
0010
0001
1000
0010
0100
0001
1000
0100
0010
0001
,
0110
0000
0000
0000
0110
0000
1000
0010
0100
0010
1000
0001
0010
0001
0010
0100
,
1000
0010
0100
0001
1000
0100
1000
0100
0010
0001
0110
0000
1010
0000
0100
0000
,
0011
0000
1001
0000
1100
0000
0010
0000
0101
0000
1001
0000
0010
1000
0010
0100
,
0001
0100
0010
1000
0100
0010
0001
0100
0010
0100
0010
1000
0011
0000
0100
0000
,
1001
0000
1010
0000
0110
0000
1000
0000
0101
0000
0011
0000
0100
0010
0100
0010
,
1000
0001
1000
0001
0100
0010
1000
0001
0100
0001
1000
0001
0010
0100
1000
0010
,
0100
0000
0000
0001
0000
0000
1000
0000
0000
0010
0000
0000
0200
0000
0000
0000
0000
0000
0000
0000
0000
0000
0000
0000
0000
0000
0000
0000
0000
0300
0002
0000
0000
0000
0000
0000
0000
0000
0000
0000
0000
0000
0003
0000
0000
0000
0000
0000
,
2000
0000
0000
0000
3000
0000
0000
0000
0020
0000
0000
0000
0000
0000
0100
0000
0000
0000
0000
0030
0010
0000
1000
0000
0001
0000
0010
0000
0100
0000
1000
0000
,
0101
0000
0000
0000
0101
0000
0010
0100
0001
0010
0001
1000
0010
1000
0100
0010
,
0001
0100
0010
1000
0001
1000
0001
0100
0010
1000
0011
0000
1100
0000
0010
0000
,
0101
0000
1001
0000
1010
0000
0100
0000
0011
0000
0101
0000
0010
1000
0010
0100
,
0001
1000
0001
1000
0010
0100
0001
0010
0100
1000
0100
0010
0101
0000
1000
0000
,
0011
0000
0110
0000
1010
0000
0100
0000
1001
0000
1100
0000
0010
0100
0001
1000
,
0010
1000
0001
1000
0100
0010
0001
0100
0010
1000
0010
0100
0002
0000
0003
0000
,
0200
0000
0000
0000
0300
0000
0000
0000
1020
0000
0000
0000
0000
0000
0000
0000
0000
0000
0000
0000
0000
0000
0000
0030
2000
0000
0000
0000
0000
0000
0000
3000
,
0002
0000
0000
0003
0200
0000
0000
0000
0000
0000
0000
0000
0310
0000
1000
0000
0001
0000
0100
0000
0001
0000
0100
0000
0010
0000
1000
0000
0100
0000
0010
0000
,
0001
0010
0100
1000
0022
0000
0000
0000
0000
0000
0000
0000
0000
0000
0000
0000
,
0000
0000
0000
0000
0000
0033
0000
0000
0000
0000
0000
0000
1000
0000
0000
0000
0000
0000
0010
0000
0000
1000
0000
0000
0000
0000
0000
0000
0000
0000
0100
0000
0000
0000
0000
0000
0001
0000
0000
0010
0000
0000
0001
0000
0000
0010
0000
0000
,
0001
0010
0000
0000
0022
0000
0000
0000
0000
0000
0000
0000
0000
0000
0000
0000
,
0000
0000
0000
0000
0000
0033
0000
0000
0000
0000
0000
0000
0100
0000
0000
0000
0000
0000
0010
0000
0000
0100
0000
0000
0000
0000
0000
0100
0000
0000
1000
0000
0000
0000
0000
0000
0010
0000
0000
0000
0000
0000
0101
0000
0000
0000
0000
0000
,
0010
0100
0000
0000
0022
0000
0000
0000
0000
0000
0000
0000
0000
0000
0000
0000
,
0000
0000
0000
0000
0000
0033
0000
0000
0000
0000
0000
0000
0100
0000
0000
0010
0000
0000
0100
0000
0000
0010
0000
0000
0000
0000
0000
0000
0000
0000
0100
0000
0000
0001
0000
0000
0100
0000
0000
0001
0000
0000
0000
0000
0000
0000
0000
0000
,
1000
0001
0000
0000
0022
0000
0000
0000
0000
0000
0000
0000
0000
0000
0000
0000
,
0000
0000
0000
0000
0000
0033
0000
0000
0000
0000
0000
0000
1001
0000
0000
0000
0000
0000
0000
0000
0000
0010
0000
0000
1000
0000
0000
0010
0000
0000
1000
0000
0000
0010
0000
0000
1000
0000
0000
0010
0000
0000
1000
0000
0000
0010
0000
0000
,
1000
0010
1000
0010
0100
0001
0100
0001
1000
0100
1000
0100
0010
0001
0010
0001
,
0100
0010
0100
0010
1000
0001
1000
0001
0100
0001
0100
0001
1000
0100
1000
0100
,
0010
0001
0010
0001
0100
0010
1000
0001
1000
0001
0100
0010
0100
0010
0100
0010
,
1000
0010
1000
0010
0100
0001
0100
0001
0010
0100
1000
0010
0100
0001
0100
0010
,
1000
0001
1000
0001
0010
0001
0010
0001
1000
0010
1000
0010
0100
0001
0100
0001
,
0010
0100
0010
0100
1000
0010
1000
0010
0100
0001
0100
0001
1000
0100
1000
0100
,
0010
0001
0010
0001
0100
0010
0100
0010
1000
0001
1000
0001
0100
0001
1000
0010
,
1000
0010
1000
0100
0010
0001
0100
0010
0100
0010
0100
0010
0100
0010
0100
0010
,
1100
0000
0000
0000
0011
0100
0010
1000
0100
0010
0001
1000
0100
0010
0001
0010
,
0100
1000
0010
0100
0001
1000
0001
1000
0100
0010
0001
0100
0010
1000
0100
1000
,
0001
0100
0001
1000
0010
1000
0001
1000
0010
0100
0001
0010
0100
0010
0001
0100
,
0010
1000
0001
0100
0001
1000
0001
0010
0100
0010
0001
0010
0100
1000
0010
0100
,
0010
0100
0001
1000
0010
1000
0010
0100
0001
0100
0001
0010
0100
1000
0100
0010
,
0001
0100
0010
0100
0001
1000
0100
1000
0010
0100
0001
1000
0100
0010
0001
0100
,
0001
1000
0010
0100
0001
1000
0001
1000
0010
0100
0010
0100
0001
1000
0100
0010
,
0001
0100
0010
1000
0011
0000
0000
0000
0000
0100
0001
0010
0100
0010
0001
1000
,
0100
0000
0000
0000
0010
0000
0000
0000
0001
0000
0000
0000
1000
0000
0000
0000
0021
0000
0000
0000
0000
0000
0000
0000
0030
0000
0000
0000
0000
0000
0000
0000
0000
0000
2000
3000
0000
0000
0000
0000
0000
0000
0000
0000
0000
0000
0000
0000
0020
0000
0030
0000
0000
0000
0000
0000
0000
0000
0000
0000
0000
0000
0000
0000
,
2000
0000
0000
0000
0000
0000
3000
0000
0000
0000
0000
0000
0000
0000
0000
0000
0000
0000
0000
0000
0000
0000
0000
0000
0002
0000
0000
0000
0000
0000
0000
0000
0000
0000
0000
0000
0000
0000
0000
0000
0000
0000
0000
0000
0000
0000
0000
0000
0000
0000
0000
0000
0000
0000
0000
0000
0000
0000
0000
0000
0000
0000
0000
0000
0000
0000
0000
0000
0000
0000
0000
0000
0003
0000
0000
0000
0000
0000
0000
0000
0000
0000
0000
0000
0000
0000
0000
0000
0000
0000
0000
0000
0000
0000
0000
0000
0200
0000
0000
0300
0000
0000
0000
0000
0000
0000
0000
0000
0000
0000
0000
0000
0000
0000
0000
0000
0000
0000
0000
0000
0000
0000
0000
0000
0000
0000
0000
0000
0000
0000
0000
0000
0000
0000
0000
0000
0000
0000
0000
0000
0000
0000
0000
0000
0020
0000
0000
0000
0000
0000
0000
0000
0000
0000
0000
0000
0000
0000
0000
0000
0000
0000
0000
0000
0000
0000
0000
0000
0000
0000
0000
0000
0030
0000
0000
0000
0000
0000
0000
0000
0010
0000
0000
0000
0000
0000
0000
0000
0000
0000
0000
0000
,
2000
0000
3000
0000
0000
0000
0000
0000
0000
0000
0000
0000
0000
0000
0000
0000
0120
0000
0000
0000
0000
0000
0000
0000
0030
0000
0000
0000
0000
0000
0000
0000
0000
0000
2000
3000
0000
0000
0000
0000
0000
0000
0000
0000
0000
0000
0000
0000
0020
0000
0030
0000
0000
0000
0000
0000
0000
0000
0000
0000
0000
0000
0000
0000
,
2000
3000
0000
0000
0000
0002
0000
0000
0000
0000
0000
0000
0000
0000
0000
0000
0000
0000
0000
0000
0000
0000
0000
0000
0000
0000
0000
0000
0000
0000
0000
0000
,
0003
0000
0000
0000
0000
0000
0000
0000
0200
0000
0000
0000
0000
0000
0000
0000
0000
0000
0000
0000
0000
0000
0000
0000
0000
0000
0000
0000
0300
0000
0000
0000
0000
0000
0000
0000
2000
3000
0000
0000
0000
0000
0000
0000
0000
0000
0000
0000
0020
0000
0030
0000
0000
0000
0000
0000
0000
0000
0000
0000
0000
0000
0000
0000
,
2000
0000
0000
0000
0000
0000
3000
0000
0000
0000
0000
0000
0000
0000
0000
0000
0000
0000
0000
0000
0000
0000
0000
0000
0000
0000
0000
0000
0000
0000
0002
0000
0000
0000
0000
0000
0000
0000
0000
0000
0000
0000
0000
0000
0000
0000
0000
0000
0000
0000
0000
0000
0000
0000
0000
0000
0000
0000
0000
0000
0000
0000
0000
0000
0000
0000
0000
0000
0000
0000
0000
0000
0003
0000
0000
0000
0000
0000
0000
0000
0000
0000
0000
0000
0000
0000
0000
0000
0000
0000
0000
0000
0000
0000
0000
0000
2000
0000
0000
0000
3000
0000
0000
0000
0000
0000
0000
0000
0000
0000
0000
0000
0000
0000
0000
0000
0000
0000
0000
0000
0000
0000
0000
0000
0000
0000
0000
0000
0000
0000
0000
0000
0000
0000
0000
0000
0000
0000
0000
0000
0000
0000
0000
0000
0200
0000
0000
0000
0000
0000
0000
0000
0000
0000
0000
0000
0000
0000
0000
0000
0000
0000
0000
0000
0000
0000
0000
0000
0000
0000
0000
0000
0000
0000
0300
0000
0000
0000
0000
0000
0000
0000
0000
0000
0000
0000
0000
0000
0000
0000
0000
0000
,
0020
0000
0000
0000
0000
0000
0000
0000
0000
0000
0000
0000
0000
0000
0030
0000
2001
0000
0000
0000
0000
0000
0000
0000
3000
0000
0000
0000
0000
0000
0000
0000
0020
0000
0030
0000
0000
0000
0000
0000
0000
0000
0000
0000
0000
0000
0000
0000
2000
3000
0000
0000
0000
0000
0000
0000
0000
0000
0000
0000
0000
0000
0020
0000
,
0030
0000
0100
0002
0000
0000
0000
0000
0000
0000
0000
0000
0200
0000
0000
0000
,
0003
0000
0000
0000
0000
0000
0000
0000
0000
0000
0000
0000
0000
0000
0000
0000
0000
0000
0000
0000
0000
0000
0000
0000
0000
0000
0000
0000
0000
0000
0000
0000
0000
0000
0000
0000
0000
0000
0000
0000
0000
0000
0300
0000
0000
0000
0000
0000
0010
0000
0000
0000
0000
0000
0000
0000
2000
0000
0000
0000
0000
0000
0000
0000
0000
0000
0000
0000
0000
0000
0000
0000
0000
0000
0000
0000
0000
0000
0000
0000
0000
0000
0000
0000
0000
0000
0000
0000
0000
0000
0000
0000
0000
0000
0000
0000
0000
0000
0000
0000
0000
0000
0000
0000
0000
0000
0000
0000
0000
0000
0000
0000
0000
0000
0000
0000
0000
0000
0000
0000
0000
0000
0000
0000
0000
0000
0000
0000
0000
0000
0000
0000
0000
0000
0000
0000
0000
0000
0000
0000
0000
0000
0000
0000
0000
0000
0000
0000
0000
0000
0000
0000
0000
0000
0000
0000
0000
0000
0000
0000
0000
0000
0000
0000
0000
0000
0000
0000
0000
0000
0000
0000
0000
0000
0000
0000
0000
0000
0000
0000
0000
0000
0000
0000
0000
0000
3000
0000
0000
0000
0000
0000
,
0010
0000
0100
0000
1000
0000
0000
0000
0200
0000
0000
0000
0000
0000
0000
0000
0000
0000
0000
0000
0000
0000
0300
0000
0020
0000
0000
0030
0000
0000
2000
0000
,
0000
3000
0000
0000
0200
0000
0300
0000
0012
0000
0000
0000
0000
0000
0000
0000
0000
0000
0000
0000
0000
0000
0000
0000
0000
0000
0000
0000
0000
0000
0003
0000
,
0200
0000
0000
0300
0001
2000
0000
0000
0000
0000
0000
0000
3010
0000
0001
0100
,
0000
0000
0000
0000
1000
0000
0000
0000
0001
0000
1000
0000
0010
0000
0100
0010
1000
0000
0001
0000
1000
0000
0100
0000
0010
0000
0001
0000
0010
0000
0100
0000
,
0010
0001
0010
0100
1000
0001
0100
0010
0100
0001
1000
0100
0010
0001
0010
0100
,
0010
0001
0010
0100
1000
0000
0010
0100
0000
0000
0010
0000
0010
1000
0010
1000
,
0001
1000
0100
1000
0001
0000
0100
0001
0000
0000
1000
0000
0010
0100
0010
0100
,
0001
0100
0001
1000
0101
0000
0010
1000
0100
0010
0100
0010
0001
1000
0010
0100
,
0010
0100
0001
0010
0100
1000
0100
0010
0001
0100
0011
0000
1001
0000
0100
0000
,
1010
0000
0110
0000
0101
0000
0010
0000
1100
0000
0101
0000
0010
0100
0001
1000
,
0001
1000
0010
0100
0001
1000
0100
0010
0001
0010
0100
1000
0101
0000
0010
0000
,
1001
0000
1010
0000
1100
0000
0010
0000
0101
0000
0011
0000
0100
0010
1000
0100
,
1000
0010
0100
0001
0100
0010
1000
0100
0010
0001
0010
0100
1000
0010
0100
0001
,
1000
0000
0000
0001
0000
0000
0100
0000
0000
0010
0000
0000
2000
0000
0000
0000
0000
0000
0000
0000
0000
0000
0000
0000
0000
0000
0000
0000
0000
3000
0020
0000
0000
0000
0000
0000
0000
0000
0000
0000
0000
0000
0030
0000
0000
0000
0000
0000
,
2000
0000
3000
0000
0011
0000
0001
0010
0100
0010
0001
0010
0100
1000
0100
0010
,
0001
1000
0100
0010
0100
0000
1000
0100
0010
0001
0100
0010
0100
0010
1000
0100
,
0010
0001
0010
0100
1000
0010
0100
0001
0100
0010
1100
0000
0011
0000
0100
0000
,
1010
0000
1001
0000
0101
0000
0010
0000
1100
0000
0110
0000
0001
0010
0001
0010
,
0100
1000
0010
0100
0010
0100
0001
1000
0001
0010
0001
1000
0101
0000
0010
0000
,
1100
0000
0110
0000
0011
0000
0100
0000
1001
0000
1010
0000
0100
0010
0100
0001
,
1000
0100
0010
0001
0100
0010
1000
0001
1000
0001
0100
0010
2000
0000
3000
0000
,
0002
0000
0000
0000
0003
0000
0000
0000
0020
0000
0000
0000
0000
0000
0000
0000
0000
0000
0000
0000
0000
0000
0000
0030
0100
0000
0001
0000
0100
0000
0010
0000
,
1000
0000
0000
0000
0000
0000
0000
0000
0000
0000
0000
0000
0100
0000
0000
0000
0000
0000
0000
0000
0000
0000
0000
0000
0010
0000
0000
0000
0000
0000
0000
0000
0000
0000
0000
0000
0001
0000
0000
0000
0000
0000
0000
0000
0000
0000
0000
0000
0110
0000
0000
0000
0000
0000
0000
0000
0000
0000
0000
0000
0000
0000
0000
0000
0000
0000
0000
0000
0000
0000
0000
0000
0000
0000
0000
0000
0000
0000
0000
0000
0000
0000
0000
0000
0000
0000
0000
0000
0000
0000
0000
0000
0000
0000
0000
0000
0000
0000
0000
0000
0000
0000
0000
0000
0000
0000
0000
0000
0000
0000
0000
0000
0000
0000
0000
0000
0000
0000
0000
0000
0000
0000
0000
0000
0000
0000
0000
0000
0000
0000
0000
0000
0000
0000
0000
0000
0000
0000
0000
0000
0000
0000
0000
0000
0000
0000
0000
0000
0000
0000
0000
0000
0000
0000
0000
0000
0000
0000
0000
0000
0000
0000
0000
0000
0000
0000
0000
0000
0000
0000
0000
0000
0000
0000
0000
0000
0010
0000
0000
0000
0000
0000
0000
0000
0000
0000
1001
0000
0000
0000
0000
0000
,
0000
0011
1100
0000
0001
0000
0100
0010
,
1000
0000
0001
1000
0100
0010
0001
0000
,
0100
0000
0011
1000
0001
0100
0010
0001
,
0100
0000
0000
0010
0000
0000
1000
0000
0000
0000
0000
0000
0001
0010
0100
1000
0000
0000
0010
0000
0000
0000
0000
0000
,
1000
0000
0101
0000
0001
0000
0100
0010
,
1000
0000
0001
0000
0010
0100
1000
0010
,
1001
0000
0000
0000
0000
1000
0100
0010
0100
0010
0000
0000
,
0100
0000
0000
0000
0000
0000
0000
0000
0000
0000
0000
0000
0000
0000
0000
0000
0010
0000
0000
0000
0000
0000
0000
0000
0000
0000
0000
0000
0000
0000
0000
0000
0100
0000
0000
0000
0000
0000
0000
0000
0000
0000
0000
0000
0000
0000
0000
0000
0010
0000
0000
0000
0000
0000
0000
0000
0000
0000
0000
0000
0000
0000
0000
0000
0000
0000
0000
0000
0000
0000
0000
0000
0000
0000
0000
0000
0000
0000
0000
0000
0000
0000
0000
0000
0000
0000
0000
0000
0000
0000
0000
0000
0000
0000
0000
0000
1000
0000
0000
0000
0000
0000
0001
0000
0000
0000
0000
0000
0000
0000
0000
0000
0100
0000
0000
0000
0000
0000
0000
0000
0000
0000
0000
0000
0000
0000
0000
0000
0010
0000
0000
0000
0000
0000
0000
0000
0000
0000
0000
0000
0000
0000
0000
0000
1000
0000
0000
0000
0000
0000
0000
0000
0000
0000
0000
0000
0000
0000
0000
0000
0100
0000
0000
0000
0000
0000
0000
0000
0000
0000
0000
0000
0000
0000
0000
0000
0010
0000
0000
0000
0000
0000
0000
0000
0000
0000
0000
0000
0000
0000
0000
0000
,
0001
0000
0000
0000
0010
0000
0000
0000
0100
0000
0000
0000
2002
0000
0000
3003
0000
0000
0000
0000
0000
0000
0000
0000
0000
0000
0000
0000
0000
0000
0000
0000
0000
0000
0000
0000
0000
0000
0000
0000
0000
0000
0000
0000
0000
0000
0000
0000
,
0000
0000
0000
0000
,
0000
0000
0000
0000
,
0000
0000
0000
0000
,
0000
0000
0000
0000
,
1000
0000
0000
0000
;
