#TITLE:Evolution Canceler;
#SUBTITLE:;
#ARTIST:Kobaryo;
#TITLETRANSLIT:;
#SUBTITLETRANSLIT:;
#ARTISTTRANSLIT:;
#CREDIT:;
#BANNER:evolutioncanceler-bn.png;
#BACKGROUND:evolutioncanceler-bg.png;
#LYRICSPATH:;
#CDTITLE:;
#MUSIC:03 Evolution Canceler.ogg;
#OFFSET:-0.031;
#SAMPLESTART:109.252;
#SAMPLELENGTH:12.000;
#SELECTABLE:YES;
#BPMS:0.000=175.000;
#STOPS:;
#BGCHANGES:;
// cache tags:
#FIRSTBEAT:32.000;
#LASTBEAT:576.000;
#SONGFILENAME:Songs/SPEEEDCOOOORE 4/Evolution Canceler - [Rynker]/evolution canceler.sm;
#HASMUSIC:1;
#HASBANNER:1;
#MUSICLENGTH:205.832;
// end cache tags

//---------------dance-single - Rynker----------------
#NOTES:
     dance-single:
     Rynker:
     Challenge:
     13:
     1.000,1.000,0.073,0.364,1.000,1527.000,15.000,75.000,1.000,0.000:
0000
0000
0000
0000
,
0000
0000
0000
0000
,
0000
0000
0000
0000
,
0000
0000
0000
0000
,
0000
0000
0000
0000
,
0000
0000
0000
0000
,
0000
0000
0000
0000
,
0000
0000
0000
0000
,
0001
0000
1000
0000
0001
0100
0001
0100
0010
1000
0100
0010
0001
0100
0001
0100
,
0010
1000
0100
0010
0001
0100
0001
0100
0010
1000
0100
0010
0001
1000
0001
1000
,
0010
1000
0100
0010
0001
0100
0001
0100
0010
1000
0100
0010
0001
0100
0001
0100
,
0010
1000
0100
0010
0001
0100
0001
0100
0010
1000
0100
0010
0001
0100
0001
0100
,
0010
0000
1000
0100
1000
0010
1000
0010
0100
0001
0010
0100
1000
0010
1000
0010
,
0100
0001
0010
0100
1000
0010
1000
0010
0100
0001
0010
0100
1000
0010
1000
0010
,
0100
0001
0010
0100
1000
0010
1000
0010
0100
0001
0010
0100
1000
0010
1000
0010
,
0100
0001
0010
0100
1000
0010
1000
0010
0100
0001
0010
0100
1000
0010
1000
0010
,
0100
0000
0000
0001
0000
0000
1000
0000
0020
0000
0000
0000
0030
0000
0000
0000
,
0000
0000
0000
0000
,
1000
0000
0000
0001
0000
0000
0010
0000
0200
0000
0000
0000
0000
0000
0300
0000
,
0000
0000
1000
0100
1000
0000
0001
0000
0100
0001
1000
0001
1000
0000
0000
0000
,
0001
0000
0000
0010
0000
0000
0100
0000
2000
0000
0000
0000
3000
0000
0000
0000
,
0000
0000
0000
0000
,
0001
0000
0000
0100
0000
0000
0010
0000
2000
0000
0000
0000
0000
0000
3000
0000
,
0000
0000
0001
0100
0001
0000
1000
0000
0100
0010
0001
0010
0100
0000
0000
0000
,
1000
0001
0100
0010
1000
0010
0100
0001
0010
0100
1000
0100
0010
0001
0010
0100
,
1000
0001
0100
0010
1000
0010
0100
0001
1000
0100
1000
0001
0010
0100
1000
0100
,
0010
0001
1000
0001
0100
0010
0100
0001
0010
0100
0010
0001
1000
0001
0100
0010
,
0100
0001
1000
0010
0100
0010
1000
0001
0010
0100
1000
0100
0010
0001
1000
0001
,
0100
0010
0100
0001
1000
0010
0100
0001
0010
0100
1000
0100
0010
0001
1000
0100
,
0010
0001
0010
0100
1000
0001
1000
0001
0100
0010
0100
0001
1000
0001
0010
0100
,
0010
0001
1000
0001
0100
0010
0100
0001
0010
0100
1000
0100
0010
0001
1000
0001
,
1000
0000
0000
0001
,
1000
0100
0010
0001
0010
0100
1000
0010
0100
0001
0100
0010
1000
0100
0010
0001
,
0010
0100
1000
0001
0010
0100
0010
0001
1000
0001
0100
0010
0200
0000
0300
0000
,
0001
1000
0010
0100
0001
0100
0010
1000
0001
0010
0100
0010
0001
0100
0010
1000
,
0010
0000
0100
0000
0001
0000
1000
0000
0100
0000
0010
0000
0001
0000
1000
0000
0100
0000
1000
0000
0010
0000
0000
0000
0200
0300
0000
0000
0000
0000
0000
0000
,
0001
0100
0010
1000
0010
0100
0001
1000
0100
0010
0001
0100
0010
1000
0010
0100
,
0001
1000
0100
0010
0100
1000
0010
0100
0001
0100
0010
1000
0002
0000
0003
0000
,
1000
0100
0010
0001
0010
0100
1000
0001
0100
0010
0100
0001
0010
0100
1000
0100
,
0020
0000
0000
0000
0030
0000
0000
0000
0001
0000
0000
0000
0001
0000
0000
0000
1000
0000
0100
0000
0010
0000
0001
0000
0200
0300
0000
0000
0000
0000
0000
0000
,
0001
0100
0010
1000
0100
1000
0001
0010
0001
0100
0010
1000
0010
0100
0001
1000
,
0100
0000
0010
0000
0001
0000
1000
0000
0001
0000
0100
0000
0010
0000
1000
0000
0200
0000
0000
0000
0300
0000
0000
0000
2000
3000
0000
0000
0000
0000
0000
0000
,
0001
0100
0010
1000
0010
0100
0001
1000
0100
0010
0001
0010
0100
1000
0001
0000
,
0100
0000
0000
0000
0010
0000
0000
0000
1000
0000
0001
0000
1000
0000
0000
0000
0100
0000
0000
0000
0100
0000
0000
0000
2000
3000
0000
0000
0000
0000
0000
0000
,
0100
1000
0100
0010
0001
1000
0001
0100
0010
0100
0001
0010
0100
1000
0100
0010
,
0001
0000
1000
0000
0001
0000
0100
0000
0010
0000
1000
0000
0010
0000
0100
0000
0002
0000
0000
0000
0003
0000
0000
0000
2000
3000
0000
0000
0000
0000
0000
0000
,
0001
0100
0010
1000
0001
0010
0100
1000
0001
0010
0100
1000
0001
0010
0100
1000
,
0002
0000
0000
0000
0203
0000
0000
0000
0320
0000
0000
0000
2030
0000
0000
0000
3001
0000
0100
0000
0001
0000
0010
0000
0200
0300
0000
0000
0000
0000
0000
0000
,
1000
0010
1000
0010
0100
0001
1000
0001
1000
0100
1000
0001
0010
0100
1000
0001
,
1000
0001
1000
0010
0100
0001
1000
0100
1000
0010
1000
0100
0010
0001
1000
0010
,
1000
0100
1000
0010
0100
0001
1000
0010
1000
0100
1000
0001
0010
0100
1000
0010
,
1000
0000
0001
0000
1000
0000
0010
0000
0100
0000
0010
0000
1000
0000
0001
0000
2000
0000
0000
0000
3000
0000
0000
0000
0020
0030
0000
0000
0000
0000
0000
0000
,
1000
0001
1000
0010
0100
0001
1000
0100
1000
0001
1000
0100
0010
0001
1000
0010
,
1000
0001
1000
0010
0100
0001
1000
0100
1000
0010
1000
0100
0010
0001
1000
0010
,
1000
0100
1000
0001
0100
0010
1000
0100
1000
0010
1000
0001
0010
0001
1000
0010
,
2000
0000
0000
0000
3002
0000
0000
0000
0203
0000
0000
0000
0302
0000
0000
0000
1003
0000
0100
0000
0010
0000
0100
0000
2000
3000
0000
0000
0000
0000
0000
0000
,
0001
0100
0001
1000
0010
0100
0001
0010
0001
0100
0001
1000
0100
0010
0001
1000
,
0001
0000
0100
0000
0001
0000
1000
0000
0010
0000
0100
0000
0001
0000
0010
0000
0001
0000
1000
0000
0001
0000
0010
0000
0200
0300
0000
0000
0000
0000
0000
0000
,
1000
0100
1000
0001
0010
0100
1000
0010
1000
0001
1000
0010
0100
0001
1000
0100
,
1000
0000
0010
0000
1000
0000
0100
0000
0010
0000
0001
0000
1000
0000
0100
0000
2000
0000
0000
0000
3000
0000
0000
0000
0200
0300
0000
0000
0000
0000
0000
0000
,
1000
0010
1000
0001
0100
0010
1000
0100
1000
0001
1000
0100
0010
0001
1000
0010
,
1000
0000
0100
0000
1000
0000
0010
0000
0100
0000
0001
0000
1000
0000
0100
0000
1000
0000
0010
0000
1000
0000
0100
0000
0020
0030
0000
0000
0000
0000
0000
0000
,
0001
1000
0001
1000
0100
0010
0001
1000
0010
0100
0001
1000
0100
0010
0001
1000
,
0010
0000
0100
0000
0001
0000
0010
0000
0100
0000
1000
0000
0010
0000
0100
0000
0010
0000
1000
0000
0100
0000
0010
0000
0002
0003
0000
0000
0000
0000
0000
0000
,
0000
0000
0000
0000
,
0000
0000
0000
0000
,
0000
0000
0000
0000
,
0000
0000
0000
0000
,
0000
0000
0000
0000
,
0000
0000
0000
0000
,
0000
0000
0000
0000
,
1000
0001
1000
0100
1000
0100
0010
0100
0010
0001
0010
0001
1000
0010
0100
0001
,
2000
3200
0320
0032
,
2003
3002
0203
0320
,
2030
3020
0230
0302
,
2003
3200
0320
0032
,
4003
3040
0430
0304
,
4003
3400
0340
0034
,
4003
0000
0000
3040
0000
0000
0430
0000
0301
4000
3000
0000
,
0000
0000
0000
0001
,
1000
0100
1000
0000
0001
0000
0100
0001
0100
0000
0001
0000
1000
0010
1000
0000
0001
0000
0010
0000
0100
0000
1000
0000
,
0001
0100
0001
0000
1000
0000
0004
0000
0000
0003
1000
0000
0010
0000
0100
0000
0001
0000
0010
0000
0100
0000
1000
0000
,
0100
1000
0100
0000
1000
0000
0001
0100
0001
0000
1000
0000
0010
0000
0100
0000
0001
0000
0010
0000
0100
0000
1000
0000
,
0001
0100
0001
0000
1000
0000
0004
0000
0000
0003
1000
0000
0004
0000
0000
0003
1000
0000
0010
0000
0000
0000
0000
0000
,
0100
0001
0100
0000
0010
0000
1000
0001
1000
0000
0010
0000
0100
0001
0100
0000
0010
0000
1000
0000
0100
0000
0010
0000
,
0001
1000
0001
0000
0010
0000
0400
0000
0000
0300
0010
0000
0001
0000
1000
0000
0010
0000
0100
0000
0001
0000
1000
0000
,
0100
1000
0100
0000
0010
0000
0001
1000
0001
0000
0010
0000
0100
1000
0100
0000
1000
0000
0001
0000
1000
0000
0001
0000
,
0020
0000
0230
0000
2300
0000
3002
0000
0203
0000
0302
0000
0043
0000
0000
0030
0100
0000
1000
0000
0000
0000
0000
0000
,
0001
1000
0100
0000
0010
0000
0200
0000
0000
0300
1000
0000
0010
0000
0100
0000
0010
0000
1000
0000
0001
0000
1000
0000
,
0001
0010
0100
0000
1000
0000
0002
0000
0000
0000
0013
0000
0100
0000
0010
0000
0001
0000
0100
0000
0010
0000
1000
0000
,
0010
0100
0001
0000
1000
0000
0200
0000
0000
0000
1300
0000
0010
0000
1000
0000
0001
0000
0010
0000
0100
0000
1000
0000
,
0001
0000
1000
0000
0100
0000
0000
0000
1000
0000
0000
0000
0010
0000
0000
0000
0100
0000
0000
0000
0001
0000
0000
0000
0040
0000
0000
0030
0100
0000
0000
0000
1000
0000
0000
0000
0001
0000
0000
0000
0000
0000
0000
0000
0000
0000
0000
0000
,
1000
0001
0100
0000
0010
0000
2000
0000
0000
0000
3001
0000
1000
0000
0100
0000
1000
0000
0010
0000
0100
0000
0001
0000
,
0010
0100
1000
0000
0001
0000
0200
0000
0000
0000
0301
0000
1000
0000
0100
0000
0010
0000
0100
0000
1000
0000
0010
0000
,
2000
0000
0000
3000
0000
0000
2000
0000
0000
3000
0001
0000
2000
0000
0000
3000
0000
0000
2000
0000
0001
3000
0010
0000
,
0200
0000
0000
0000
0000
0000
0000
0000
0000
0000
0000
0000
0000
0000
0000
0000
0000
0000
0000
0000
0000
0000
0000
0000
0000
0000
0000
0000
0000
0000
0000
0000
0000
0000
0000
0000
0000
0000
0000
0000
0000
0000
0000
0000
0000
0000
0000
0000
2300
0000
0000
0000
0000
0000
0000
0000
0000
0000
0000
0000
0000
0000
0000
0000
0000
0000
0000
0000
0000
0000
0000
0000
0000
0000
0000
0000
0000
0000
0000
0000
3002
0000
0000
0000
0000
0000
0000
0000
0000
0000
0000
0000
0000
0000
0000
0000
0203
0000
0000
0000
0000
0000
0000
0000
0000
0000
0000
0000
0000
0000
0000
0000
0000
0000
0000
0000
0000
0000
0000
0000
0000
0000
0000
0000
0000
0000
0000
0000
0320
0000
0000
0000
0000
0000
0000
0000
0000
0000
0000
0000
0000
0000
0000
0000
2030
0000
0000
0000
0000
0000
3000
0000
0000
0000
0000
0000
0000
0000
0000
0000
0000
0000
0000
0000
0000
0000
0000
0000
0000
0000
0000
0000
0000
0000
0000
0000
0000
0000
0000
0000
0000
0000
0000
0000
0000
0000
0000
0000
0000
0000
0000
0000
,
0000
0000
0000
0000
,
0000
0000
0000
0000
,
0000
0000
0000
0000
,
0000
0000
0000
0000
,
0001
0010
0100
1000
0100
0010
0001
1000
0010
0100
0001
0100
0010
1000
0001
1000
,
0100
0010
0001
0010
0100
1000
0001
1000
0010
0100
0001
0100
0010
1000
0001
1000
,
0100
0010
0100
0010
0001
1000
0001
1000
0010
0100
0010
1000
0001
1000
0100
0010
,
0100
1000
0001
0010
0100
1000
0001
1000
0010
0100
0001
0100
0010
1000
0001
1000
,
0001
0000
1000
0000
0010
0000
0100
0000
0010
0000
1000
0001
0010
0100
1000
0000
,
0001
0100
0010
1000
0001
0000
0010
0100
0010
0001
0100
0000
0010
1000
0001
0000
,
0010
0100
4000
0000
3001
0010
0001
0000
1000
0000
0010
1000
0000
0001
0000
0000
,
0010
0000
0000
0000
0000
0000
0100
0000
0000
0000
1000
0000
0000
0000
0000
0000
0001
0000
0000
0000
1000
0000
0010
0000
0200
0300
0000
0000
0000
0000
0000
0000
,
0001
0100
0010
0100
0001
1000
0010
1000
0100
0010
0001
0100
0010
1000
0100
0010
,
0001
0100
0010
1000
0100
0010
0001
0100
0010
1000
0100
0010
0001
1000
0001
0000
,
0100
0001
1000
0100
1000
0010
0100
0001
0400
0000
0301
0000
4000
0000
3001
0000
,
0000
0000
0000
1000
,
0001
0100
0010
0100
0001
1000
0100
1000
0001
0100
0010
0100
0001
1000
0100
0010
,
0001
1000
0001
0100
0010
0100
0001
0010
0100
1000
0010
0100
0001
1000
0004
0000
,
1003
0100
0010
0100
1000
0010
0100
0001
0010
0100
1000
0100
0010
0001
0100
0010
,
4000
0000
3001
0100
0010
0100
0001
0010
0100
1000
0100
0010
0001
1000
0001
0000
,
1000
0001
0100
0010
1000
0001
0010
0100
1000
0001
0100
0010
1000
0001
0010
0100
,
4000
0000
3001
0100
0010
0100
0001
0010
0100
1000
0010
0100
0001
1000
0004
0000
,
1003
0010
0100
0001
1000
0100
0010
0001
1000
0010
0100
0001
1000
0001
0100
0001
,
4000
0000
0000
0000
3400
0000
0000
0000
1300
0000
0000
0000
0001
0000
0000
0000
1000
0000
0010
0000
1000
0000
0100
0000
0020
0030
0000
0000
0000
0000
0000
0000
,
0001
0010
0100
1000
0010
1000
0100
0010
0001
1000
0010
1000
0100
1000
0001
0100
,
0010
1000
0100
1000
0010
1000
0001
0010
0001
0100
0001
1000
0100
1000
0010
0000
,
1000
0100
0010
0001
0100
0010
1000
0100
1000
0010
0100
0001
0010
0100
1000
0010
,
0100
0000
0001
0000
0100
0000
0001
0000
0010
0000
0100
0000
1000
0000
0001
0000
1000
0000
0100
0000
0010
0000
0001
0000
0200
0300
0000
0000
0000
0000
0000
0000
,
0001
0010
0100
1000
0010
0100
0001
1000
0001
0100
0010
1000
0100
0010
0001
0100
,
0001
0100
0010
1000
0100
0010
0001
1000
0001
0010
0001
0100
0010
1000
0100
0000
,
1000
0001
0100
0001
0010
0001
0100
0001
0010
0001
0100
0001
1000
0100
0010
0001
,
0100
0000
0010
0000
4000
0000
0000
0000
3001
0000
0000
0000
4000
0000
0000
0000
3001
0000
0100
0000
0001
0000
0010
0000
0200
0300
0000
0000
0000
0000
0000
0000
,
1000
0100
0010
0100
1000
0001
0100
0001
1000
0001
0010
0100
1000
0001
0100
0010
,
1000
0100
0010
0001
0100
0001
1000
0001
1000
0001
0010
0001
0100
0010
4000
0000
,
3001
0100
0001
0010
0100
1000
0001
1000
0010
0100
0010
1000
0100
1000
0001
0010
,
0100
0010
0001
1000
0010
1000
0010
1000
0010
0100
0001
0100
0010
1000
0001
0000
,
1000
0100
0010
0001
1000
0100
0010
0001
1000
0010
0100
0001
0010
0001
0010
0100
,
1000
0010
0100
0001
0010
0001
0010
0001
0010
0001
0100
0001
0010
0100
4000
0000
,
3001
0100
0010
0100
0001
1000
0100
0010
0001
1000
0100
1000
0010
0100
0010
1000
,
0001
0000
0100
0000
0010
0000
1000
0000
0100
0000
1000
0000
0001
0000
1000
0000
0001
0000
0010
0000
0100
0000
1000
0000
0020
0030
0000
0000
0000
0000
0000
0000
,
1000
0010
0100
0001
0010
0100
1000
0001
0100
0010
0100
0001
0010
0100
1000
0001
,
1000
0010
0100
0001
0010
0100
1000
0001
1000
0010
0100
0001
0100
0001
0010
0000
,
0001
1000
0010
1000
0100
0010
0001
0010
0001
1000
0010
1000
0100
1000
0010
0100
,
0001
0000
1000
0000
0010
0000
1000
0000
0100
0000
0010
0000
0001
0000
0010
0000
0001
0000
1000
0000
0010
0000
1000
0000
0200
0300
0000
0000
0000
0000
0000
0000
,
1000
0010
0100
0001
0010
0100
1000
0100
0010
0001
0100
0001
0010
0100
1000
0100
,
0010
0001
0100
0001
0010
0001
0100
0010
1000
0010
0100
0001
0100
0001
0010
0000
,
0001
1000
0010
1000
0100
0010
0001
0010
0100
1000
0001
1000
0100
0010
0001
1000
,
0400
0000
0000
0000
4300
0000
0000
0000
3010
0000
0000
0000
0400
0000
0000
0000
0301
0000
0010
0000
0100
0000
1000
0000
0020
0030
0000
0000
0000
0000
0000
0000
,
000M
0000
0000
0000
;

//---------------dance-single - Rynxtil----------------
#NOTES:
     dance-single:
     Rynxtil:
     Hard:
     12:
     1.000,1.000,0.505,0.272,1.000,1264.000,104.000,56.000,10.000,0.000:
0000
0000
0000
0000
,
0000
0000
0000
0000
,
0000
0000
0000
0000
,
0000
0000
0000
0000
,
0000
0000
0000
0000
,
0000
0000
0000
0000
,
0000
0000
0000
0000
,
0000
0000
0000
0000
,
0001
0000
1000
0000
0001
0100
0001
0100
0010
1000
0100
0010
0001
0100
0001
0100
,
0010
1000
0100
0010
0001
0100
0001
0100
0010
1000
0100
0010
0001
1000
0001
1000
,
0010
1000
0100
0010
0001
0100
0001
0100
0010
1000
0100
0010
0001
0100
0001
0100
,
0010
1000
0100
0010
0001
0100
0001
0100
0010
1000
0100
0010
0001
0100
0001
0100
,
0010
0000
1000
0100
1000
0010
1000
0010
0100
0001
0010
0100
1000
0010
1000
0010
,
0100
0001
0010
0100
1000
0010
1000
0010
0100
0001
0010
0100
1000
0010
1000
0010
,
0100
0001
0010
0100
1000
0010
1000
0010
0100
0001
0010
0100
1000
0010
1000
0010
,
0100
0001
0010
0100
1000
0010
1000
0010
0100
0001
0010
0100
1000
0010
1000
0010
,
0100
0000
0000
0001
0000
0000
1000
0000
0020
0000
0000
0000
0030
0000
0000
0000
,
0000
0000
0000
0000
,
1000
0000
0000
0001
0000
0000
0010
0000
0200
0000
0000
0000
0000
0000
0300
0000
,
0000
0000
1000
0100
1000
0000
0001
0000
0100
0001
1000
0001
1000
0000
0000
0000
,
0001
0000
0000
0010
0000
0000
0100
0000
2000
0000
0000
0000
3000
0000
0000
0000
,
0000
0000
0000
0000
,
0001
0000
0000
0100
0000
0000
0010
0000
2000
0000
0000
0000
0000
0000
3000
0000
,
0000
0000
0001
0100
0001
0000
1000
0000
0100
0010
0001
0010
0100
0000
0000
0000
,
1000
0001
0100
0010
1000
0010
0100
0001
0010
0100
1000
0100
0010
0001
0010
0100
,
1000
0001
0100
0010
1000
0010
0100
0001
1000
0100
1000
0001
0010
0100
1000
0100
,
0010
0001
1000
0001
0100
0010
0100
0001
0010
0100
0010
0001
1000
0001
0100
0010
,
0100
0001
1000
0010
0100
0010
1000
0001
0010
0100
1000
0100
0010
0001
1000
0001
,
0100
0010
0100
0001
1000
0010
0100
0001
0010
0100
1000
0100
0010
0001
1000
0100
,
0010
0001
0010
0100
1000
0001
1000
0001
0100
0010
0100
0001
1000
0001
0010
0100
,
0010
0001
1000
0001
0100
0010
0100
0001
0010
0100
1000
0100
0010
0001
1000
0001
,
1000
0000
0000
1001
,
0001
0010
0001
0100
0010
1000
0100
0010
,
0100
1000
0010
0100
0001
0010
0200
0000
,
0310
0001
1000
0010
0100
0001
0010
0001
,
1000
0000
0010
0000
1000
0000
0100
0000
0010
0001
1000
0000
1001
0000
0000
0000
,
0001
0100
0010
1000
0100
0010
0001
0100
,
0001
1000
0100
1000
0010
0100
0002
0000
,
0013
0100
1000
0010
1000
0001
0010
0001
,
0200
0000
0000
0300
0110
0000
0010
0000
1000
0100
0010
0001
0100
0000
0000
0000
,
0010
1000
0100
1000
0001
0010
0100
0010
,
0001
0000
0100
0000
0010
0000
1000
0001
0020
0000
0000
0030
0110
0000
0000
0000
,
0100
1000
0010
1000
0001
0010
0001
0100
,
0010
0000
0010
0000
1000
0001
1000
0000
1001
0000
0001
0000
0011
0000
0000
0000
,
0010
0001
0100
0010
1000
0001
0010
0100
,
1000
0000
0010
0000
1000
0001
1000
0001
0020
0000
0000
0030
0110
0000
0000
0000
,
0100
0000
1000
0000
0010
0000
1000
0000
0100
0000
1000
0000
0010
0100
0001
0010
,
0100
0000
1000
0000
0010
0000
0100
0000
0001
0010
0001
0100
0010
0000
0000
0000
,
1000
0000
0100
0000
0110
0000
0010
0000
0001
0100
0001
0000
0101
0000
0100
0000
,
0010
0000
1000
0000
1001
0000
0001
0000
0010
0000
0100
1000
0010
0000
0100
0000
,
0001
0000
1000
0000
1001
0000
0001
0000
0010
0100
0010
0000
0110
0000
0100
0000
,
1000
0000
0001
0000
0101
0000
0100
0000
0020
0000
0000
0030
1010
0000
0000
0000
,
1000
0000
0001
0000
0011
0000
0010
0000
0100
1000
0100
0000
1100
0000
1000
0000
,
0001
0000
0100
0000
0110
0000
0010
0000
1000
0000
0100
1000
0010
0000
0100
0000
,
0001
0000
1000
0000
1100
0000
0100
0000
0010
0001
0010
0000
0011
0000
0001
0000
,
1000
0000
0010
0000
0110
0000
0100
0000
0001
0010
0100
1000
0010
0000
0000
0000
,
1000
0000
0100
0000
0110
0000
0010
0000
0001
0100
0001
0000
0101
0000
0100
0000
,
0010
0000
1000
0000
1001
0000
0001
0000
0010
0000
0100
1000
0010
0000
0000
0000
,
0100
0000
0001
0000
1001
0000
1000
0000
0100
0010
0100
0000
0110
0000
0010
0000
,
0001
0000
1000
0000
1010
0000
0010
0000
0200
0000
0000
0300
0101
0000
0000
0000
,
0001
0000
1000
0000
1100
0000
0100
0000
0010
0001
0010
0000
0011
0000
0001
0000
,
1000
0000
0010
0000
0110
0000
0100
0000
0001
0000
0010
0001
0100
0000
0000
0000
,
0001
0000
1000
0000
1001
0000
0001
0000
1001
0000
1000
0000
0010
1000
0001
0010
,
0001
0100
0010
1000
0100
0010
0001
0100
0001
0010
0100
1000
0001
0000
0000
0000
,
1000
0000
0000
0010
0000
0000
0000
0100
0001
0000
0000
0000
1000
0000
0000
0000
,
0000
0000
0000
0000
0000
0000
0000
0000
0001
0000
0000
1000
0000
0000
0001
0000
,
0010
0000
0000
0100
0000
0000
0000
1000
0001
0000
0100
0001
0100
0010
0000
0000
,
0000
0000
0000
1000
0000
0000
0001
1000
,
0100
0000
0000
0010
0000
0001
0000
1000
0000
0010
0000
0100
0010
0000
0000
0000
,
0000
0000
0000
0000
0000
0000
0000
0000
1000
0000
0000
0001
0000
0000
1000
0000
,
0100
0000
0000
0010
0000
0000
0000
0001
0100
0000
0000
0000
0010
0000
0000
0000
,
1000
0001
1000
0100
1000
0100
0010
0100
0010
0001
0010
0001
1000
0010
0100
0001
,
2000
3200
0320
0032
,
2003
3002
0203
0320
,
2030
3020
0230
0302
,
2003
3200
0320
0032
,
4003
3040
0430
0304
,
4003
3400
0340
0034
,
4003
0000
0000
3040
0000
0000
0430
0000
0301
4000
3000
0000
,
00M0
0000
0M00
000M
00M0
0M00
1001
0000
,
1000
0100
1000
0000
0001
0000
0100
0001
0100
0000
0001
0000
1000
0010
1000
0000
0001
0000
0010
0000
0100
0000
1000
0000
,
0001
0100
0001
0000
1000
0000
0004
0000
0000
0003
1000
0000
0010
0000
0100
0000
0001
0000
0010
0000
0100
0000
1000
0000
,
0100
1000
0100
0000
1000
0000
0001
0100
0001
0000
1000
0000
0010
0000
0100
0000
0001
0000
0010
0000
0100
0000
1000
0000
,
0001
0100
0001
0000
1000
0000
0004
0000
0000
0003
1000
0000
0004
0000
0000
0003
1000
0000
0010
0000
0000
0000
0000
0000
,
0100
0001
0100
0000
0010
0000
1000
0001
1000
0000
0010
0000
0100
0001
0100
0000
0010
0000
1000
0000
0100
0000
0010
0000
,
0001
1000
0001
0000
0010
0000
0400
0000
0000
0300
0010
0000
0001
0000
1000
0000
0010
0000
0100
0000
0001
0000
1000
0000
,
0100
1000
0100
0000
0010
0000
0001
1000
0001
0000
0010
0000
0100
1000
0100
0000
1000
0000
0001
0000
1000
0000
0001
0000
,
0020
0000
0230
0000
2300
0000
3002
0000
0203
0000
0302
0000
0043
0000
0000
0030
0100
0000
1000
0000
0000
0000
0000
0000
,
0001
1000
0100
0000
0010
0000
0200
0000
0000
0300
1000
0000
0010
0000
0100
0000
0010
0000
1000
0000
0001
0000
1000
0000
,
0001
0010
0100
0000
1000
0000
0002
0000
0000
0000
0013
0000
0100
0000
0010
0000
0001
0000
0100
0000
0010
0000
1000
0000
,
0010
0100
0001
0000
1000
0000
0200
0000
0000
0000
1300
0000
0010
0000
1000
0000
0001
0000
0010
0000
0100
0000
1000
0000
,
0001
0000
1000
0000
0100
0000
0000
0000
1000
0000
0000
0000
0010
0000
0000
0000
0100
0000
0000
0000
0001
0000
0000
0000
0040
0000
0000
0030
0100
0000
0000
0000
1000
0000
0000
0000
0001
0000
0000
0000
0000
0000
0000
0000
0000
0000
0000
0000
,
1000
0001
0100
0000
0010
0000
2000
0000
0000
0000
3001
0000
1000
0000
0100
0000
1000
0000
0010
0000
0100
0000
0001
0000
,
0010
0100
1000
0000
0001
0000
0200
0000
0000
0000
0301
0000
1000
0000
0100
0000
0010
0000
0100
0000
1000
0000
0010
0000
,
2000
0000
0000
3000
0000
0000
2000
0000
0000
3000
0001
0000
2000
0000
0000
3000
0000
0000
2000
0000
0001
3000
0010
0000
,
0200
0000
0000
0000
0000
0000
0000
0000
0000
0000
0000
0000
0000
0000
0000
0000
0000
0000
0000
0000
0000
0000
0000
0000
0000
0000
0000
0000
0000
0000
0000
0000
0000
0000
0000
0000
0000
0000
0000
0000
0000
0000
0000
0000
0000
0000
0000
0000
2300
0000
0000
0000
0000
0000
0000
0000
0000
0000
0000
0000
0000
0000
0000
0000
0000
0000
0000
0000
0000
0000
0000
0000
0000
0000
0000
0000
0000
0000
0000
0000
3002
0000
0000
0000
0000
0000
0000
0000
0000
0000
0000
0000
0000
0000
0000
0000
0203
0000
0000
0000
0000
0000
0000
0000
0000
0000
0000
0000
0000
0000
0000
0000
0000
0000
0000
0000
0000
0000
0000
0000
0000
0000
0000
0000
0000
0000
0000
0000
0320
0000
0000
0000
0000
0000
0000
0000
0000
0000
0000
0000
0000
0000
0000
0000
2030
0000
0000
0000
0000
0000
3000
0000
0000
0000
0000
0000
0000
0000
0000
0000
0000
0000
0000
0000
0000
0000
0000
0000
0000
0000
0000
0000
0000
0000
0000
0000
0000
0000
0000
0000
0000
0000
0000
0000
0000
0000
0000
0000
0000
0000
0000
0000
,
0001
0000
0000
0100
0000
0000
0000
0010
1000
0000
0000
0000
0000
0000
0000
0000
,
0000
0000
0000
0000
0000
0000
0000
0000
0001
0000
0000
1000
0000
0000
0001
0000
,
0010
0000
0000
0100
0000
0000
0000
1000
0001
0000
0000
0000
0000
0000
0000
0000
,
0000
0000
0000
1000
0000
0000
0001
1000
,
0001
0010
0100
1000
0100
0010
0001
1000
0010
0100
0001
0100
0010
1000
0001
1000
,
0100
0010
0001
0010
0100
1000
0001
1000
0010
0100
0001
0100
0010
1000
0001
1000
,
0100
0010
0100
0010
0001
1000
0001
1000
0010
0100
0010
1000
0001
1000
0100
0010
,
0100
1000
0001
0010
0100
1000
0001
1000
0010
0100
0001
0100
0010
1000
0001
1000
,
0001
0000
1000
0000
0010
0000
0100
0000
0010
0000
1000
0001
0010
0100
1000
0000
,
0001
0100
0010
1000
0001
0000
0010
0100
0010
0001
0100
0000
0010
1000
0001
0000
,
0010
0100
4000
0000
3001
0010
0001
0000
1000
0000
0010
1000
0000
0001
0000
0000
,
0010
0000
0000
0000
0000
0000
0100
0000
0000
0000
1000
0000
0000
0000
0000
0000
0001
0000
0000
0000
1000
0000
0010
0000
0200
0300
0000
0000
0000
0000
0000
0000
,
0001
0100
0010
0100
0001
1000
0010
1000
0100
0010
0001
0100
0010
1000
0100
0010
,
0001
0100
0010
1000
0100
0010
0001
0100
0010
1000
0100
0010
0001
1000
0001
0000
,
0100
0001
1000
0100
1000
0010
0100
0001
0400
0000
0301
0000
4000
0000
3001
0000
,
00M0
0000
0M00
M000
00M0
0M00
1001
0000
,
0004
0000
0013
0100
4000
0000
3010
0100
0004
0000
1003
0100
0010
0100
1000
0001
,
0400
0000
0310
1000
0004
0000
4003
0000
3004
0000
0013
0100
0010
0001
0400
0000
,
0340
0000
1030
0001
0040
0000
0031
1000
0040
0000
0130
0001
0010
0100
1000
0001
,
0400
0000
0310
1000
0004
0000
4003
0000
3001
0010
0200
0000
0310
0001
0100
0000
,
0004
0000
0103
0010
4000
0000
3100
0010
0004
0000
1003
0010
0100
0010
1000
0001
,
0040
0000
0130
1000
0004
0000
4003
0000
3004
0000
0103
0010
0100
0001
0040
0000
,
0430
0000
1300
0001
0400
0000
0301
1000
0400
0000
0310
0001
0100
0010
1000
0001
,
0040
0000
0430
0000
1300
0000
0001
0000
0100
0010
0100
0001
0010
0000
0000
0000
,
0400
0000
0310
0001
0100
0010
1000
0001
0040
0000
0130
1000
0010
0100
0001
1000
,
0400
0000
0310
0001
0100
0010
1000
0001
0040
0000
0130
0010
0100
1000
0010
0000
,
4000
0000
3010
1000
0100
0010
0001
1000
0004
0000
0103
0001
0010
0100
1000
0001
,
4000
0000
3100
1000
0010
0100
0001
1000
0001
0010
0001
0010
0100
0000
0000
0000
,
0040
0000
0130
1000
0010
0100
0001
1000
0400
0000
0310
0001
0100
0010
1000
0001
,
0040
0000
0130
1000
0010
0100
0001
1000
0400
0000
0310
0100
0010
0001
0100
0000
,
0040
0000
0130
0001
0010
0100
0010
0001
0100
0010
0100
0001
0010
0100
1000
0001
,
0200
0000
0301
0000
2000
0000
3400
0000
0310
0001
1000
0000
1001
0000
0000
0000
,
0004
0000
0103
0010
4000
0000
3100
0010
0004
0000
0103
0001
0010
0100
1000
0001
,
4000
0000
3010
0100
0004
0000
4003
0000
3004
0000
0013
0001
0100
0010
4000
0000
,
3400
0000
1300
0001
0400
0000
0301
1000
0400
0000
0310
0001
0100
0010
1000
0001
,
0040
0000
0130
1000
0004
0000
4003
0000
3010
0100
0020
0000
0130
0001
0010
0000
,
0004
0000
0013
0100
4000
0000
3010
0100
0004
0000
0013
0001
0100
0010
1000
0001
,
4000
0000
3100
0010
0004
0000
4003
0000
3004
0000
0103
0001
0010
0100
4000
0000
,
3040
0000
1030
0001
0040
0000
0031
1000
0040
0000
0130
0001
0010
0100
1000
0001
,
0400
0000
0340
0000
1030
0001
0020
0000
0130
1000
0100
0010
0001
0000
0000
0000
,
0400
0000
0310
1000
0100
0010
0001
1000
0040
0000
0130
0001
0010
0100
1000
0001
,
0400
0000
0310
1000
0100
0010
0001
1000
0040
0000
0130
0010
0100
0001
0010
0000
,
0004
0000
0013
0001
0100
0010
1000
0001
4000
0000
3100
1000
0010
0100
0001
1000
,
0004
0000
0103
0001
0010
0100
1000
0001
1000
0010
1000
0010
0100
0000
0000
0000
,
0040
0000
0130
0001
0010
0100
1000
0001
0400
0000
0310
1000
0100
0010
0001
1000
,
0040
0000
0130
0001
0010
0100
1000
0001
0400
0000
0310
0100
0010
1000
0100
0000
,
0040
0000
0130
1000
0010
0100
0010
1000
0100
0010
0100
1000
0010
0100
0001
1000
,
0200
0000
1300
0000
0002
0000
0403
0000
0310
1000
0001
0000
1001
0000
0000
0000
,
1000
0000
0000
0000
;
