#TITLE:Battle! (Wild Pokémon);
#SUBTITLE:Pokémon Diamond & Pearl;
#ARTIST:GAME FREAK & Jun'ichi Masuda;
#TITLETRANSLIT:;
#SUBTITLETRANSLIT:;
#ARTISTTRANSLIT:;
#CREDIT:Owem;
#BANNER:../banner.png;
#BACKGROUND:../bg.png;
#LYRICSPATH:;
#CDTITLE:../cdtitleowem.png;
#MUSIC:Battle! Wild Pokemon - Pokemon Diamond & Pearl.ogg;
#OFFSET:-0.315;
#SAMPLESTART:23.799;
#SAMPLELENGTH:12.000;
#SELECTABLE:YES;
#BPMS:0.000=183.951;
#STOPS:;
#BGCHANGES:;
// cache tags:
#FIRSTBEAT:0.000;
#LASTBEAT:231.500;
#SONGFILENAME:Songs/Owem's Simfiles 08 - 1.2/Battle! (Wild Pokemon) - [Owem, Braeden]/Battle! (Wild Pokemon).sm;
#HASMUSIC:1;
#HASBANNER:1;
#MUSICLENGTH:76.721;
// end cache tags

//---------------dance-single - 14- (Owem)----------------
#NOTES:
     dance-single:
     14- (Owem):
     Challenge:
     14:
     1.000,1.000,0.182,0.456,1.000,717.000,14.000,35.000,0.000,0.000:
1000
0100
0010
0001
1000
0100
0010
0001
0010
0100
1000
0001
0010
0100
1000
0001
,
0100
0010
0100
0001
1000
0010
1000
0001
1000
0100
0010
0001
0100
0001
1000
0010
,
2000
3000
0001
0000
0100
0000
0210
0300
0010
0000
1000
0000
2001
3000
0001
0000
,
0010
0000
0100
0000
1000
0000
0001
0000
1002
0003
1000
0000
0010
0000
0100
0000
,
0201
0300
0001
0000
1000
0000
2100
3000
0100
0000
0010
0000
0021
0030
0001
0000
,
1000
0010
0100
0001
0102
0103
0010
0010
,
1020
0030
1000
0000
0001
0000
0014
0003
0010
0000
0100
0000
1400
0300
1000
0000
,
0010
0000
0100
0000
0010
0000
1000
0000
4001
3000
0001
0000
0010
0000
0100
1000
,
0004
0003
0100
0000
0010
0000
1040
0030
1000
0000
0001
0000
0014
0003
0010
0000
,
0100
1000
0001
1000
0040
0100
0000
0130
,
0010
1000
0001
1000
0100
0010
0001
1000
0100
1000
0010
1000
0001
0100
0010
1000
,
0001
0100
0001
1000
0100
0010
0100
1000
0001
0100
0001
1000
0100
0010
0001
1000
,
0010
0100
0001
1000
0010
1000
0100
0010
0001
1000
0100
1000
0001
0100
0010
1000
,
0001
0100
0010
1000
0100
1000
0001
0100
0010
1000
0001
0100
0001
0000
0010
0000
,
0100
1000
0001
1000
0010
0100
0001
1000
0010
1000
0100
0010
0001
1000
0100
1000
,
0001
0100
0010
1000
0001
0100
0001
1000
0100
0010
0100
1000
0001
0010
0001
1000
,
0100
1000
0001
0100
0010
0100
0001
1000
0010
1000
0100
0010
0001
1000
0100
1000
,
0001
0100
0010
1000
0001
1000
0010
0100
0001
1000
0010
1000
0100
0000
0100
0000
,
0010
0001
1000
0001
0100
0010
1000
0001
0100
0010
1000
0001
0010
0001
1000
0010
,
1000
0100
0010
0001
1000
0100
1000
0001
0100
0010
1000
0001
0100
0010
0100
0001
,
2000
0000
0010
0010
0000
0000
0010
0010
,
0000
0000
0010
0010
0010
0000
0010
0010
,
3010
0100
0001
1000
0100
0010
0001
1000
0010
1000
0100
0010
0001
1000
0100
1000
,
0001
0100
0010
1000
0001
0100
0001
1000
0001
0010
0100
1000
0001
0010
0001
1000
,
0010
1000
0001
0100
0010
1000
0001
0100
0010
0100
0001
1000
0100
1000
0001
1000
,
0100
0010
0100
1000
0001
0010
0001
1000
0010
0100
0001
0100
0010
0000
0010
0000
,
1000
0001
1000
0100
0010
0001
1000
0100
1000
0001
1000
0010
0100
0001
0100
0001
,
1000
0001
0100
0010
1000
0001
0010
0001
1000
0100
1000
0001
0100
0010
1000
0001
,
0010
0100
1000
0001
0010
0001
1000
0100
0010
0001
1000
0100
1000
0001
0100
0010
,
1000
0001
0100
0001
1000
0010
0100
0001
0100
0010
1000
0001
0010
0001
0100
0010
,
1000
0001
0100
0010
1000
0100
1000
0001
0100
0001
1000
0100
1000
0010
1000
0001
,
0100
0010
0100
0001
1000
0001
0010
0100
1000
0001
0010
0001
0100
0010
1000
0001
,
0100
0010
1000
0001
0100
0001
1000
0100
1000
0010
0100
0001
1000
0100
1000
0001
,
0010
0001
1000
0100
0010
0001
1000
0100
1000
0010
0100
0001
1000
0010
1000
0010
,
0200
0300
0001
0000
4000
3000
0010
0000
0100
0000
0001
0000
4000
3000
0100
0000
,
2000
3000
0001
0000
0040
0030
0001
0000
1000
0000
0100
0000
0040
0030
0001
0000
,
2002
3000
0003
0000
1000
0000
0000
0000
0040
0030
0000
0000
0210
0000
0300
0000
0120
0000
0030
0000
0100
0000
0000
0000
0004
0003
0000
0000
2000
0000
0000
0000
,
3200
0000
1300
0000
0010
0000
0200
0000
0302
0000
1003
0000
0001
0100
0010
0000
,
2000
3001
1000
0000
0100
0000
0020
0000
0001
0000
0031
0000
2000
0000
3010
0000
,
0200
0000
0304
0003
1000
0000
0010
0000
0400
0300
0010
0000
1000
0000
0001
0010
,
0200
1300
0001
2000
0010
0010
3200
1300
,
0002
0003
0101
0000
0110
0000
0010
0000
0100
0000
0001
0000
1000
0000
0001
0000
,
0010
0100
1000
0001
1000
0010
0100
0001
1000
0010
1000
0001
0100
0010
0100
0001
,
1000
0100
0010
0100
1000
0001
0010
0001
1000
0001
0100
0010
1000
0001
0100
0010
,
1000
0001
0100
0001
0010
0100
1000
0001
0010
0001
1000
0100
0010
0100
1000
0001
,
0100
0001
1000
0010
0100
0001
0100
0010
1000
0001
0100
0001
0010
0100
1000
0001
,
1000
0010
0100
0001
1000
0010
1000
0001
0100
0010
1000
0001
0100
0001
1000
0100
,
1000
0010
0100
0001
1000
0001
0010
0100
1000
0001
0010
0001
0100
0010
1000
0001
,
0100
0001
1000
0010
0100
0001
1000
0010
1000
0001
0010
0001
1000
0100
1000
0001
,
1000
0010
0100
0001
1000
0100
1000
0010
0100
0001
1000
0100
1000
0001
0010
0001
,
1000
0100
0010
0001
1000
0100
1000
0001
0100
0010
1000
0001
0100
0001
1000
0010
,
1000
0001
0100
0010
1000
0001
0010
0001
1000
0100
1000
0001
0100
0010
1000
0001
,
1000
0100
0020
0032
0000
2003
3020
0230
,
0302
1003
0100
1000
0010
0100
0001
0100
,
0010
1000
0001
1000
0100
0010
0100
1000
0001
0010
0001
1000
0100
1000
0001
0100
,
0010
1000
0010
0100
0001
1000
0010
1000
0001
1000
0100
0010
0001
1000
0100
1000
,
0020
0000
0000
0000
,
0000
0000
0000
0000
0000
0000
0000
0030
;

//---------------dance-single - 20 (Owem)----------------
#NOTES:
     dance-single:
     20 (Owem):
     Edit:
     20:
     1.000,1.000,0.182,0.456,1.000,839.000,14.000,35.000,0.000,0.000:
1000
0100
0010
0001
1000
0100
0010
0001
0010
0100
1000
0001
0010
0100
1000
0001
,
0100
0010
0100
0001
1000
0010
1000
0001
1000
0100
0010
0001
0100
0001
1000
0010
,
2000
3000
0001
0000
0100
0000
0210
0300
0010
0000
1000
0000
2001
3000
0001
0000
,
0010
0000
0100
0000
1000
0000
0001
0000
1002
0003
1000
0000
0010
0000
0100
0000
,
0201
0300
0001
0000
1000
0000
2100
3000
0100
0000
0010
0000
0021
0030
0001
0000
,
1000
0010
0100
0001
0102
0103
0010
0010
,
1020
0030
1000
0000
0001
0000
0014
0003
0010
0000
0100
0000
1400
0300
1000
0000
,
0010
0000
0100
0000
0010
0000
1000
0000
4001
3000
0001
0000
0010
0000
0100
1000
,
0004
0003
0100
0000
0010
0000
1040
0030
1000
0000
0001
0000
0014
0003
0010
0000
,
0100
1000
0001
1000
0040
0100
0000
0130
,
0010
1000
0001
0100
0001
0010
0100
1000
0001
0010
0001
0100
0010
1000
0001
0100
0010
0100
0001
1000
0010
1000
0001
0100
,
0001
0010
0100
1000
0001
0010
0001
0100
0010
1000
0001
0100
0010
0100
0001
0010
0001
1000
0100
0010
0100
1000
0001
0010
,
0001
0100
0010
1000
0001
0100
0010
0100
0001
0010
0100
1000
0100
0010
0001
1000
0010
1000
0001
0100
0010
1000
0001
0100
,
0001
0010
0100
1000
0001
0010
0001
0100
0010
1000
0001
0100
0010
1000
0001
0100
0010
0100
0001
0000
0000
1000
0000
0000
,
0010
0100
0001
1000
0010
1000
0100
0010
0001
1000
0100
1000
0001
0010
0001
0100
0010
1000
0001
0100
0010
0100
0001
1000
,
0100
0010
0100
1000
0001
0010
0001
0100
0010
1000
0001
0100
0010
1000
0001
0100
0001
0010
0100
1000
0100
0010
0001
1000
,
0100
0010
0100
1000
0001
0010
0001
0100
0010
1000
0001
0100
0001
0010
0100
1000
0001
0010
0001
0100
0010
1000
0001
0100
,
0010
0100
0001
1000
0100
0010
0001
1000
0100
1000
0001
0010
0001
0100
0010
1000
0001
1000
0100
0000
0000
0100
0000
0000
,
0010
0001
1000
0001
0100
0010
1000
0001
0100
0001
0010
0100
1000
0100
0010
0001
0100
0001
0010
0100
1000
0001
0010
0001
,
1000
0100
1000
0001
0100
0010
1000
0001
0100
0010
0100
0001
1000
0100
1000
0001
0010
0001
0100
0010
1000
0001
0100
0010
,
2000
0000
0010
0010
0000
0000
0010
0010
,
0000
0000
0010
0010
0010
0000
0010
0010
,
3010
0100
0001
1000
0001
0010
0100
1000
0001
0010
0001
1000
0100
0010
0100
1000
0001
0100
0001
1000
0010
1000
0001
0100
,
0010
0100
0001
1000
0100
0010
0001
0100
0001
0010
0100
1000
0001
0010
0001
0100
0010
1000
0001
0100
0010
0100
0001
1000
,
0100
1000
0001
0100
0010
1000
0001
0100
0001
0010
0100
1000
0100
0010
0001
1000
0100
1000
0001
0010
0001
0100
0010
1000
,
0001
0100
0010
0100
0001
1000
0100
0010
0100
1000
0001
0100
0001
0010
0100
1000
0001
1000
0010
0000
0000
0010
0000
0000
,
1000
0001
1000
0100
0010
0001
1000
0100
1000
0001
1000
0010
0100
0001
0100
0001
,
1000
0001
0100
0010
1000
0001
0010
0001
1000
0100
1000
0001
0100
0010
1000
0001
,
0010
0100
1000
0001
0010
0001
1000
0100
0010
0001
1000
0100
1000
0001
0100
0010
,
1000
0001
0100
0001
1000
0010
0100
0001
0100
0010
1000
0001
0010
0001
0100
0010
,
1000
0001
0100
0010
1000
0100
1000
0001
0100
0001
1000
0100
1000
0010
1000
0001
,
0100
0010
0100
0001
1000
0001
0010
0100
1000
0001
0010
0001
0100
0010
1000
0001
,
0100
0010
1000
0001
0100
0001
1000
0100
1000
0010
0100
0001
1000
0100
1000
0001
,
0010
0001
1000
0100
0010
0001
1000
0100
1000
0010
0100
0001
1000
0010
1000
0010
,
0200
0300
0001
0000
4000
3000
0010
0000
0100
0000
0001
0000
4000
3000
0100
0000
,
2000
3000
0001
0000
0040
0030
0001
0000
1000
0000
0100
0000
0040
0030
0001
0000
,
2002
3000
0003
0000
1000
0000
0000
0000
0040
0030
0000
0000
0210
0000
0300
0000
0120
0000
0030
0000
0100
0000
0000
0000
0004
0003
0000
0000
2000
0000
0000
0000
,
3200
0000
1300
0000
0010
0000
0200
0000
0302
0000
1003
0000
0001
0100
0010
0000
,
2000
3001
1000
0000
0100
0000
0020
0000
0001
0000
0031
0000
2000
0000
3010
0000
,
0200
0000
0304
0003
1000
0000
0010
0000
0400
0300
0010
0000
1000
0000
0001
0010
,
0200
1300
0001
2000
0010
0010
3200
1300
,
0002
0003
0101
0000
0110
0000
0010
0000
0100
0000
0001
0000
1000
0000
0001
0000
,
0010
0100
1000
0001
1000
0010
0100
0001
1000
0010
1000
0001
0100
0010
0100
0001
,
1000
0100
0010
0100
1000
0001
0010
0001
1000
0001
0100
0010
1000
0001
0100
0010
,
1000
0001
0100
0001
0010
0100
1000
0001
0010
0001
1000
0100
0010
0100
1000
0001
,
0100
0001
1000
0010
0100
0001
0100
0010
1000
0001
0100
0001
0010
0100
1000
0001
,
1000
0010
0100
0001
1000
0010
1000
0001
0100
0010
1000
0001
0100
0001
1000
0100
,
1000
0010
0100
0001
1000
0001
0010
0100
1000
0001
0010
0001
0100
0010
1000
0001
,
0100
0001
1000
0010
0100
0001
1000
0010
1000
0001
0010
0001
1000
0100
1000
0001
,
1000
0010
0100
0001
1000
0100
1000
0010
0100
0001
1000
0100
1000
0001
0010
0001
,
1000
0100
0010
0001
1000
0100
1000
0001
0100
0010
1000
0001
0100
0001
1000
0010
,
1000
0001
0100
0010
1000
0001
0010
0001
1000
0100
1000
0001
0100
0010
1000
0001
,
1000
0100
0020
0032
0000
2003
3020
0230
,
0302
1003
0100
1000
0010
0100
0001
0100
,
0010
1000
0001
0100
0001
0010
0100
1000
0001
0010
0001
0100
0010
1000
0001
0100
0010
0100
0001
1000
0010
1000
0001
1000
,
0100
0010
0001
1000
0100
1000
0001
0010
0001
0100
0010
1000
0001
0100
0010
0100
0001
1000
0100
1000
0001
0100
0001
1000
,
0020
0000
0000
0000
,
0000
0000
0000
0000
0000
0000
0000
0030
;

//---------------dance-single - ----------------
#NOTES:
     dance-single:
     :
     Hard:
     8:
     0.000,0.000,0.000,0.000,0.000,0.000,0.000,0.000,0.000,0.000:
;

//---------------dance-single - ----------------
#NOTES:
     dance-single:
     :
     Beginner:
     2:
     0.153,0.255,0.000,0.169,0.000,69.000,0.000,13.000,0.000,0.000:

0000
0000
0000
0000
,
0000
0000
0000
0000
,
1000
0000
0000
0001
,
0000
0000
0000
0000
,
0100
0000
0000
0010
,
0000
0000
1000
0000
,
0001
0000
0000
0001
,
0000
0000
0010
0000
,
0100
0000
0000
1000
,
0000
0000
0100
0000
,
0010
0000
0000
0000
,
0001
0000
1000
0000
,
0002
0000
0000
0000
,
0000
0000
0000
0003
,
1000
0000
0000
0000
,
0010
0000
0100
0000
,
0002
0000
0000
0000
,
0000
0000
0003
0000
,
0200
0000
0300
0000
,
0020
0000
0030
0000
,
2000
0000
3000
0000
,
0001
0000
1000
0000
,
0020
0000
0030
0000
,
0200
0300
0000
0000
,
0002
0003
0000
0000
,
1000
0000
0000
0000
,
0010
0000
0000
0001
,
0001
0000
0000
0000
,
1000
0000
0001
0000
,
1000
0000
0001
0000
,
0010
0010
0010
0000
,
0100
0100
0100
0000
,
2000
0000
3000
0000
,
0002
0000
0003
0000
,
0100
0000
0000
0000
,
0010
0000
0000
0000
,
1000
0000
0000
0000
,
0001
0000
0000
0000
,
1000
0000
0000
0000
,
0200
0000
0300
0000
,
0020
0000
0030
0000
,
0002
0000
0003
0000
,
1000
0000
0000
0010
,
0010
0000
0100
0000
,
0001
0000
0000
0010
,
1000
0000
0000
0000
,
0001
0000
0000
0000
,
1000
0000
0000
0000
,
0010
0000
0000
0000
,
0100
0000
0000
0000
,
0001
0000
0000
0000
,
0010
0000
0000
0000
,
0100
0000
0000
0000
,
1000
0000
0000
0000
,
0001
0000
0000
0000
,
1000
0000
0000
0000
,
0010
0000
0000
0000
;
