#TITLE:HEADBANGERZ;
#SUBTITLE:(The Future Classicate Raveloid mix);
#ARTIST:DJ Shimamura;
#TITLETRANSLIT:;
#SUBTITLETRANSLIT:;
#ARTISTTRANSLIT:;
#CREDIT:owenviau1;
#BANNER:BN.png;
#BACKGROUND:BG.png;
#LYRICSPATH:;
#CDTITLE:../CDTitleOV1.png;
#MUSIC:DJ Shimamura - HEADBANGERZ (The Future Classicate Raveloid mix).mp3;
#OFFSET:-0.014;
#SAMPLESTART:169.423;
#SAMPLELENGTH:29.999;
#SELECTABLE:YES;
#DISPLAYBPM:170.000;
#BPMS:0.000=170.000;
#STOPS:;
#BGCHANGES:;
// cache tags:
#FIRSTBEAT:0.000;
#LASTBEAT:993.750;
#SONGFILENAME:Songs/owenviau1 (2016) (Pad & Index)/HEADBANGERZ - [owenviau1] v1.0.5/HEADBANGERZ.sm;
#HASMUSIC:1;
#HASBANNER:1;
#MUSICLENGTH:353.090;
// end cache tags

//---------------dance-single - 14.43 (14+) (owenvia----------------
#NOTES:
     dance-single:
     14.43 (14+) (owenvia:
     Hard:
     14:
     1.000,1.000,0.198,0.646,1.000,2629.000,70.000,228.000,17.000,1.000:
1100
0000
0010
0000
1001
0000
0100
0001
,
1000
1010
0000
0000
1001
0000
1000
0000
,
0110
0000
0000
0001
1001
0000
0100
0000
,
0010
0000
1010
0000
0000
0110
0000
0000
0101
0000
0001
0000
0010
0000
0100
0000
,
1100
0000
0010
0000
0101
0000
1000
1010
,
0010
0110
0100
0000
1001
0000
0010
0000
,
1100
0000
0000
0110
0000
0000
0000
0000
0011
0000
0000
0000
1000
0000
1001
0000
,
0001
0101
0100
0000
1010
0100
0010
0001
,
1100
0000
0010
0000
1001
0000
0100
0001
,
1000
1010
0000
0000
1001
0000
1000
0000
,
0110
0000
0000
0001
1001
0000
0100
0000
,
0010
0000
1010
0000
0000
0110
0000
0000
0101
0000
0001
0000
0010
0000
0100
0000
,
1100
0000
0010
0000
0101
0000
1000
1010
,
0010
0110
0100
0000
1001
0000
0100
0000
,
0020
0000
0000
0000
0000
0000
0000
0000
0000
0030
0000
0000
0001
0000
0000
0000
0000
0000
2000
0000
0000
0000
0000
0000
3000
0000
0000
0000
0000
0000
0020
0000
0000
0000
0000
0000
0030
0000
0000
0000
0000
0000
0100
0000
0001
0000
0100
0000
,
0001
0000
1000
0000
0010
0000
0100
0000
0001
0000
0100
0000
0010
1000
0001
0000
,
1000
0100
0010
0001
0100
0010
1000
0001
0100
0001
0010
0100
1000
0010
0100
0001
,
1000
0100
1000
0010
0100
0001
1000
0100
0010
0001
0100
0010
2000
0000
3000
0000
,
0001
0100
0010
1000
0100
0010
0001
1000
0010
1000
0100
0010
0001
0100
0010
1000
,
0001
0010
0001
0100
0010
1000
0100
0010
0001
0100
0010
1000
0004
0003
0400
0300
,
0040
0030
2000
0000
3001
0010
0100
1000
0010
0100
0010
1000
0001
0100
0010
0100
,
0001
1000
0100
0010
0001
0100
0010
1000
0010
0100
0001
1000
0010
0000
0100
0000
,
0001
1000
0100
0010
0001
0100
0010
0100
0001
1000
0010
1000
0100
0010
0001
0100
,
0010
1000
0001
0010
0100
1000
0010
0100
0001
0000
0000
0000
1100
0000
0000
0000
,
0010
0000
0002
0000
1003
0010
0100
0001
1000
0100
0010
0001
0100
0010
0100
0001
,
0010
0100
1000
0010
0100
0001
0100
0010
1000
0100
0010
0001
1000
0000
0010
0000
,
0100
0001
1000
0100
0010
0001
0100
0010
1000
0001
0010
0001
0100
0010
1000
0100
,
0010
0001
1000
0010
0100
0001
1000
0100
0010
0001
0010
0100
1000
0000
0001
0000
,
0100
0000
0000
0010
1000
0000
0002
0000
0103
0000
0020
0000
1030
0000
0200
0000
,
0310
0000
0002
0000
0003
0100
0000
0000
0010
0000
2000
0000
3001
0000
0010
0000
,
0200
0000
1300
0002
0003
0002
0003
0200
,
0300
0000
0020
0000
1030
0000
0000
0000
0001
0000
0100
0010
1000
0000
0001
0100
,
0010
1000
0100
0010
0001
0100
0010
1000
0001
0010
0001
0100
0010
1000
0100
0010
,
0001
0100
0010
0100
0001
1000
0100
0010
0001
0100
0010
1000
0010
0100
0001
1000
,
0100
0010
0001
1000
0010
1000
0100
0010
0001
0100
0001
1000
0100
1000
0010
0100
,
0001
0100
0010
1000
0100
0010
0001
0100
0010
1000
0001
0010
0001
0100
0010
1000
,
0010
0100
0001
1000
0100
0010
0001
0100
0010
1000
0001
0010
0100
1000
0010
0100
,
0010
1000
0100
0010
0001
0100
0001
1000
0010
0100
0010
1000
0001
0010
0001
0100
,
0010
1000
0100
0010
0001
1000
0100
1000
0010
0100
0001
0100
0010
1000
0100
0010
,
0001
1000
0010
1000
0100
0010
0001
0100
0010
1000
0001
0010
0100
0000
2000
0000
,
3000
0000
0002
0000
0103
0010
1000
0100
0010
0001
0100
0010
1000
0001
0010
0001
,
1000
0100
0010
0001
0100
0010
1000
0010
0100
0001
1000
0100
0010
0001
0100
0010
,
1000
0001
0010
0001
0100
0010
1000
0100
0010
0001
1000
0010
1000
0100
0010
0001
,
0100
0001
1000
0100
1000
0010
0100
0001
0010
0100
1000
0010
0100
0001
1000
0100
,
0010
0001
0100
0001
1000
0100
0010
0001
0100
0010
1000
0001
0010
0001
1000
0100
,
0010
0001
1000
0010
1000
0001
0100
0001
1000
0010
1000
0100
0010
0001
0010
0100
,
1000
0001
0100
0010
1000
0000
0002
0000
0013
0000
0200
0000
1300
0000
0002
0000
,
0103
0000
00M0
0000
0000
0000
00M0
0000
0000
0000
M000
0000
0001
0100
0010
0000
,
1000
1000
0010
0010
0010
0100
0100
0001
,
1000
1000
0010
0010
0010
0100
0100
0001
,
1000
1000
0100
0100
0100
0010
0010
0001
,
0100
0100
0010
0010
0010
1000
1000
0001
,
0100
0100
0010
0010
0010
1000
1000
0001
,
0010
0010
0100
0100
0100
1000
1000
0001
,
0100
0100
0001
0001
0001
1000
1000
0010
,
0100
0100
0001
0001
0001
0100
0100
0010
,
1000
1000
0010
0010
0010
0100
0100
0001
,
1000
1000
0010
0010
0010
0100
0100
0001
,
1000
1000
0100
0100
0100
0010
0010
0001
,
0100
0100
0010
0010
0010
1000
1000
0001
,
0100
0100
0010
0010
0010
1000
1000
0001
,
0010
0010
0100
0100
0100
1000
1000
0001
,
0100
0100
0100
0100
0100
0100
0100
0100
,
0000
M020
000M
0000
0M00
0000
000M
0M00
,
2030
0000
3002
0203
0300
0200
0300
0020
,
0030
2000
3002
0003
0020
0000
0230
0000
,
2300
0000
3002
0203
0300
0020
0030
2000
,
0000
0000
0000
3000
0002
0000
0000
0000
0023
0000
0000
0000
0030
0000
0000
0000
0002
0000
0000
0000
0000
0000
0000
0000
2003
0000
0000
0000
0000
0000
0000
0000
,
3020
0000
0000
0000
0000
0000
0000
0030
0200
0000
0000
0000
0302
0000
0000
0000
0003
0000
0000
0000
2000
0000
0000
0000
3000
0000
0000
0000
0200
0000
0000
0000
,
0300
2000
3020
0030
0200
0000
0302
0000
,
2003
0000
3200
0320
0030
0002
0003
0200
,
0000
0000
0000
0300
0020
0000
0000
0000
2030
0000
0000
0000
3000
0000
0000
0000
0002
0000
0000
0000
0000
0000
0000
0000
0203
0000
0000
0000
0000
0000
0000
0000
,
0320
0000
2030
3200
0310
0002
0003
0020
,
0030
0200
2300
3000
0020
0000
0230
0000
,
0302
0000
0023
0230
0310
0002
0003
2000
,
0000
3002
0023
0230
2300
0000
3002
0000
,
0203
0000
0320
2030
3001
2000
3000
0200
,
0300
2000
3020
0030
0200
0000
0302
0000
,
2003
0000
3200
0320
0031
2000
3000
0020
,
0000
0000
0030
0000
0200
0000
0000
0300
0002
0000
0000
0003
2000
0000
0000
0000
,
301M
0200
0000
0300
0010
0000
1000
0100
0010
0002
0000
0103
0010
1000
0010
0100
,
0001
0020
0000
0130
1000
0001
0100
0010
1000
0200
0000
0310
0001
0100
0010
1000
,
0001
0020
0000
0130
1000
0001
0100
0010
1000
0200
0000
0310
0001
0100
0010
1000
,
0001
0020
0000
0130
1000
0001
0100
0010
1000
0200
0000
1300
0001
0010
0100
1000
,
0001
0200
0000
0310
1000
0001
0100
0001
0010
0200
0000
1300
0001
0100
0010
1000
,
0001
0020
0000
0130
1000
0001
0100
0010
1000
0200
0000
0310
0001
0100
0010
1000
,
0001
0020
0000
0130
1000
0001
0100
0010
1000
0200
0000
1300
0001
0010
0100
1000
,
0001
0200
0000
0310
1000
0001
0100
0001
0010
0200
0000
1300
0001
0010
0001
0100
,
0010
2000
0000
3001
0100
0010
1000
0100
0010
0002
0000
0103
0010
1000
0010
0100
,
0001
2000
0000
3010
0100
0001
1000
0100
1000
0020
0000
0130
0001
0100
0010
1000
,
0002
0000
0000
0003
0200
0000
0320
0000
0030
0000
2000
0000
3000
0000
0002
0000
,
0203
0000
0300
0000
0020
0000
0030
0000
2000
0000
3000
0002
0000
0003
0000
0000
,
0200
0300
0020
2030
3000
0002
0003
0200
,
0320
0000
0030
0000
2000
0000
3000
0000
0002
0000
0003
0200
0000
0300
0000
0000
,
0020
0000
0000
0030
2000
0000
3002
0000
0003
0000
0200
0000
0300
0000
0020
0000
,
2030
0000
3000
0000
0002
0000
0003
0000
0020
0000
0030
0200
0000
0300
0000
0000
,
1000
0000
0001
0000
0100
0000
0010
0000
1000
0100
0000
1000
0100
0000
0010
0000
,
0001
0000
0100
0000
0010
0000
1000
0000
0001
0100
0000
0001
0100
0000
0010
0000
,
1000
0000
0100
0000
1000
0000
0001
0000
0100
0010
0000
0100
0010
0000
1000
0000
,
0001
0000
0010
0000
0100
0000
1000
0000
0010
0100
0000
0010
0100
0000
0001
1000
,
0100
0000
0010
0000
0001
0000
0100
0000
0010
0000
1000
0001
1000
0000
0010
0100
,
0001
0000
1000
0000
0100
0000
0010
0000
0001
0000
0100
0010
1000
0000
0001
0100
,
0010
1000
0100
0010
0001
0100
0010
1000
0002
0000
0003
0200
0000
0300
0020
0000
,
1030
0000
0100
0000
0010
0000
0001
0000
0100
0000
0010
0000
1000
0000
0001
0100
,
0010
1000
0100
0010
0001
0100
0010
1000
0001
0010
0001
0100
0010
1000
0100
0010
,
0001
0100
0010
0100
0001
1000
0100
0010
0001
0100
0010
1000
0010
0100
0001
1000
,
0100
0010
0001
1000
0010
1000
0100
0010
0001
0100
0010
1000
0100
1000
0010
0100
,
0001
0100
0010
1000
0100
0010
0001
0100
0010
1000
0001
0010
0001
0100
0010
1000
,
0001
0100
0010
1000
0100
0010
0001
0100
0010
1000
0001
0010
0100
1000
0001
0100
,
0010
1000
0100
0010
0001
0100
0001
1000
0010
0100
0010
1000
0001
0010
0001
0100
,
0010
1000
0100
0010
0001
1000
0100
1000
0010
0100
0001
0100
0010
1000
0100
0010
,
0001
1000
0010
1000
0100
0010
0001
0100
0010
0000
1000
0001
0000
0000
0200
0000
,
0310
0000
1000
0000
0001
0100
0010
1000
0001
0010
0100
1000
0001
0010
0001
0100
,
0010
1000
0100
0010
0001
0100
0010
0100
0001
1000
0100
0010
0001
0100
0010
1000
,
0010
0100
0001
1000
0100
0010
0001
1000
0010
1000
0100
0010
0001
0100
0010
1000
,
0100
1000
0010
0100
0001
0100
0010
1000
0100
0010
0001
0100
0010
1000
0001
0010
,
0001
0100
0010
1000
0010
0100
0001
1000
0100
0010
0001
0100
0010
1000
0001
0010
,
0100
1000
0010
0100
0010
1000
0100
0010
0001
0100
0001
1000
0010
0100
0010
1000
,
0001
0010
0001
0100
0010
1000
0100
0010
0001
1000
0100
1000
0010
0100
0001
1000
,
0010
0000
0100
0000
0001
1000
0001
0000
0010
0000
0100
1000
0100
0010
0001
0000
,
1000
0010
0100
0001
0010
0001
1000
0010
0100
0001
0010
0001
1000
0100
0010
0001
,
0100
0010
1000
0010
0100
0001
1000
0100
0010
0001
0100
0010
1000
0001
0010
0001
,
0100
0010
1000
0100
0010
0001
1000
0010
1000
0100
0010
0001
0100
0001
1000
0100
,
1000
0010
0100
0001
0010
0100
1000
0010
0100
0001
1000
0100
0010
0001
0100
0001
,
1000
0100
0010
0001
0100
0010
1000
0001
0010
0001
1000
0100
0010
0001
1000
0010
,
1000
0001
0100
0001
1000
0010
1000
0100
0010
0001
0010
0100
1000
0001
0100
0010
,
1000
0100
0010
0001
0100
0010
1000
0001
0010
0001
0100
0010
1000
0100
1000
0001
,
0100
0010
1000
0010
0100
0001
1000
0100
0010
0000
0001
0000
0100
0000
0100
0000
,
0010
0000
2000
0000
3001
0010
0100
1000
0010
0100
0010
1000
0001
0010
0001
0100
,
0010
1000
0100
0010
0001
0100
0010
0100
0001
1000
0100
0010
0001
0100
0010
1000
,
0010
0100
0001
1000
0100
0010
0001
1000
0010
1000
0100
0010
0001
0100
0010
1000
,
0100
1000
0010
0100
0001
0100
0010
1000
0100
0010
0001
0100
0010
1000
0001
0010
,
0001
0100
0010
1000
0010
0100
0001
1000
0100
0010
0001
0100
0010
1000
0001
0010
,
0100
1000
0010
0100
0010
1000
0100
0010
0001
0100
0001
1000
0010
0100
0010
1000
,
0001
0010
0001
0100
0010
1000
0100
0010
0001
1000
0100
1000
0010
0100
0001
0100
,
0020
0000
0030
0000
2000
0000
3000
0000
0002
0000
0000
0003
0200
0000
0000
0300
,
0020
0000
0000
0030
1000
0000
0000
0000
0010
0000
0000
0000
0101
0000
0100
0000
,
0000
0010
1000
0000
0001
0000
1100
1000
,
0000
0010
0100
0000
0001
0000
1010
1000
,
0000
0001
0100
0000
0010
0000
1100
1000
,
0001
0100
0010
1000
0100
0010
0011
0100
,
1000
0001
0100
0010
1000
0001
0101
0010
,
1000
0100
0010
0001
1000
0010
0110
1000
,
0001
0100
0001
0010
0100
1000
1001
0010
,
1000
0100
0010
0001
1001
0010
0100
1000
,
0010
1010
0100
0001
1001
0100
0010
1000
,
0110
0010
0100
0001
1001
0100
0010
1000
,
0001
0000
1001
0000
0000
0110
0000
0000
0101
0000
0001
0000
0010
0000
0100
0000
,
1100
0010
0100
0001
1001
0010
1000
1010
,
0001
0101
0010
1000
1001
0010
0100
1000
,
0001
0110
0101
0000
1010
0000
0101
0011
,
0000
2000
3020
0030
0200
0300
0002
2003
,
3100
0010
0001
0100
0010
1000
0100
1000
0001
0010
0001
0100
0010
1000
0100
0010
,
0001
0100
0010
0100
0001
1000
0100
0010
0001
0100
0010
1000
0010
0100
0001
1000
,
0100
0010
0001
1000
0010
1000
0100
0010
0001
0100
0010
1000
0100
1000
0010
0100
,
0001
0100
0010
1000
0100
0010
0001
0100
0010
1000
0001
0010
0001
0000
1000
0000
,
0010
0100
0001
1000
0100
0010
0001
0100
0010
1000
0001
0010
0100
1000
0010
0100
,
0010
1000
0100
0010
0001
0100
0001
1000
0010
0100
0010
1000
0001
0010
0001
0100
,
0010
1000
0100
0010
0001
1000
0100
1000
0010
0100
0001
0100
0010
1000
0100
0010
,
0001
1000
0010
1000
0100
0000
0010
0000
0001
0000
0100
0000
1010
0000
1010
0000
,
0100
0000
0002
0000
1003
0010
0100
0001
1000
0100
0010
0001
0100
0010
0100
0001
,
0010
0100
1000
0010
0100
0001
0100
0010
1000
0100
0010
0001
1000
0000
0010
0000
,
0100
0001
1000
0100
0010
0001
0100
0010
1000
0001
0010
0001
0100
0010
1000
0100
,
0010
0001
1000
0010
0100
0001
1000
0100
0010
0001
0010
0100
1000
0000
0010
0000
,
0100
0001
0101
0010
1000
0100
0011
0011
,
0000
0000
1000
0000
0010
0100
0000
0010
0100
0000
0001
0000
1100
0000
1100
0000
,
0010
0200
0301
2000
3100
0020
1031
2002
,
3003
0000
0000
0000
00M0
0000
0000
0M00
0000
000M
0000
0000
M000
0000
0000
0000
0M00
0000
0000
0000
00M0
0000
0000
0000
000M
0000
0000
0000
0000
0000
0000
0000
,
2000
3200
0320
0032
0000
0003
0000
0000
,
2000
0000
3000
0020
0000
0030
0200
0000
,
0302
0023
0230
2300
0000
3000
0000
0000
,
0002
0000
0003
0200
0000
0300
0020
0000
,
2030
3002
0203
0320
0000
2030
0000
3000
,
0002
0000
0003
0200
0000
0300
0020
0000
,
2030
0000
3000
0002
0000
0003
0200
0000
,
0320
0000
0030
0000
,
2000
3200
0320
0032
0000
0003
0000
0000
,
2000
0000
3000
0020
0000
0030
0200
0000
,
0302
0023
0230
2300
0000
3000
0000
0000
,
0002
0000
0003
0200
0000
0300
0020
0000
,
2030
0000
3000
0002
0000
0003
0200
0000
,
0000
0300
0000
0000
0000
0000
0002
0023
,
0230
0000
0300
2000
0000
3000
0002
0000
,
0003
0000
0000
0000
,
1000
0000
0001
0000
0100
0000
0010
0000
1000
0100
0000
1000
0100
0000
0010
0000
,
0001
0000
0100
0000
0010
0000
1000
0000
0001
0100
0000
0001
0100
0000
0010
0000
,
1000
0000
0100
0000
1000
0000
0001
0000
0100
0010
0000
0100
0010
0000
1000
0000
,
0001
0000
0010
0000
0100
0000
1000
0000
0010
0100
0000
0010
0100
0000
0001
0000
,
1000
0000
0010
0000
0100
0000
0001
0000
1000
0010
0000
1000
0010
0000
0100
0000
,
0010
0000
1000
0000
0001
0000
0010
0000
0100
1000
0000
0100
1000
0000
0010
0000
,
0100
0000
0001
0000
1000
0000
0001
0000
0010
0100
0000
0010
0100
0000
1000
0000
,
0001
0000
0100
0000
0010
0000
1000
0000
0001
0100
0000
0001
0100
0000
0010
0000
,
1000
0000
0010
0000
0100
0000
0001
0000
1000
0010
0000
1000
0010
0000
0100
0000
,
0010
0000
1000
0000
0001
0000
0010
0000
0100
1000
0000
0100
1000
0000
0010
0000
,
0100
0000
0001
0000
1000
0000
0001
0000
0010
0100
0000
0010
0100
0000
1000
0000
,
0001
0000
0100
0000
0010
0000
1000
0000
0001
0100
0000
0001
0100
0000
0010
1000
,
0001
0000
0100
0000
0010
0000
1000
0000
0001
0000
0010
0000
0100
0000
1000
0001
,
0100
0000
0010
0000
1000
0000
0100
0000
1000
0000
0001
0100
0010
0000
1000
0000
,
0001
0010
0100
1000
0010
0100
0001
1000
0100
1000
0010
0100
0001
1000
0100
1000
,
0010
0000
0200
0000
0302
0000
0013
0000
0100
0000
1000
0000
0010
0000
0100
0001
,
1000
0100
0010
0001
0100
0010
1000
0001
0010
0001
0100
0010
1000
0100
0010
0001
,
0100
0010
0100
0001
1000
0100
0010
0001
0100
0010
1000
0010
0100
0001
1000
0100
,
0010
0001
1000
0010
1000
0100
0010
0001
0100
0010
1000
0100
1000
0010
0100
0001
,
0100
0010
1000
0100
0010
0001
0100
0010
1000
0001
0010
0001
0100
0010
1000
0001
,
0100
0010
1000
0100
0010
0001
0100
0010
1000
0001
0010
0100
1000
0001
0100
0010
,
1000
0100
0010
0001
0100
0001
1000
0010
0100
0010
1000
0001
0010
0001
0100
0010
,
1000
0100
0010
0001
1000
0100
1000
0010
0100
0001
0100
0010
1000
0100
0010
0001
,
1000
0010
1000
0100
0010
0001
0100
0010
1000
0000
0001
0010
0000
0000
0200
0000
,
1300
0000
0002
0000
0013
0100
1000
0001
0100
0010
1000
0001
0010
0001
0100
0010
,
1000
0100
0010
0001
0100
0010
0100
0001
1000
0100
0010
0001
0100
0010
1000
0010
,
0100
0001
1000
0100
0010
0001
1000
0010
1000
0100
0010
0001
0100
0010
1000
0100
,
1000
0010
0100
0001
0100
0010
1000
0100
0010
0001
0100
0010
1000
0001
0010
0001
,
0100
0010
1000
0010
0100
0001
1000
0100
0010
0001
0100
0010
1000
0001
0010
0100
,
1000
0001
0100
0010
1000
0100
0010
0001
0100
0001
1000
0010
0100
0010
1000
0001
,
0010
0000
0100
0000
1000
0000
0001
0000
0100
0010
0000
0100
0010
0000
1000
0000
,
0001
0000
0010
0000
0100
0000
1000
0000
0001
0000
0100
0010
1000
0000
0001
0000
,
1000
0010
0100
0001
0010
0001
1000
0010
0100
0001
0010
0001
1000
0100
0010
0001
,
0100
0010
1000
0010
0100
0001
1000
0100
0010
0001
0100
0010
1000
0001
0010
0001
,
0100
0010
1000
0100
0010
0001
1000
0010
1000
0100
0010
0001
0100
0001
1000
0100
,
1000
0010
0100
0001
0010
0100
1000
0010
0100
0001
1000
0100
0010
0001
0100
0001
,
1000
0100
0010
0001
0100
0010
1000
0001
0010
0001
1000
0100
0010
0001
1000
0010
,
1000
0001
0100
0001
1000
0010
1000
0100
0010
0001
0010
0100
1000
0001
0100
0010
,
1000
0100
0010
0001
0100
0010
1000
0001
0010
0001
0100
0010
1000
0100
1000
0001
,
0100
0010
1000
0010
0100
0001
1000
0100
0010
0000
0001
0000
0100
0000
0100
0000
,
0010
0000
2000
0000
3001
0010
0100
1000
0010
0100
0010
1000
0001
0010
0001
0100
,
0010
1000
0100
0010
0001
0100
0010
0100
0001
1000
0100
0010
0001
0100
0010
1000
,
0010
0100
0001
1000
0100
0010
0001
1000
0010
1000
0100
0010
0001
0100
0010
1000
,
0100
1000
0010
0100
0001
0100
0010
1000
0100
0010
0001
0100
0010
1000
0001
0010
,
0001
0100
0010
1000
0010
0100
0001
1000
0100
0010
0001
0100
0010
1000
0001
0010
,
0100
1000
0010
0100
0010
1000
0100
0010
0001
0100
0001
1000
0010
0100
0010
1000
,
0001
0100
0010
1000
0100
1000
0001
0200
,
0300
0000
0000
0000
0020
0000
0030
0000
2000
0000
3000
0000
0001
0100
0010
0000
,
1000
0100
0010
0001
0100
0010
1000
0001
0100
0001
0010
0100
1000
0010
0100
0001
,
1000
0100
1000
0010
0100
0001
1000
0100
0010
0001
0100
0010
2000
0000
3000
0000
,
0001
0100
0010
1000
0100
0010
0001
1000
0010
1000
0100
0010
0001
0100
0010
1000
,
0001
0010
0001
0100
0010
1000
0100
0010
0001
0100
0010
1000
0001
0000
0100
0000
,
0010
0100
0001
1000
0100
0010
0001
1000
0010
1000
0100
0010
0001
0100
0010
1000
,
0001
0010
0001
0100
0010
1000
0100
0010
0001
0100
0010
1000
0002
0000
0003
0000
,
1000
0100
0010
0001
0100
0010
1000
0001
0100
0001
0010
0100
1000
0010
0100
0001
,
1000
0100
1000
0010
0100
0001
1000
0100
0010
0001
0100
0010
2000
0000
0000
0000
,
3010
0000
0200
0000
0301
1000
0010
1000
0100
0010
0001
0100
0010
1000
0100
0010
,
0001
0100
0010
1000
0001
0010
0001
0100
0010
1000
0100
0010
0002
0000
0003
0000
,
1000
0100
0010
0001
0100
0010
1000
0001
0100
0001
0010
0100
1000
0010
0100
0001
,
1000
0100
1000
0010
0100
0001
1000
0100
0010
0001
0100
0010
1000
0100
0010
0001
,
1000
0100
0010
0001
0100
0001
1000
0010
,
0100
0001
1000
0100
0010
0001
0100
0010
,
1000
0100
0010
0001
0100
0010
1000
0010
0100
0001
0010
0100
1000
0001
2000
0000
,
3000
0000
0000
0000
0020
0000
0030
0000
0200
0000
0000
0000
0302
0000
0000
0003
,
0002
0000
0000
0000
0000
0000
0003
M000
0000
0000
0000
0000
0000
0000
0000
0000
,
0000
0000
0000
0000
,
0000
0000
0000
0000
;

//---------------dance-single - 21.65 (21+) (owenvia----------------
#NOTES:
     dance-single:
     21.65 (21+) (owenvia:
     Challenge:
     21:
     1.000,1.000,0.198,0.646,1.000,3427.000,70.000,228.000,17.000,1.000:
1100
0000
0010
0000
1001
0000
0100
0001
,
1000
1010
0000
0000
1001
0000
1000
0000
,
0110
0000
0000
0001
1001
0000
0100
0000
,
0010
0000
1010
0000
0000
0110
0000
0000
0101
0000
0001
0000
0010
0000
0100
0000
,
1100
0000
0010
0000
0101
0000
1000
1010
,
0010
0110
0100
0000
1001
0000
0010
0000
,
1100
0000
0000
0110
0000
0000
0000
0000
0011
0000
0000
0000
1000
0000
1001
0000
,
0001
0101
0100
0000
1010
0100
0010
0001
,
1100
0000
0010
0000
1001
0000
0100
0001
,
1000
1010
0000
0000
1001
0000
1000
0000
,
0110
0000
0000
0001
1001
0000
0100
0000
,
0010
0000
1010
0000
0000
0110
0000
0000
0101
0000
0001
0000
0010
0000
0100
0000
,
1100
0000
0010
0000
0101
0000
1000
1010
,
0010
0110
0100
0000
1001
0000
0100
0000
,
0020
0000
0000
0000
0000
0000
0000
0000
0000
0030
0000
0000
0001
0000
0000
0000
0000
0000
2000
0000
0000
0000
0000
0000
3000
0000
0000
0000
0000
0000
0020
0000
0000
0000
0000
0000
0030
0000
0000
0000
0000
0000
0100
0000
0001
0000
0100
0000
,
0001
0000
1000
0000
0010
0000
0100
0000
0001
0000
0100
0000
0010
1000
0001
0000
,
1000
0010
0100
0001
1000
0100
0010
0001
0100
0010
1000
0010
0100
0001
1000
0100
0010
0001
0100
0010
1000
0001
0010
0001
,
0100
0010
1000
0100
0010
0001
0100
0001
1000
0010
0100
0001
1000
0100
0010
0001
0100
0010
2000
0000
0000
3000
0000
0000
,
0001
0010
0100
1000
0010
0100
0010
1000
0001
0010
0100
1000
0010
0100
0001
1000
0100
0010
0001
0100
0010
1000
0010
0100
,
0001
0000
1000
0000
0100
0000
0010
0000
0001
0000
1000
0000
0100
0000
1000
0000
0010
0000
0100
0000
0001
0000
0010
0000
0100
0000
1000
0000
0001
0000
0100
0000
0010
0000
1000
0000
0004
0000
0000
0003
0000
0000
0400
0000
0000
0300
0000
0000
,
0040
0000
0000
0030
0000
0000
2000
0000
0000
0000
0000
0000
3001
0000
0010
0000
0100
0000
1000
0000
0010
0000
0100
0000
0010
0000
1000
0000
0100
0000
0010
0000
0001
0000
0100
0000
0010
0000
1000
0000
0001
0000
0010
0000
0001
0000
0100
0000
,
0010
1000
0100
0010
0001
1000
0010
1000
0001
0100
0001
1000
0100
0010
0001
0100
0010
1000
0001
0000
0000
0100
0000
0000
,
0010
1000
0100
0010
0001
1000
0010
1000
0100
0010
0001
0010
0100
1000
0010
0100
0010
1000
0001
0100
0001
0010
0100
1000
,
0010
0100
0001
1000
0100
0010
0001
1000
0100
1000
0010
0100
0001
0000
0000
0000
0000
0000
1100
0000
0000
0000
0000
0000
,
0010
0000
0000
0002
0000
0000
1003
0010
0100
0010
1000
0001
0100
0010
1000
0100
0010
0001
0100
0010
1000
0001
0010
0001
,
0100
0010
1000
0100
0010
0001
0100
0001
1000
0010
0100
0010
1000
0001
0010
0001
0100
0010
1000
0000
0000
0010
0000
0000
,
0100
0001
1000
0010
0100
0010
1000
0001
0010
0100
1000
0010
0100
0001
1000
0100
1000
0010
0100
0010
1000
0001
0100
0001
,
0010
0100
1000
0010
0100
0001
1000
0100
1000
0001
0100
0010
1000
0100
0010
0001
0100
0010
1000
0000
0000
0001
0000
0000
,
0100
0000
0000
0010
1000
0000
0002
0000
0103
0000
0020
0000
1030
0000
0200
0000
,
0310
0000
0002
0000
0003
0100
0000
0000
0010
0000
2000
0000
3001
0000
0010
0000
,
0200
0000
1300
0002
0003
0002
0003
0200
,
0300
0000
0020
0000
1030
0000
0000
0000
0001
0000
0100
0010
1000
0000
0001
0100
,
0010
1000
0100
0010
0001
0100
0010
1000
0010
0100
0001
1000
0100
0010
0001
0100
0010
1000
0001
0010
0001
0100
0010
1000
,
0100
0010
0001
0100
0010
0100
0001
1000
0100
0010
0001
0100
0010
1000
0001
0010
0100
1000
0010
0100
0010
1000
0001
1000
,
0010
0100
0001
1000
0100
0010
0001
1000
0001
0010
0100
1000
0010
0100
0001
1000
0010
1000
0100
0010
0001
0010
0100
1000
,
0001
0010
0001
0100
0010
1000
0001
0100
0010
1000
0100
0010
0001
0100
0010
1000
0001
0010
0001
0100
0010
1000
0001
1000
,
0010
0100
0010
1000
0001
0100
0001
0010
0100
1000
0010
0100
0001
1000
0100
0010
0001
0100
0010
1000
0100
1000
0001
0100
,
0010
1000
0001
0010
0001
0100
0010
1000
0100
1000
0001
0100
0010
1000
0010
0100
0001
1000
0100
0010
0001
0100
0010
1000
,
0001
0010
0100
1000
0010
0100
0001
1000
0100
1000
0010
0100
0001
0100
0010
1000
0100
0010
0001
1000
0001
0010
0100
1000
,
0010
0100
0001
0100
0010
1000
0001
0010
0001
1000
0100
0010
0001
0100
0010
1000
0001
0010
0100
0000
0000
2000
0000
0000
,
3000
0000
0000
0002
0000
0000
1003
0010
0100
0001
1000
0010
0100
0001
0100
0010
1000
0100
0010
0001
0100
0010
1000
0001
,
0010
0001
0100
0010
1000
0100
0010
0001
0100
0010
0100
0001
1000
0100
0010
0001
0100
0010
1000
0001
0010
0100
1000
0010
,
0100
0010
1000
0001
1000
0010
0100
0001
1000
0100
0010
0001
1000
0001
0010
0100
1000
0100
0010
0001
0100
0010
1000
0010
,
0100
0001
1000
0100
0010
0001
0100
0010
1000
0001
0010
0001
0100
0010
1000
0100
0010
0001
0100
0010
0100
0001
1000
0100
,
0010
0001
0100
0010
1000
0001
0010
0100
1000
0010
0100
0010
1000
0001
1000
0010
0100
0001
1000
0100
0010
0001
1000
0001
,
0010
0100
1000
0010
0100
0001
1000
0100
0010
0001
0100
0010
1000
0001
0010
0001
0100
0010
1000
0001
1000
0010
0100
0001
,
1000
0100
0010
0001
0100
0010
1000
0000
0000
0002
0000
0000
0013
0000
0000
0200
0000
0000
1300
0000
0000
0002
0000
0000
,
0103
0000
00M0
0000
0000
0000
00M0
0000
0000
0000
M000
0000
0001
0100
0010
0000
,
1000
1000
0010
0010
0010
0100
0100
0001
,
1000
1000
0010
0010
0010
0100
0100
0001
,
1000
1000
0100
0100
0100
0010
0010
0001
,
0100
0100
0010
0010
0010
1000
1000
0001
,
0100
0100
0010
0010
0010
1000
1000
0001
,
0010
0010
0100
0100
0100
1000
1000
0001
,
0100
0100
0001
0001
0001
1000
1000
0010
,
0100
0100
0001
0001
0001
0100
0100
0010
,
1000
1000
0010
0010
0010
0100
0100
0001
,
1000
1000
0010
0010
0010
0100
0100
0001
,
1000
1000
0100
0100
0100
0010
0010
0001
,
0100
0100
0010
0010
0010
1000
1000
0001
,
0100
0100
0010
0010
0010
1000
1000
0001
,
0010
0010
0100
0100
0100
1000
1000
0001
,
0100
0100
0100
0100
0100
0100
0100
0100
,
0000
M020
000M
0000
0M00
0000
000M
0M00
,
2030
0000
3002
0203
0300
0200
0300
0020
,
0030
2000
3002
0003
0020
0000
0230
0000
,
2300
0000
3002
0203
0300
0020
0030
2000
,
0000
0000
0000
3000
0002
0000
0000
0000
0023
0000
0000
0000
0030
0000
0000
0000
0002
0000
0000
0000
0000
0000
0000
0000
2003
0000
0000
0000
0000
0000
0000
0000
,
3020
0000
0000
0000
0000
0000
0000
0030
0200
0000
0000
0000
0302
0000
0000
0000
0003
0000
0000
0000
2000
0000
0000
0000
3000
0000
0000
0000
0200
0000
0000
0000
,
0300
2000
3020
0030
0200
0000
0302
0000
,
2003
0000
3200
0320
0030
0002
0003
0200
,
0000
0000
0000
0300
0020
0000
0000
0000
2030
0000
0000
0000
3000
0000
0000
0000
0002
0000
0000
0000
0000
0000
0000
0000
0203
0000
0000
0000
0000
0000
0000
0000
,
0320
0000
2030
3200
0310
0002
0003
0020
,
0030
0200
2300
3000
0020
0000
0230
0000
,
0302
0000
0023
0230
0310
0002
0003
2000
,
0000
3002
0023
0230
2300
0000
3002
0000
,
0203
0000
0320
2030
3001
2000
3000
0200
,
0300
2000
3020
0030
0200
0000
0302
0000
,
2003
0000
3200
0320
0031
2000
3000
0020
,
0000
0000
0030
0000
0200
0000
0000
0300
0002
0000
0000
0003
2000
0000
0000
0000
,
301M
0200
0000
0300
0010
0000
1000
0100
0010
0002
0000
0103
0010
1000
0010
0100
,
0001
0020
0000
0130
1000
0001
0100
0010
1000
0200
0000
0310
0001
0100
0010
1000
,
0001
0020
0000
0130
1000
0001
0100
0010
1000
0200
0000
0310
0001
0100
0010
1000
,
0001
0020
0000
0130
1000
0001
0100
0010
1000
0200
0000
1300
0001
0010
0100
1000
,
0001
0200
0000
0310
1000
0001
0100
0001
0010
0200
0000
1300
0001
0100
0010
1000
,
0001
0020
0000
0130
1000
0001
0100
0010
1000
0200
0000
0310
0001
0100
0010
1000
,
0001
0020
0000
0130
1000
0001
0100
0010
1000
0200
0000
1300
0001
0010
0100
1000
,
0001
0200
0000
0310
1000
0001
0100
0001
0010
0200
0000
1300
0001
0010
0001
0100
,
0010
2000
0000
3001
0100
0010
1000
0100
0010
0002
0000
0103
0010
1000
0010
0100
,
0001
2000
0000
3010
0100
0001
1000
0100
1000
0020
0000
0130
0001
0100
0010
1000
,
0002
0000
0000
0003
0200
0000
0320
0000
0030
0000
2000
0000
3000
0000
0002
0000
,
0203
0000
0300
0000
0020
0000
0030
0000
2000
0000
3000
0002
0000
0003
0000
0000
,
0200
0300
0020
2030
3000
0002
0003
0200
,
0320
0000
0030
0000
2000
0000
3000
0000
0002
0000
0003
0200
0000
0300
0000
0000
,
0020
0000
0000
0030
2000
0000
3002
0000
0003
0000
0200
0000
0300
0000
0020
0000
,
2030
0000
3000
0000
0002
0000
0003
0000
0020
0000
0030
0200
0000
0300
0000
0000
,
1000
0000
0001
0000
0100
0000
0010
0000
1000
0100
0000
1000
0100
0000
0010
0000
,
0001
0000
0100
0000
0010
0000
1000
0000
0001
0100
0000
0001
0100
0000
0010
0000
,
1000
0000
0100
0000
1000
0000
0001
0000
0100
0010
0000
0100
0010
0000
1000
0000
,
0001
0000
0010
0000
0100
0000
1000
0000
0010
0100
0000
0010
0100
0000
0001
1000
,
0100
0000
0010
0000
0001
0000
0100
0000
0010
0000
1000
0001
1000
0000
0010
0100
,
0001
0000
1000
0000
0100
0000
0010
0000
0001
0000
0100
0010
1000
0000
0001
0100
,
0010
1000
0100
0010
0001
0100
0010
1000
0002
0000
0003
0200
0000
0300
0020
0000
,
1030
0000
0100
0000
0010
0000
0001
0000
0100
0000
0010
0000
1000
0000
0001
0100
,
0010
1000
0100
0010
0001
0100
0010
1000
0010
0100
0001
1000
0100
0010
0001
0100
0010
1000
0001
0010
0001
0100
0010
1000
,
0100
0010
0001
0100
0010
0100
0001
1000
0100
0010
0001
0100
0010
1000
0001
0010
0100
1000
0010
0100
0010
1000
0001
1000
,
0010
0100
0001
1000
0100
0010
0001
1000
0001
0010
0100
1000
0010
0100
0001
1000
0010
1000
0100
0010
0001
0010
0100
1000
,
0001
0010
0001
0100
0010
1000
0001
0100
0010
1000
0100
0010
0001
0100
0010
1000
0001
0010
0001
0100
0010
1000
0001
1000
,
0010
0100
0010
1000
0001
0100
0001
0010
0100
1000
0010
0100
0001
1000
0100
0010
0001
0100
0010
1000
0100
1000
0001
0100
,
0010
1000
0001
0010
0001
0100
0010
1000
0100
1000
0001
0100
0010
1000
0010
0100
0001
1000
0100
0010
0001
0100
0010
1000
,
0001
0010
0100
1000
0010
0100
0001
1000
0100
1000
0010
0100
0001
0100
0010
1000
0100
0010
0001
1000
0001
0010
0100
1000
,
0010
0100
0001
0100
0010
1000
0001
0010
0001
1000
0100
0010
0001
0100
0010
1000
0001
0100
0010
0000
0000
0200
0000
0000
,
0301
0000
0000
1000
0000
0000
0001
0010
0100
1000
0010
0100
0001
1000
0100
0010
0001
0100
0010
1000
0001
0010
0001
0100
,
0010
1000
0100
0010
0001
1000
0010
1000
0001
0100
0001
1000
0100
0010
0001
0100
0010
1000
0001
0010
0100
1000
0010
0100
,
0001
1000
0100
0010
0001
0100
0010
1000
0001
0010
0001
0100
0010
1000
0100
0010
0001
1000
0010
1000
0001
0100
0001
1000
,
0100
0010
0001
0100
0010
1000
0001
0010
0100
1000
0010
0100
0001
1000
0100
0010
0001
0100
0010
1000
0001
0010
0001
0100
,
0010
1000
0100
0010
0001
1000
0010
1000
0001
0100
0001
1000
0100
0010
0001
0100
0010
1000
0001
0010
0100
1000
0010
0100
,
0001
1000
0100
0010
0001
0100
0010
1000
0001
0010
0001
0100
0010
1000
0100
0010
0001
1000
0010
1000
0001
0100
0001
1000
,
0100
0010
0001
0100
0010
1000
0001
0010
0100
1000
0010
0100
0001
1000
0010
1000
0100
0010
0001
0100
0001
1000
0010
0100
,
0001
0000
0100
0000
0001
1000
0001
0000
0010
0000
0100
1000
0100
0010
0001
0000
,
1000
0010
0100
0001
1000
0100
0010
0001
0100
0010
1000
0001
0010
0001
0100
0010
1000
0100
0010
0001
0100
0010
0100
0001
,
1000
0100
0010
0001
0100
0010
1000
0001
0010
0100
1000
0010
0100
0010
1000
0001
1000
0010
0100
0001
1000
0100
0010
0001
,
1000
0001
0010
0100
1000
0010
0100
0001
1000
0010
1000
0100
0010
0001
0010
0100
1000
0001
0010
0001
0100
0010
1000
0001
,
0100
0010
1000
0100
0010
0001
0100
0010
1000
0001
0010
0001
0100
0010
1000
0001
1000
0010
0100
0010
1000
0001
0100
0001
,
0010
0100
1000
0010
0100
0001
1000
0100
0010
0001
0100
0010
1000
0100
1000
0001
0100
0010
1000
0001
0010
0001
0100
0010
,
1000
0100
1000
0001
0100
0010
1000
0010
0100
0001
1000
0100
0010
0001
0100
0010
1000
0001
0010
0100
1000
0010
0100
0001
,
1000
0100
1000
0010
0100
0001
0100
0010
1000
0100
0010
0001
1000
0001
0010
0100
1000
0010
0100
0001
0100
0010
1000
0001
,
0010
0001
1000
0100
0010
0001
0100
0010
1000
0001
0010
0100
1000
0000
0000
0001
0000
0000
0100
0000
0000
0100
0000
0000
,
0010
0000
0000
2000
0000
0000
3001
0010
0100
1000
0010
0100
0001
1000
0100
0010
0001
0100
0010
1000
0001
0010
0001
0100
,
0010
1000
0100
0010
0001
1000
0010
1000
0001
0100
0001
1000
0100
0010
0001
0100
0010
1000
0001
0010
0100
1000
0010
0100
,
0001
1000
0100
0010
0001
0100
0010
1000
0001
0010
0001
0100
0010
1000
0100
0010
0001
1000
0010
1000
0001
0100
0001
1000
,
0100
0010
0001
0100
0010
1000
0001
0010
0100
1000
0010
0100
0001
1000
0100
0010
0001
0100
0010
1000
0001
0010
0001
0100
,
0010
1000
0100
0010
0001
1000
0010
1000
0001
0100
0001
1000
0100
0010
0001
0100
0010
1000
0001
0010
0100
1000
0010
0100
,
0001
1000
0100
0010
0001
0100
0010
1000
0001
0010
0001
0100
0010
1000
0100
0010
0001
1000
0010
1000
0001
0100
0001
1000
,
0100
0010
0001
0100
0010
1000
0001
0010
0100
1000
0010
0100
0001
1000
0010
1000
0100
0010
0001
0100
0010
1000
0001
0100
,
0020
0000
0030
0000
2000
0000
3000
0000
0002
0000
0000
0003
0200
0000
0000
0300
,
0020
0000
0000
0030
1000
0000
0000
0000
0010
0000
0000
0000
0101
0000
0100
0000
,
0000
0010
1000
0000
0001
0000
1100
1000
,
0000
0010
0100
0000
0001
0000
1010
1000
,
0000
0001
0100
0000
0010
0000
1100
1000
,
0001
0100
0010
1000
0100
0010
0011
0100
,
1000
0001
0100
0010
1000
0001
0101
0010
,
1000
0100
0010
0001
1000
0010
0110
1000
,
0001
0100
0001
0010
0100
1000
1001
0010
,
1000
0100
0010
0001
1001
0010
0100
1000
,
0010
1010
0100
0001
1001
0100
0010
1000
,
0110
0010
0100
0001
1001
0100
0010
1000
,
0001
0000
1001
0000
0000
0110
0000
0000
0101
0000
0001
0000
0010
0000
0100
0000
,
1100
0010
0100
0001
1001
0010
1000
1010
,
0001
0101
0010
1000
1001
0010
0100
1000
,
0001
0110
0101
0000
1010
0000
0101
0011
,
0000
2000
3020
0030
0200
0300
0002
2003
,
3100
0010
0001
1000
0010
0100
0010
1000
0001
0010
0100
1000
0010
0100
0001
1000
0100
0010
0001
0100
0010
1000
0010
0100
,
0001
1000
0100
0010
0001
1000
0100
1000
0010
0100
0001
0010
0100
1000
0001
0100
0010
1000
0001
0010
0100
1000
0010
0100
,
0010
1000
0001
0010
0100
1000
0010
0100
0001
1000
0100
0010
0001
0100
0010
1000
0010
0100
0001
1000
0100
0010
0001
1000
,
0100
1000
0010
0100
0001
0010
0100
1000
0001
0100
0010
1000
0001
0100
0001
1000
0100
0010
0001
0000
0000
1000
0000
0000
,
0001
0010
0100
1000
0010
0100
0010
1000
0001
0010
0100
1000
0010
0100
0001
1000
0100
0010
0001
0100
0010
1000
0010
0100
,
0001
1000
0100
0010
0001
1000
0100
1000
0010
0100
0001
0010
0100
1000
0001
0100
0010
1000
0001
0010
0100
1000
0010
0100
,
0010
1000
0001
0010
0100
1000
0010
0100
0001
1000
0100
0010
0001
0100
0010
1000
0010
0100
0001
1000
0100
0010
0001
1000
,
0100
1000
0010
0100
0001
1000
0100
0000
0000
0010
0000
0000
0001
0000
0000
0100
0000
0000
1010
0000
0000
1010
0000
0000
,
0100
0000
0000
0002
0000
0000
1003
0100
0010
0001
0100
0010
1000
0010
0100
0001
1000
0100
0010
0001
0100
0010
1000
0001
,
0010
0001
0100
0010
1000
0001
1000
0010
0100
0001
1000
0100
0010
0001
0100
0010
1000
0001
0100
0000
0000
0010
0000
0000
,
1000
0100
0010
0001
1000
0001
0100
0010
1000
0001
0010
0100
1000
0010
0100
0010
1000
0001
1000
0010
0100
0001
1000
0100
,
0010
0001
0100
0001
1000
0100
0010
0001
0100
0010
1000
0001
0010
0001
0100
0010
1000
0001
0100
0000
0000
0010
0000
0000
,
1000
0001
0101
0010
1000
0100
0011
0011
,
0000
0000
1000
0000
0010
0100
0000
0010
0100
0000
0001
0000
1100
0000
1100
0000
,
0010
0200
0301
2000
3100
0020
1031
2002
,
3003
0000
0000
0000
00M0
0000
0000
0M00
0000
000M
0000
0000
M000
0000
0000
0000
0M00
0000
0000
0000
00M0
0000
0000
0000
000M
0000
0000
0000
0000
0000
0000
0000
,
2000
3200
0320
0032
0000
0003
0000
0000
,
2000
0000
3000
0020
0000
0030
0200
0000
,
0302
0023
0230
2300
0000
3000
0000
0000
,
0002
0000
0003
0200
0000
0300
0020
0000
,
2030
3002
0203
0320
0000
2030
0000
3000
,
0002
0000
0003
0200
0000
0300
0020
0000
,
2030
0000
3000
0002
0000
0003
0200
0000
,
0320
0000
0030
0000
,
2000
3200
0320
0032
0000
0003
0000
0000
,
2000
0000
3000
0020
0000
0030
0200
0000
,
0302
0023
0230
2300
0000
3000
0000
0000
,
0002
0000
0003
0200
0000
0300
0020
0000
,
2030
0000
3000
0002
0000
0003
0200
0000
,
0000
0300
0000
0000
0000
0000
0002
0023
,
0230
0000
0300
2000
0000
3000
0002
0000
,
0003
0000
0000
0000
,
1000
0000
0001
0000
0100
0000
0010
0000
1000
0100
0000
1000
0100
0000
0010
0000
,
0001
0000
0100
0000
0010
0000
1000
0000
0001
0100
0000
0001
0100
0000
0010
0000
,
1000
0000
0100
0000
1000
0000
0001
0000
0100
0010
0000
0100
0010
0000
1000
0000
,
0001
0000
0010
0000
0100
0000
1000
0000
0010
0100
0000
0010
0100
0000
0001
0000
,
1000
0000
0010
0000
0100
0000
0001
0000
1000
0010
0000
1000
0010
0000
0100
0000
,
0010
0000
1000
0000
0001
0000
0010
0000
0100
1000
0000
0100
1000
0000
0010
0000
,
0100
0000
0001
0000
1000
0000
0001
0000
0010
0100
0000
0010
0100
0000
1000
0000
,
0001
0000
0100
0000
0010
0000
1000
0000
0001
0100
0000
0001
0100
0000
0010
0000
,
1000
0000
0010
0000
0100
0000
0001
0000
1000
0010
0000
1000
0010
0000
0100
0000
,
0010
0000
1000
0000
0001
0000
0010
0000
0100
1000
0000
0100
1000
0000
0010
0000
,
0100
0000
0001
0000
1000
0000
0001
0000
0010
0100
0000
0010
0100
0000
1000
0000
,
0001
0000
0100
0000
0010
0000
1000
0000
0001
0100
0000
0001
0100
0000
0010
1000
,
0001
0000
0100
0000
0010
0000
1000
0000
0001
0000
0010
0000
0100
0000
1000
0001
,
0100
0000
0010
0000
1000
0000
0100
0000
1000
0000
0001
0100
0010
0000
1000
0000
,
0001
0010
0100
1000
0010
0100
0001
1000
0100
1000
0010
0100
0001
1000
0100
1000
,
0010
0000
0200
0000
0302
0000
0013
0000
0100
0000
1000
0000
0010
0000
0100
0001
,
1000
0010
0100
0001
1000
0100
0010
0001
0100
0010
1000
0001
0010
0001
0100
0010
1000
0100
0010
0001
0100
0010
0100
0001
,
1000
0100
0010
0001
0100
0010
1000
0001
0010
0100
1000
0010
0100
0010
1000
0001
1000
0010
0100
0001
1000
0100
0010
0001
,
1000
0001
0010
0100
1000
0010
0100
0001
1000
0010
1000
0100
0010
0001
0010
0100
1000
0001
0010
0001
0100
0010
1000
0001
,
0100
0010
1000
0100
0010
0001
0100
0010
1000
0001
0010
0001
0100
0010
1000
0001
1000
0010
0100
0010
1000
0001
0100
0001
,
0010
0100
1000
0010
0100
0001
1000
0100
0010
0001
0100
0010
1000
0100
1000
0001
0100
0010
1000
0001
0010
0001
0100
0010
,
1000
0100
1000
0001
0100
0010
1000
0010
0100
0001
1000
0100
0010
0001
0100
0010
1000
0001
0010
0100
1000
0010
0100
0001
,
1000
0100
1000
0010
0100
0001
0100
0010
1000
0100
0010
0001
1000
0001
0010
0100
1000
0010
0100
0001
0100
0010
1000
0001
,
0010
0000
0001
0000
1000
0000
0100
0000
0010
0000
0001
0000
0100
0000
0010
0000
1000
0000
0001
0000
0010
0000
0100
0000
1000
0000
0000
0000
0000
0000
0001
0000
0000
0010
0000
0000
0000
0000
0000
0000
0000
0000
0200
0000
0000
0000
0000
0000
,
1300
0000
0000
0002
0000
0000
0013
0100
1000
0001
0100
0010
0100
0001
1000
0010
0100
0001
0010
0001
0100
0010
1000
0100
,
0010
0001
0100
0010
0100
0001
1000
0100
0010
0001
0100
0010
1000
0001
0010
0100
1000
0010
0100
0010
1000
0001
1000
0010
,
0100
0001
1000
0100
0010
0001
1000
0001
0010
0100
1000
0010
0100
0001
1000
0010
1000
0100
0010
0001
0010
0100
1000
0001
,
0010
0001
0100
0010
1000
0001
0100
0010
1000
0100
0010
0001
0100
0010
1000
0001
0010
0001
0100
0010
1000
0001
1000
0010
,
0100
0010
1000
0001
0100
0001
0010
0100
1000
0010
0100
0001
1000
0100
0010
0001
0100
0010
1000
0100
1000
0001
0100
0010
,
1000
0001
0010
0001
0100
0010
1000
0100
1000
0001
0100
0010
1000
0010
0100
0001
1000
0100
0010
0001
0100
0010
1000
0001
,
0010
0000
0100
0000
1000
0000
0001
0000
0100
0010
0000
0100
0010
0000
1000
0000
,
0001
0000
0010
0000
0100
0000
1000
0000
0001
0000
0100
0010
1000
0000
0001
0000
,
1000
0100
0010
0001
1000
0010
0100
0001
1000
0010
0100
0001
0010
0001
0100
0010
1000
0100
0010
0001
0100
0010
0100
0001
,
1000
0100
0010
0001
0100
0010
1000
0001
0010
0100
1000
0010
0100
0010
1000
0001
1000
0010
0100
0001
1000
0100
0010
0001
,
1000
0001
0010
0100
1000
0010
0100
0001
1000
0010
1000
0100
0010
0001
0010
0100
1000
0001
0010
0001
0100
0010
1000
0001
,
0100
0010
1000
0100
0010
0001
0100
0010
1000
0001
0010
0001
0100
0010
1000
0001
1000
0010
0100
0010
1000
0001
0100
0001
,
0010
0100
1000
0010
0100
0001
1000
0100
0010
0001
0100
0010
1000
0100
1000
0001
0100
0010
1000
0001
0010
0001
0100
0010
,
1000
0100
1000
0001
0100
0010
1000
0010
0100
0001
1000
0100
0010
0001
0100
0010
1000
0001
0010
0100
1000
0010
0100
0001
,
1000
0010
0100
0010
1000
0001
0010
0001
0100
0010
1000
0100
0010
0001
1000
0010
0100
0001
1000
0100
1000
0001
0010
0001
,
1000
0100
0010
0001
0100
0010
1000
0010
0100
0001
1000
0010
1000
0000
0000
0001
0000
0000
0100
0000
0000
0100
0000
0000
,
0010
0000
0000
2000
0000
0000
3001
0010
0100
1000
0010
0100
0010
1000
0001
0010
0100
1000
0010
0100
0001
1000
0100
0010
,
0001
0100
0010
1000
0010
0100
0001
1000
0100
0010
0001
1000
0100
1000
0010
0100
0001
0010
0100
1000
0001
0100
0010
1000
,
0001
0010
0100
1000
0010
0100
0010
1000
0001
0010
0100
1000
0010
0100
0001
1000
0100
0010
0001
0100
0010
1000
0010
0100
,
0001
1000
0100
0010
0001
1000
0100
1000
0010
0100
0001
1000
0001
0010
0100
1000
0010
0100
0010
1000
0001
0010
0100
1000
,
0010
0100
0001
1000
0100
0010
0001
0100
0010
1000
0010
0100
0001
1000
0100
0010
0001
1000
0100
1000
0010
0100
0001
0010
,
0100
1000
0001
0100
0010
1000
0001
0010
0100
1000
0010
0100
0010
1000
0001
0010
0100
1000
0010
0100
0001
1000
0100
0010
,
0001
0100
0010
1000
0100
1000
0001
0200
,
0300
0000
0000
0000
0020
0000
0030
0000
2000
0000
3000
0000
0001
0100
0010
0000
,
1000
0100
0010
0001
1000
0010
0100
0001
0100
0010
1000
0010
0100
0001
1000
0100
0010
0001
0100
0010
1000
0001
0010
0001
,
0100
0010
1000
0100
0010
0001
0100
0001
1000
0010
0100
0001
1000
0100
0010
0001
0100
0010
2000
0000
0000
3000
0000
0000
,
0001
0010
0100
1000
0010
0100
0010
1000
0001
0010
0100
1000
0010
0100
0001
1000
0100
0010
0001
0100
0010
1000
0010
0100
,
0001
1000
0100
0010
0001
1000
0100
1000
0010
0100
0001
0010
0100
1000
0001
0100
0010
1000
0001
0000
0000
0100
0000
0000
,
0010
1000
0001
1000
0010
0100
0010
1000
0001
0010
0100
1000
0010
0100
0001
1000
0100
0010
0001
0100
0010
1000
0010
0100
,
0001
1000
0100
0010
0001
1000
0100
1000
0010
0100
0001
0010
0100
1000
0001
0100
0010
1000
0002
0000
0000
0003
0000
0000
,
1000
0100
0010
0001
1000
0010
0100
0001
0100
0010
1000
0010
0100
0001
1000
0100
0010
0001
0100
0010
1000
0001
0010
0001
,
0100
0010
1000
0100
0010
0001
0100
0001
1000
0010
0100
0001
1000
0100
0010
0001
0100
0010
2000
0000
0000
0000
0000
0000
,
3010
0000
0000
0200
0000
0000
0301
0010
0100
1000
0010
0100
0010
1000
0001
0010
0100
1000
0010
0100
0001
1000
0100
0010
,
0001
0100
0010
1000
0010
0100
0001
1000
0100
0010
0001
1000
0100
1000
0010
0100
0001
1000
0020
0000
0000
0030
0000
0000
,
1000
0100
0010
0001
1000
0010
0100
0001
0100
0010
1000
0010
0100
0001
1000
0100
0010
0001
0100
0010
1000
0001
0010
0001
,
0100
0010
1000
0100
0010
0001
0100
0001
1000
0010
0100
0001
1000
0100
0010
0001
1000
0001
0010
0100
1000
0001
0100
0010
,
1000
0100
0010
0001
0100
0001
1000
0010
,
0100
0001
1000
0100
0010
0001
0100
0010
,
1000
0100
0010
0001
0100
0010
1000
0010
0100
0001
0010
0100
1000
0001
2000
0000
,
3000
0000
0000
0000
0020
0000
0030
0000
0200
0000
0000
0000
0302
0000
0000
0003
,
0002
0000
0000
0000
0000
0000
0003
M000
0000
0000
0000
0000
0000
0000
0000
0000
,
0000
0000
0000
0000
,
0000
0000
0000
0000
;
