#TITLE:Big-o;
#SUBTITLE:;
#ARTIST:Akirasan2;
#TITLETRANSLIT:;
#SUBTITLETRANSLIT:;
#ARTISTTRANSLIT:;
#CREDIT:Akirasan;
#BANNER:griffon1.jpg;
#BACKGROUND:intro3a.avi;
#LYRICSPATH:;
#CDTITLE:;
#MUSIC:bigo.mp3;
#OFFSET:-0.610;
#SAMPLESTART:48.031;
#SAMPLELENGTH:12.000;
#SELECTABLE:YES;
#BPMS:0.000=126.524;
#STOPS:104.000=0.100
;
#BGCHANGES:;
// cache tags:
#FIRSTBEAT:0.000;
#LASTBEAT:130.000;
#SONGFILENAME:Songs/cedric step/bigo/bigo.sm;
#HASMUSIC:1;
#HASBANNER:1;
#MUSICLENGTH:65.705;
// end cache tags

//---------------dance-single - Basic----------------
#NOTES:
     dance-single:
     Basic:
     Easy:
     2:
     0.187,0.219,0.076,0.000,0.000,81.000,5.000,0.000,0.000,0.000:




0001
0000
0000
0000
1000
0000
0001
0000
,
0011
0000
0001
0000
1000
0000
0010
0000
,
1000
0000
0000
0000
1000
0000
0000
0000
,
1000
0000
0000
0000
0001
0000
0000
0000
,
1000
0000
0000
0000
0001
0000
0000
0000
,
0000
0000
0000
0000
1000
0000
0001
0000
,
1000
0000
0000
0000
0100
0000
0010
0000
,
1010
0000
1000
0000
0001
0000
0100
0000
,
1000
0000
0000
0000
0100
0000
0000
0000
,
0011
0000
0001
0000
1000
0000
0010
0000
,
1000
0000
0000
0000
1000
0000
0000
0000
,
1000
0000
0000
0000
0001
0000
0000
0000
,
1000
0000
0000
0000
0001
0000
0000
0000
,
0000
0000
0000
0000
1000
0000
0001
0000
,
1000
0000
0010
0000
0000
0000
1000
0000
,
1010
0000
1000
0000
0001
0000
0100
0000
,
1000
0000
0000
0000
0001
0000
0000
0000
,
1000
0000
0000
0000
0001
0000
0000
0000
,
0000
0000
0001
0000
0000
0000
0010
0000
,
0000
0000
0000
0000
0001
0000
0100
0000
,
0001
0000
0010
0000
0000
0000
0000
0000
,
0000
0000
0000
0000
0001
0000
1000
0000
,
1000
0000
0010
0000
0000
0000
1000
0000
,
0001
0000
0010
0000
0000
0000
0001
0000
,
1000
0000
0000
0000
0100
0000
0000
0000
,
0011
0000
0001
0000
1000
0000
0010
0000
,
1000
0000
0000
0000
1000
0000
0000
0000
,
1000
0000
0000
0000
0001
0000
0000
0000
,
0001
0000
0000
0000
1000
0000
0000
0000
,
0000
0000
0001
0000
0001
0000
0000
0000
,
0001
0000
0000
0000
1000
0000
0000
0000
,
1000
0000
0000
0000
0100
0000
0010
0000
,
1000
0000
0000
0000
0000
0000
0000
0000
,
;

//---------------dance-single - Standard----------------
#NOTES:
     dance-single:
     Standard:
     Medium:
     6:
     0.341,0.368,0.183,0.000,0.000,145.000,12.000,0.000,0.000,0.000:




0001
1000
0010
0100
0001
0000
0100
0000
,
1100
0000
0001
0000
0100
0000
0001
0000
,
0101
0000
0010
0000
0010
0000
0010
0000
,
0001
0000
0001
0000
0010
0000
0010
0000
,
0001
0000
0001
0000
0010
0000
0010
0000
,
1000
0000
0001
0000
0100
0000
0010
1000
,
0001
0000
0001
0000
1000
0000
0100
0000
,
1010
0000
1000
0010
0100
0001
0100
0100
,
0001
1000
0001
0000
1000
0000
0100
0000
,
1100
0000
0001
0000
0100
0000
0001
0000
,
0101
0000
0010
0000
0010
0000
0010
0000
,
0001
0000
0001
0000
0010
0000
0010
0000
,
1000
0000
1000
0000
0010
0000
0010
0000
,
1000
0000
0001
0000
0100
0000
0010
0000
,
1100
0000
1000
0000
0010
1000
0001
0000
,
1010
0000
1000
0010
0100
0001
0100
0100
,
0001
0000
0001
0000
0010
0000
0010
0000
,
1000
0000
1000
0000
0010
0000
0010
0000
,
1000
0000
1000
0000
0010
0000
1000
0000
,
0001
0000
0010
0000
0001
0000
0010
0000
,
0001
0100
0010
0000
0000
0000
0100
0000
,
0000
0000
0001
0000
0100
0000
1100
0000
,
1100
0000
1000
0000
0010
1000
0001
0000
,
0101
0000
0001
0000
0010
0001
1000
0100
,
0001
1000
0001
0000
1000
0000
0100
0000
,
1100
0000
0001
0000
0100
0000
0001
0000
,
0101
0000
0010
0000
0010
0000
0010
0000
,
0001
0000
0001
0000
0010
0000
0010
0000
,
0001
0000
0010
0000
0100
0000
0100
0000
,
0001
0000
0100
0010
0010
0000
0000
0000
,
1000
0000
0000
0100
0010
0000
0001
0000
,
0001
0000
0001
0000
1000
0000
0100
0010
,
0001
0000
0100
0000
0000
0000
0000
0000
,
;

//---------------dance-single - Heavy----------------
#NOTES:
     dance-single:
     Heavy:
     Hard:
     10:
     0.498,0.420,0.350,0.061,0.000,202.000,23.000,4.000,0.000,0.000:

0110
1000
0100
1000
0100
1000
0001
0000
,
1100
0000
0001
1000
0010
1000
0001
0000
,
0101
0000
0100
1000
1000
0010
0010
0000
,
0001
0010
0010
0100
1000
0100
0100
1000
,
1000
0010
0010
0100
0001
0100
0100
0001
,
1000
0100
0000
0000
0011
0000
0100
0000
,
1100
1000
0101
0010
,
0011
0000
1000
0100
0010
0001
0100
0100
,
1000
0010
1000
0010
1000
0000
0100
0000
,
1100
0000
0001
1000
0010
1000
0001
0000
,
0101
0000
0100
1000
1000
0010
0010
0000
,
0001
0010
0010
0100
1000
0100
0100
1000
,
0001
0010
0010
0100
1000
0100
0100
1000
,
1000
0100
0000
0000
0011
0000
0100
0000
,
0011
0000
0001
0100
0010
0100
0001
0000
,
0011
0000
1000
0100
0010
0001
0100
0100
,
0001
0010
0010
0100
1000
0100
0100
1000
,
1000
0100
0100
0010
0001
0010
0010
0001
,
1000
0001
0001
0100
0001
0001
0100
0010
,
1000
1000
0100
0000
0011
0000
0100
0000
,
2020
0000
3030
0100
0000
0000
0010
0100
,
1000
0010
1000
0001
0100
0000
1010
0000
,
0011
0000
0001
0100
0010
0100
0001
0000
,
1100
0000
1000
0010
0100
0010
1000
0010
,
1000
0010
1000
0010
1000
0000
0100
0000
,
1100
0000
0001
1000
0010
1000
0001
0000
,
0101
0000
0100
1000
1000
0010
0010
0000
,
0001
0010
0010
0100
1000
0100
0100
1000
,
1000
0001
0100
0010
0100
0010
0010
0010
,
1000
0000
0001
1000
1000
0100
0000
1000
,
1000
0100
0010
0000
1100
0000
0001
0000
,
1100
1000
0101
0220
,
0000
0000
0330
0000
;
