#TITLE:Move That Dope;
#SUBTITLE:parole violation;
#ARTIST:Future ft. Pharrell Williams & Pusha T;
#TITLETRANSLIT:;
#SUBTITLETRANSLIT:;
#ARTISTTRANSLIT:;
#CREDIT:;
#BANNER:../ban - Jawn2.png;
#BACKGROUND:../Jawn2 - bg.png;
#LYRICSPATH:;
#CDTITLE:CDa.png;
#MUSIC:Move That Dope.ogg;
#OFFSET:0.009;
#SAMPLESTART:29.320;
#SAMPLELENGTH:12.000;
#SELECTABLE:YES;
#BPMS:0.000=131.000;
#STOPS:;
#BGCHANGES:;
// cache tags:
#FIRSTBEAT:5.000;
#LASTBEAT:742.500;
#SONGFILENAME:Songs/Jimmy Jawns 2/Move That Dope - [Aoreo]/Move That Dope.sm;
#HASMUSIC:1;
#HASBANNER:1;
#MUSICLENGTH:341.763;
// end cache tags

//---------------dance-single - J. Nero----------------
#NOTES:
     dance-single:
     J. Nero:
     Challenge:
     18:
     1.000,1.000,0.000,0.056,1.000,4253.000,0.000,19.000,11.000,0.000:
0000
0000
0000
0000
,
0000
0000
0000
0000
0000
0000
0000
0000
MMMM
0000
0000
MMMM
0000
0000
0000
0000
0000
0000
0000
0000
0000
0000
0000
0000
0000
0000
0000
0000
0000
0000
0000
0000
,
0000
0000
0000
0000
0000
0000
0000
0000
0000
0000
00M0
0000
0000
00M0
0000
0000
00M0
0000
0000
0000
0000
0000
0000
0000
0000
0000
0000
0000
0000
0000
0000
0000
,
0000
0000
0000
0000
,
2000
0000
3002
0003
0100
0001
0020
0030
,
0200
0000
2300
3000
0001
0100
0020
0030
,
2000
0000
3200
0300
0010
0001
2000
3000
,
0002
0000
0203
0300
0010
1000
0200
0300
,
0010
0001
1000
0001
0100
0010
1000
0100
1000
0001
0100
0001
0010
0001
1000
0100
1000
0010
0100
0010
1000
0100
0010
0001
,
0100
0001
1000
0100
1000
0010
0100
0001
0100
0010
1000
0100
0010
0001
0100
0001
1000
0100
1000
0010
0100
0010
1000
0001
,
0010
0001
0100
0010
1000
0010
0100
0001
1000
0100
1000
0010
0100
0001
0100
0010
1000
0001
0010
0100
1000
0010
1000
0001
,
0010
0001
0100
0010
1000
0010
0100
0001
1000
0100
0010
0001
0100
0001
1000
0100
1000
0010
0100
0010
1000
0100
0010
0001
,
0100
0001
0010
0100
1000
0010
1000
0001
0010
0001
0100
0010
1000
0010
0100
0001
1000
0001
0100
0010
1000
0001
0010
0001
,
0100
0010
1000
0001
0010
0001
0100
0010
1000
0010
0100
0001
0010
0100
1000
0010
1000
0001
0100
0001
0010
0100
1000
0010
,
1000
0001
0100
0010
0100
0001
1000
0100
0010
0100
1000
0010
0100
0001
1000
0001
0100
0010
0100
0001
1000
0001
0100
0010
,
1000
0100
1000
0010
0100
0001
0010
0100
1000
0001
0010
0001
0100
0010
1000
0010
0100
0001
0010
0001
1000
0001
0100
0010
,
1000
0100
0010
0001
0100
0001
1000
0100
1000
0001
0100
0001
0010
0100
1000
0001
0100
0010
1000
0100
1000
0001
0100
0001
,
0010
0100
0010
0001
0100
0010
1000
0100
1000
0010
0100
0001
0010
0100
1000
0001
0010
0001
0100
0010
1000
0010
0100
0001
,
0010
0100
1000
0010
1000
0100
0010
0001
0100
0001
1000
0100
1000
0010
0100
0001
0100
0010
1000
0100
0010
0001
0100
0001
,
1000
0100
0010
0100
1000
0010
0100
0001
1000
0100
0010
0001
0100
0010
1000
0001
0100
0001
0010
0100
1000
0010
0100
0001
,
1000
0100
0010
0001
0100
0010
1000
0100
1000
0010
0100
0001
0010
0001
1000
0001
0100
0010
1000
0100
1000
0010
0100
0001
,
0100
0010
1000
0100
0010
0001
0100
0001
1000
0100
0010
0100
1000
0010
0100
0001
1000
0100
0010
0001
0100
0001
1000
0010
,
0100
0001
0010
0001
1000
0100
1000
0010
0100
0001
1000
0001
0010
0100
1000
0010
1000
0001
0100
0010
1000
0100
1000
0010
,
0100
0001
0010
0100
1000
0010
0100
0001
0010
0001
0100
0010
1000
0100
1000
0001
0010
0001
0100
0010
0100
0001
1000
0100
,
0010
0001
0100
0010
1000
0100
1000
0010
0100
0001
1000
0100
1000
0010
0100
0001
0010
0001
0100
0010
1000
0100
0010
0001
,
0100
0001
1000
0100
1000
0001
0100
0001
0010
0001
0100
0001
1000
0100
1000
0010
1000
0100
1000
0001
0100
0010
1000
0001
,
0010
0001
0100
0010
1000
0100
1000
0001
1000
0010
0100
0001
0010
0100
1000
0010
0100
0001
0010
0001
0100
0010
1000
0100
,
1000
0001
0100
0001
1000
0010
0100
0001
0010
0100
0010
0001
0100
0010
1000
0100
0010
0001
0100
0001
1000
0001
0100
0010
,
1000
0100
1000
0010
0100
0001
0010
0001
1000
0001
0100
0010
1000
0100
1000
0010
0100
0001
0010
0100
1000
0010
0100
0001
,
0100
0010
1000
0010
0100
0001
0010
0001
0100
0010
1000
0100
0010
0001
0100
0001
1000
0100
1000
0010
0100
0010
1000
0100
,
0010
0100
0010
0001
0100
0010
1000
0100
0010
0001
0100
0001
0010
0100
1000
0010
0100
0001
0010
0001
0100
0010
1000
0001
,
1000
0010
1000
0001
0100
0001
0010
0100
0010
0001
0100
0010
1000
0100
1000
0010
0100
0001
0010
0100
1000
0010
0100
0001
,
0010
0100
0010
0100
1000
0010
1000
0001
0010
0001
0100
0010
1000
0100
0010
0001
0100
0001
1000
0100
1000
0010
0100
0001
,
1000
0100
1000
0010
0100
0001
1000
0001
0010
0100
1000
0010
0100
0001
0010
0001
0100
0010
1000
0100
0010
0001
1000
0001
,
0100
0010
1000
0100
0010
0001
0100
0001
0010
0100
1000
0010
0100
0001
0010
0001
0100
0010
1000
0010
0100
0001
1000
0010
,
1000
0100
1000
0001
0100
0001
0010
0001
0100
0010
1000
0100
0010
0001
1000
0100
1000
0010
1000
0001
0100
0001
1000
0100
,
1000
0010
0100
0010
1000
0001
1000
0010
0100
0001
0010
0100
0010
0001
0100
0010
1000
0100
1000
0010
0100
0001
0010
0100
,
1000
0010
1000
0010
0100
0001
0010
0001
0100
0010
1000
0010
0100
0001
1000
0100
1000
0010
0100
0001
1000
0001
0010
0100
,
1000
0010
1000
0100
1000
0001
0100
0001
0010
0100
1000
0010
0100
0001
0010
0001
0100
0010
1000
0100
1000
0010
0100
0010
,
1000
0001
1000
0100
0010
0001
0100
0001
0010
0100
1000
0010
0100
0001
1000
0100
1000
0010
0100
0001
0010
0100
1000
0001
,
0010
0001
0100
0001
0010
0001
1000
0100
1000
0010
1000
0100
1000
0001
0010
0001
0100
0010
1000
0010
0100
0001
1000
0100
,
0010
0001
0100
0001
1000
0100
1000
0001
0100
0010
0100
0001
1000
0100
1000
0010
0100
0001
0010
0001
0100
0010
1000
0100
,
1000
0001
1000
0010
0100
0001
0100
0010
1000
0100
1000
0010
0100
0001
0010
0100
1000
0010
0100
0001
0010
0001
1000
0001
,
0100
0010
1000
0100
1000
0001
0010
0001
0100
0001
1000
0100
1000
0010
0100
0001
1000
0100
0010
0001
0100
0001
1000
0100
,
1000
0010
1000
0001
0100
0001
1000
0100
1000
0010
0100
0001
0010
0001
0100
0010
1000
0100
0010
0001
0100
0001
1000
0010
,
1000
0100
0010
0001
1000
0001
0100
0010
1000
0100
1000
0010
0100
0001
0010
0001
0100
0010
1000
0100
0010
0001
0100
0010
,
1000
0100
1000
0100
0010
0001
0100
0001
1000
0100
1000
0010
0100
0001
0010
0100
1000
0010
0100
0001
0010
0001
0100
0010
,
1000
0010
0100
0001
1000
0001
0010
0100
1000
0010
0100
0001
0010
0001
0100
0010
1000
0100
0010
0100
1000
0001
0100
0010
,
1000
0100
1000
0001
0100
0010
1000
0100
1000
0001
0100
0001
0010
0001
1000
0100
1000
0010
0100
0010
1000
0100
0010
0001
,
0100
0001
1000
0100
1000
0010
0100
0001
0100
0010
1000
0100
0010
0001
0100
0001
1000
0100
1000
0010
0100
0010
1000
0001
,
0010
0001
0100
0010
1000
0010
0100
0001
1000
0100
1000
0010
0100
0001
0100
0010
1000
0001
0010
0100
1000
0010
1000
0001
,
0010
0001
0100
0010
1000
0010
0100
0001
1000
0100
0010
0001
0100
0001
1000
0100
1000
0010
0100
0010
1000
0100
0010
0001
,
0100
0001
0010
0100
1000
0010
1000
0001
0010
0001
0100
0010
1000
0010
0100
0001
1000
0001
0100
0010
1000
0001
0010
0001
,
0100
0010
1000
0001
0010
0001
0100
0010
1000
0010
0100
0001
0010
0100
1000
0010
1000
0001
0100
0001
0010
0100
1000
0010
,
1000
0001
0100
0010
0100
0001
1000
0100
0010
0100
1000
0010
0100
0001
1000
0001
0100
0010
0100
0001
1000
0001
0100
0010
,
1000
0100
1000
0010
0100
0001
0010
0100
1000
0001
0010
0001
0100
0010
1000
0010
0100
0001
0010
0001
1000
0001
0100
0010
,
1000
0100
0010
0001
0100
0001
1000
0100
1000
0001
0100
0001
0010
0100
1000
0001
0100
0010
1000
0100
1000
0001
0100
0001
,
0010
0100
0010
0001
0100
0010
1000
0100
1000
0010
0100
0001
0010
0100
1000
0001
0010
0001
0100
0010
1000
0010
0100
0001
,
0010
0100
1000
0010
1000
0100
0010
0001
0100
0001
1000
0100
1000
0010
0100
0001
0100
0010
1000
0100
0010
0001
0100
0001
,
1000
0100
0010
0100
1000
0010
0100
0001
1000
0100
0010
0001
0100
0010
1000
0001
0100
0001
0010
0100
1000
0010
0100
0001
,
1000
0100
0010
0001
0100
0010
1000
0100
1000
0010
0100
0001
0010
0001
1000
0001
0100
0010
1000
0100
1000
0010
0100
0001
,
0100
0010
1000
0100
0010
0001
0100
0001
1000
0100
0010
0100
1000
0010
0100
0001
1000
0100
0010
0001
0100
0001
1000
0010
,
0100
0001
0010
0001
1000
0100
1000
0010
0100
0001
1000
0001
0010
0100
1000
0010
1000
0001
0100
0010
1000
0100
1000
0010
,
0100
0001
0010
0100
1000
0010
0100
0001
0010
0001
0100
0010
1000
0100
1000
0001
0010
0001
0100
0010
0100
0001
1000
0010
,
1000
0100
1000
0001
0010
0001
0100
0001
1000
0010
0100
0010
1000
0001
1000
0100
1000
0010
0100
0001
0100
0010
1000
0001
,
0010
0001
0100
0010
1000
0010
0100
0001
0010
0100
1000
0001
1000
0100
1000
0010
0100
0001
1000
0100
0010
0100
1000
0001
,
1000
0010
0100
0010
1000
0100
1000
0001
0010
0001
0010
0001
0100
0001
1000
0010
0100
0010
1000
0100
0010
0001
0100
0001
,
1000
0010
1000
0100
0010
0001
1000
0001
0100
0010
1000
0100
1000
0010
1000
0001
0100
0001
0010
0100
1000
0001
1000
0010
,
0100
0001
0010
0001
1000
0010
1000
0100
0010
0001
1000
0010
0100
0010
1000
0100
0010
0001
0100
0001
0010
0001
0100
0001
,
1000
0010
0100
0010
1000
0100
1000
0010
1000
0100
0010
0001
0100
0001
0010
0001
0100
0001
0010
0001
0100
0010
1000
0100
,
1000
0001
0100
0001
0010
0100
1000
0001
0100
0010
0100
0001
1000
0100
1000
0010
1000
0001
0100
0010
0100
0001
1000
0001
,
0010
0100
1000
0001
1000
0010
0100
0001
0010
0100
0010
0001
1000
0001
1000
0001
1000
0001
1000
0100
0010
0100
1000
0010
,
0200
0301
0010
0001
1000
0010
0100
0001
0100
0010
1000
0001
1000
0100
1000
0010
0100
0001
0100
0001
0010
0100
1000
0001
,
1000
0100
0010
0001
0100
0001
1000
0100
0010
0100
1000
0010
0100
0001
0100
0010
1000
0100
1000
0001
0100
0010
1000
0010
,
0100
0001
1000
0100
1000
0010
1000
0001
0100
0001
0010
0100
1000
0001
0010
0001
0100
0001
1000
0010
0100
0001
0100
0010
,
1000
0100
0010
0001
1000
0100
1000
0010
0100
0001
0100
0010
1000
0100
0010
0001
0100
0001
0010
0100
1000
0010
1000
0001
,
0100
0010
0100
0010
1000
0100
1000
0100
0010
0001
0100
0001
0010
0100
1000
0010
0100
0010
1000
0001
1000
0100
0010
0001
,
0100
0001
1000
0100
0010
0100
1000
0010
1000
0001
0100
0001
0010
0001
0100
0010
1000
0100
0010
0001
1000
0001
0100
0010
,
1000
0010
0100
0001
1000
0001
0100
0010
1000
0010
0100
0001
0010
0100
1000
0001
0010
0001
0100
0010
1000
0010
0100
0001
,
1000
0100
0010
0001
0100
0001
1000
0100
1000
0010
0100
0001
0100
0010
1000
0001
1000
0100
0010
0001
0100
0001
1000
0100
,
0010
0100
1000
0010
0100
0001
0100
0010
1000
0001
1000
0100
0010
0001
0100
0001
1000
0001
0010
0100
1000
0001
0100
0010
,
0100
0001
1000
0100
1000
0010
1000
0100
0010
0001
0100
0001
1000
0001
0010
0001
0100
0010
1000
0010
0100
0001
1000
0100
,
0010
0001
0100
0001
1000
0100
0010
0100
1000
0010
0100
0001
0100
0010
1000
0100
0010
0001
1000
0001
0100
0010
1000
0100
,
1000
0010
0100
0001
0010
0100
1000
0001
0010
0001
0100
0010
1000
0010
0100
0001
1000
0100
0010
0001
0100
0001
1000
0001
,
0100
0010
0100
0001
1000
0100
0010
0100
1000
0001
0100
0001
1000
0100
1000
0010
0100
0001
1000
0001
0010
0100
1000
0001
,
1000
0010
0100
0010
1000
0001
1000
0100
1000
0010
0100
0001
0100
0010
1000
0001
0010
0100
1000
0010
0100
0001
1000
0010
,
1000
0001
1000
0100
0010
0001
1000
0001
1000
0100
0010
0001
1000
0001
0100
0001
0100
0010
1000
0100
1000
0010
1000
0001
,
0100
0001
1000
0100
0010
0100
1000
0001
1000
0010
0100
0010
1000
0001
1000
0100
0010
0001
0100
0001
0010
0100
1000
0010
,
1000
0010
1000
0001
0100
0010
1000
0100
1000
0001
0100
0001
0010
0001
1000
0100
1000
0010
0100
0010
1000
0100
0010
0001
,
0100
0001
1000
0100
1000
0010
0100
0001
0100
0010
1000
0100
0010
0001
0100
0001
1000
0100
1000
0010
0100
0010
1000
0001
,
0010
0001
0100
0010
1000
0010
0100
0001
1000
0100
1000
0010
0100
0001
0100
0010
1000
0001
0010
0100
1000
0010
1000
0001
,
0010
0001
0100
0010
1000
0010
0100
0001
1000
0100
0010
0001
0100
0001
1000
0100
1000
0010
0100
0010
1000
0100
0010
0001
,
0100
0001
0010
0100
1000
0010
1000
0001
0010
0001
0100
0010
1000
0010
0100
0001
1000
0001
0100
0010
1000
0001
0010
0001
,
0100
0010
1000
0001
0010
0001
0100
0010
1000
0010
0100
0001
0010
0100
1000
0010
1000
0001
0100
0001
0010
0100
1000
0010
,
1000
0001
0100
0010
0100
0001
1000
0100
0010
0100
1000
0010
0100
0001
1000
0001
0100
0010
0100
0001
1000
0001
0100
0010
,
1000
0100
1000
0010
0100
0001
0010
0100
1000
0001
0010
0001
0100
0010
1000
0010
0100
0001
0010
0001
1000
0001
0100
0010
,
1000
0100
0010
0001
0100
0001
1000
0100
1000
0001
0100
0001
0010
0100
1000
0001
0100
0010
1000
0100
1000
0001
0100
0001
,
0010
0100
0010
0001
0100
0010
1000
0100
1000
0010
0100
0001
0010
0100
1000
0001
0010
0001
0100
0010
1000
0010
0100
0001
,
0010
0100
1000
0010
1000
0100
0010
0001
0100
0001
1000
0100
1000
0010
0100
0001
0100
0010
1000
0100
0010
0001
0100
0001
,
1000
0100
0010
0100
1000
0010
0100
0001
1000
0100
0010
0001
0100
0010
1000
0001
0100
0001
0010
0100
1000
0010
0100
0001
,
1000
0100
0010
0001
0100
0010
1000
0100
1000
0010
0100
0001
0010
0001
1000
0001
0100
0010
1000
0100
1000
0010
0100
0001
,
0100
0010
1000
0100
0010
0001
0100
0001
1000
0100
0010
0100
1000
0010
0100
0001
1000
0100
0010
0001
0100
0001
1000
0010
,
0100
0001
0010
0001
1000
0100
1000
0010
0100
0001
1000
0001
0010
0100
1000
0010
1000
0001
0100
0010
1000
0100
1000
0010
,
0100
0001
0010
0100
1000
0010
0100
0001
0010
0001
0100
0010
1000
0100
1000
0001
0010
0001
0100
0010
0100
0001
1000
0010
,
1000
0100
1000
0010
1000
0001
0100
0010
0100
0001
0010
0100
1000
0010
0100
0001
0100
0010
1000
0100
1000
0001
0100
0001
,
0010
0001
0100
0010
1000
0100
1000
0010
1000
0001
0010
0001
0100
0001
0010
0001
0100
0010
1000
0100
0010
0001
0100
0001
,
1000
0100
0010
0100
1000
0010
0100
0010
1000
0001
0100
0001
0010
0001
0100
0010
1000
0100
0010
0001
0100
0001
1000
0100
,
1000
0010
0100
0001
0010
0001
0100
0010
1000
0100
1000
0010
1000
0001
0100
0001
0010
0100
1000
0010
0100
0010
1000
0001
,
1000
0100
1000
0010
0100
0001
0100
0010
1000
0100
0010
0001
0100
0001
1000
0100
0010
0100
1000
0010
0100
0001
0010
0001
,
0100
0010
1000
0010
0100
0001
1000
0100
0010
0001
0100
0001
1000
0100
1000
0010
0100
0001
0010
0001
0100
0001
1000
0100
,
1000
0010
0100
0001
0100
0010
1000
0100
0010
0001
0100
0001
1000
0100
1000
0010
0100
0001
0010
0100
1000
0010
1000
0100
,
1000
0010
0100
0001
1000
0100
1000
0010
0100
0001
0010
0100
1000
0010
0100
0001
0010
0001
0100
0001
1000
0010
0100
0010
,
1000
0100
1000
0010
0100
0001
0010
0001
0100
0010
1000
0100
0010
0001
0100
0001
1000
0100
1000
0010
0100
0001
1000
0100
,
0010
0100
1000
0010
0100
0001
0010
0001
0100
0010
1000
0100
1000
0001
1000
0010
0100
0001
0010
0001
0100
0001
0010
0100
,
1000
0010
1000
0100
1000
0010
0100
0001
0010
0100
1000
0010
1000
0100
1000
0001
0100
0001
0010
0001
0100
0010
1000
0100
,
0010
0001
0100
0001
1000
0100
1000
0010
0100
0001
0010
0100
1000
0010
1000
0001
0100
0001
0010
0100
1000
0010
0100
0001
,
0100
0010
1000
0100
0010
0001
0100
0001
1000
0100
1000
0010
1000
0001
0100
0001
0010
0001
0100
0010
1000
0010
0100
0001
,
1000
0100
0010
0001
0100
0001
1000
0100
0010
0100
1000
0010
0100
0001
1000
0100
0010
0001
0100
0001
1000
0001
0010
0100
,
1000
0010
1000
0100
1000
0010
0100
0001
0010
0001
0100
0001
1000
0100
1000
0010
0100
0001
1000
0100
0010
0001
0100
0001
,
1000
0100
1000
0010
0100
0010
1000
0001
1000
0100
0010
0001
0100
0001
1000
0100
1000
0010
1000
0100
1000
0001
0100
0001
,
0010
0100
1000
0010
0100
0001
1000
0100
1000
0010
0100
0001
1000
0001
0010
0100
1000
0010
0100
0001
0100
0010
1000
0001
,
1000
0100
1000
0010
0100
0001
0100
0010
1000
0100
0010
0001
0100
0001
0010
0100
1000
0010
1000
0001
0100
0001
0010
0100
,
1000
0010
1000
0100
1000
0001
0100
0010
0100
0001
0010
0100
1000
0010
0100
0001
0010
0001
0100
0001
1000
0100
1000
0001
,
0100
0010
0100
0001
1000
0100
0010
0001
0100
0001
1000
0100
0010
0100
1000
0001
0100
0010
0100
0001
0010
0100
1000
0001
,
0100
0001
0010
0100
1000
0010
0100
0001
1000
0100
1000
0010
1000
0100
0010
0001
0100
0001
1000
0100
1000
0010
0100
0001
,
1000
0100
0010
0001
0100
0001
1000
0100
0010
0100
1000
0001
0100
0010
0100
0001
0010
0001
1000
0100
1000
0010
0100
0001
,
1000
0001
1000
0100
0010
0001
0100
0001
1000
0100
1000
0010
1000
0001
0100
0010
0100
0001
0010
0100
1000
0010
1000
0100
,
0010
0001
0100
0001
1000
0100
0010
0100
1000
0001
0100
0001
0010
0001
0100
0010
1000
0010
0100
0001
0010
0100
1000
0010
,
0100
0001
1000
0001
0100
0010
1000
0100
1000
0001
0100
0001
0010
0001
1000
0100
1000
0010
0100
0010
1000
0100
0010
0001
,
0100
0001
1000
0100
1000
0010
0100
0001
0100
0010
1000
0100
0010
0001
0100
0001
1000
0100
1000
0010
0100
0010
1000
0001
,
0010
0001
0100
0010
1000
0010
0100
0001
1000
0100
1000
0010
0100
0001
0100
0010
1000
0001
0010
0100
1000
0010
1000
0001
,
0010
0001
0100
0010
1000
0010
0100
0001
1000
0100
0010
0001
0100
0001
1000
0100
1000
0010
0100
0010
1000
0100
0010
0001
,
0100
0001
0010
0100
1000
0010
1000
0001
0010
0001
0100
0010
1000
0010
0100
0001
1000
0001
0100
0010
1000
0001
0010
0001
,
0100
0010
1000
0001
0010
0001
0100
0010
1000
0010
0100
0001
0010
0100
1000
0010
1000
0001
0100
0001
0010
0100
1000
0010
,
1000
0001
0100
0010
0100
0001
1000
0100
0010
0100
1000
0010
0100
0001
1000
0001
0100
0010
0100
0001
1000
0001
0100
0010
,
1000
0100
1000
0010
0100
0001
0010
0100
1000
0001
0010
0001
0100
0010
1000
0010
0100
0001
0010
0001
1000
0001
0100
0010
,
1000
0100
0010
0001
0100
0001
1000
0100
1000
0001
0100
0001
0010
0100
1000
0001
0100
0010
1000
0100
1000
0001
0100
0001
,
0010
0100
0010
0001
0100
0010
1000
0100
1000
0010
0100
0001
0010
0100
1000
0001
0010
0001
0100
0010
1000
0010
0100
0001
,
0010
0100
1000
0010
1000
0100
0010
0001
0100
0001
1000
0100
1000
0010
0100
0001
0100
0010
1000
0100
0010
0001
0100
0001
,
1000
0100
0010
0100
1000
0010
0100
0001
1000
0100
0010
0001
0100
0010
1000
0001
0100
0001
0010
0100
1000
0010
0100
0001
,
1000
0100
0010
0001
0100
0010
1000
0100
1000
0010
0100
0001
0010
0001
1000
0001
0100
0010
1000
0100
1000
0010
0100
0001
,
0100
0010
1000
0100
0010
0001
0100
0001
1000
0100
0010
0100
1000
0010
0100
0001
1000
0100
0010
0001
0100
0001
1000
0010
,
0100
0001
0010
0001
1000
0100
1000
0010
0100
0001
1000
0001
0010
0100
1000
0010
1000
0001
0100
0010
1000
0100
1000
0010
,
0100
0001
0010
0100
1000
0010
0100
0001
0010
0001
0100
0010
1000
0100
1000
0001
0010
0001
0100
0010
0100
0001
1000
0100
,
1000
0010
0100
0001
0100
0010
1000
0100
0010
0001
0100
0001
0010
0001
0010
0100
1000
0010
1000
0100
0010
0001
0100
0001
,
0010
0001
0010
0100
1000
0001
1000
0100
1000
0010
0100
0001
1000
0010
1000
0100
0010
0001
1000
0001
0100
0001
0100
0010
,
1000
0100
1000
0010
0100
0001
1000
0010
1000
0001
0010
0001
0100
0001
0100
0010
1000
0001
1000
0100
0010
0001
0100
0001
,
0010
0100
0010
0100
1000
0010
1000
0100
0010
0001
0100
0001
0010
0001
1000
0100
1000
0010
1000
0001
0100
0001
1000
0001
,
0010
0100
1000
0010
0100
0001
0010
0001
1000
0001
0100
0010
1000
0100
1000
0010
0100
0001
0010
0100
1000
0001
1000
0010
,
0100
0001
0010
0100
1000
0010
0100
0001
0010
0001
0100
0001
1000
0100
1000
0010
1000
0100
0010
0100
0010
0001
0100
0001
,
1000
0001
0100
0010
1000
0100
1000
0010
0100
0001
0010
0100
1000
0010
0100
0001
0010
0001
0100
0010
1000
0010
0100
0001
,
1000
0100
1000
0010
0100
0001
0010
0100
0010
0100
1000
0010
1000
0001
1000
0010
0100
0001
0020
0031
0100
0001
1000
0010
,
1000
0100
1000
0010
0100
0001
0010
0001
0100
0010
1000
0001
0100
0001
0010
0100
1000
0010
1000
0100
0010
0001
0100
0001
,
1000
0100
1000
0010
0100
0001
1000
0001
0010
0100
1000
0001
1000
0100
1000
0001
0010
0001
0100
0001
1000
0010
0100
0010
,
1000
0001
1000
0100
0010
0001
0100
0001
1000
0010
1000
0100
0010
0001
0100
0001
1000
0100
0010
0100
0010
0001
0100
0010
,
1000
0001
1000
0100
1000
0010
0100
0001
0100
0010
1000
0100
0010
0001
0100
0001
0010
0001
1000
0100
1000
0010
0100
0001
,
0100
0010
1000
0100
1000
0010
0100
0010
1000
0001
0010
0100
0010
0001
0100
0010
0100
0001
0010
0100
0010
0001
0100
0001
,
1000
0010
1000
0100
0010
0001
1000
0001
0100
0001
1000
0100
1000
0001
0100
0010
1000
0010
0100
0001
1000
0001
0010
0100
,
1000
0001
0100
0010
0100
0001
0010
0001
0100
0001
1000
0100
1000
0010
1000
0001
0100
0010
0100
0001
0010
0100
1000
0010
,
0100
0001
0010
0001
1000
0010
1000
0100
0010
0001
0100
0010
1000
0001
1000
0001
1000
0001
0010
0100
0010
0001
0100
0010
,
1000
0010
0100
0001
1000
0100
1000
0010
0100
0001
0100
0010
1000
0001
1000
0100
0010
0001
0100
0001
1000
0001
0010
0100
,
1000
0001
0100
0010
1000
0010
0100
0001
1000
0100
0010
0001
0100
0001
1000
0001
0100
0010
1000
0100
0010
0001
0100
0001
,
0010
0001
1000
0010
0100
0010
1000
0001
1000
0100
0010
0001
0100
0001
1000
0100
1000
0010
1000
0001
0100
0001
0010
0100
,
1000
0010
1000
0010
0100
0001
0100
0010
1000
0100
1000
0001
0100
0001
0010
0100
1000
0001
1000
0010
0100
0001
1000
0001
,
1000
0100
1000
0010
0100
0001
0100
0001
1000
0100
0010
0001
0100
0001
0010
0001
0100
0001
0010
0100
1000
0001
0100
0010
,
0100
0001
0100
0010
1000
0001
1000
0100
0010
0001
0100
0001
1000
0010
1000
0100
0010
0001
0100
0001
1000
0100
0010
0100
,
1000
0010
0100
0001
0010
0001
0100
0010
1000
0100
0010
0001
0100
0001
1000
0001
0010
0100
1000
0010
0100
0001
1000
0100
,
1000
0010
0100
0010
1000
0001
1000
0100
0010
0001
0100
0001
1000
0100
1000
0010
1000
0100
1000
0010
0100
0001
0010
0100
,
1000
0010
1000
0001
0100
0010
1000
0100
1000
0001
0100
0001
0010
0001
1000
0100
1000
0010
0100
0010
1000
0100
0010
0001
,
0100
0001
1000
0100
1000
0010
0100
0001
0100
0010
1000
0100
0010
0001
0100
0001
1000
0100
1000
0010
0100
0010
1000
0001
,
0010
0001
0100
0010
1000
0010
0100
0001
1000
0100
1000
0010
0100
0001
0100
0010
1000
0001
0010
0100
1000
0010
1000
0001
,
0010
0001
0100
0010
1000
0010
0100
0001
1000
0100
0010
0001
0100
0001
1000
0100
1000
0010
0100
0010
1000
0100
0010
0001
,
0100
0001
0010
0100
1000
0010
1000
0001
0010
0001
0100
0010
1000
0010
0100
0001
1000
0001
0100
0010
1000
0001
0010
0001
,
0100
0010
1000
0001
0010
0001
0100
0010
1000
0010
0100
0001
0010
0100
1000
0010
1000
0001
0100
0001
0010
0100
1000
0010
,
1000
0001
0100
0010
0100
0001
1000
0100
0010
0100
1000
0010
0100
0001
1000
0001
0100
0010
0100
0001
1000
0001
0100
0010
,
1000
0100
1000
0010
0100
0001
0010
0100
1000
0001
0010
0001
0100
0010
1000
0010
0100
0001
0010
0001
1000
0001
0100
0010
,
1000
0100
0010
0001
0100
0001
1000
0100
1000
0001
0100
0001
0010
0100
1000
0001
0100
0010
1000
0100
1000
0001
0100
0001
,
0010
0100
0010
0001
0100
0010
1000
0100
1000
0010
0100
0001
0010
0100
1000
0001
0010
0001
0100
0010
1000
0010
0100
0001
,
0010
0100
1000
0010
1000
0100
0010
0001
0100
0001
1000
0100
1000
0010
0100
0001
0100
0010
1000
0100
0010
0001
0100
0001
,
1000
0100
0010
0100
1000
0010
0100
0001
1000
0100
0010
0001
0100
0010
1000
0001
0100
0001
0010
0100
1000
0010
0100
0001
,
1000
0100
0010
0001
0100
0010
1000
0100
1000
0010
0100
0001
0010
0001
1000
0001
0100
0010
1000
0100
1000
0010
0100
0001
,
0100
0010
1000
0100
0010
0001
0100
0001
1000
0100
0010
0100
1000
0010
0100
0001
1000
0100
0010
0001
0100
0001
1000
0010
,
0100
0001
0010
0001
1000
0100
1000
0010
0100
0001
1000
0001
0010
0100
1000
0010
1000
0001
0100
0010
1000
0100
1000
0010
,
0100
0001
0010
0100
1000
0010
0100
0001
0010
0001
0100
0010
1000
0100
1000
0001
0010
0001
0100
0010
0100
0001
1000
0001
,
2000
0000
3002
0003
0010
0100
2000
3000
,
0002
0000
0203
0300
0010
1000
0000
0000
;
