#TITLE:geeks' coup d'etat;
#SUBTITLE:;
#ARTIST:@mu_le;
#TITLETRANSLIT:;
#SUBTITLETRANSLIT:;
#ARTISTTRANSLIT:;
#CREDIT:;
#BANNER:geeks' coup d'etat - banner.jpg;
#BACKGROUND:geeks' coup d'etat - bg.jpg;
#LYRICSPATH:;
#CDTITLE:pfx - icon.png;
#MUSIC:geekers.mp3;
#OFFSET:-0.040;
#SAMPLESTART:37.500;
#SAMPLELENGTH:12.000;
#SELECTABLE:YES;
#BPMS:0.000=180.000;
#STOPS:;
#BGCHANGES:;
// cache tags:
#FIRSTBEAT:0.500;
#LASTBEAT:234.000;
#SONGFILENAME:Songs/Community Keyboard Megapack - Volume 1/(pfx13AE) geeks' coup d'etat/geeks' coup d'etat.sm;
#HASMUSIC:1;
#HASBANNER:1;
#MUSICLENGTH:130.896;
// end cache tags

//---------------dance-single - Copied from----------------
#NOTES:
     dance-single:
     Copied from:
     Hard:
     12:
     0.673,0.760,0.535,0.168,0.695,525.000,70.000,22.000,0.000,0.000:
0000
1000
0100
0000
0010
0000
0000
0000
,
0000
0000
0000
0000
,
0000
0010
0100
0000
1000
0000
0000
0000
,
0000
0000
0000
0000
,
0000
1000
0001
0000
0100
0000
0000
0000
,
0000
0000
0000
0000
,
0000
0001
1000
0000
0100
0000
0000
0000
,
0000
0000
0000
0000
,
0000
1000
0010
0000
0100
0000
0000
0000
,
0000
0000
0000
0000
,
0000
0001
0010
0000
0100
0000
0000
0000
,
0000
0000
0000
0000
,
0000
1000
0010
0000
1000
0000
0000
0100
,
0000
0000
0000
0000
,
0000
0010
0001
0000
1000
0000
0000
0010
,
0000
0000
0100
0000
0000
0000
0110
0110
,
1001
0000
1000
0100
1000
0000
1000
0000
1000
0100
0010
0000
0001
0100
0001
0100
,
0001
0000
0000
0000
1000
0100
0010
0100
1000
0000
0000
0000
1010
0000
0000
0000
1001
0000
0000
0000
1000
0000
0000
0000
0100
0000
0000
0000
0010
0000
0001
0000
,
0100
0000
0000
0000
0100
0000
0001
0010
0100
0000
1000
0000
0100
0000
0010
0000
0001
0000
0000
0000
1000
0000
0100
0000
1000
0000
0100
0000
0011
0000
0000
0000
,
1100
0000
0000
0000
0110
0000
0000
0000
0011
0000
0000
0000
0110
0000
0000
0000
1100
0000
0000
0000
0001
0000
0000
0000
1000
0100
0010
0001
1000
0000
0000
0000
,
1000
0100
1000
0010
1000
0001
0000
0000
0100
0000
0100
0000
0100
0000
0010
0000
,
1001
0000
0000
0000
1000
0000
0010
0000
0100
0000
0000
0000
0010
0000
0000
0000
1000
0000
0001
0000
0010
0000
0000
0000
0001
0010
0100
1000
0001
0000
0000
0000
,
0001
0000
0010
0000
0100
0010
0100
0010
0100
0000
0020
0000
0032
0000
1003
0100
,
1000
0000
0010
0000
0100
0000
0001
0000
1000
0100
0010
0001
1000
0000
0000
0000
0100
0000
0000
0000
0010
0001
1000
0000
0010
0001
1000
0100
0010
0000
0001
0000
,
0100
0000
0000
0000
2000
0000
0000
3000
2000
0000
0000
3000
0100
0000
0100
0000
0020
0000
0000
0030
0020
0000
0000
0030
0001
0000
1000
0000
0010
0000
0100
0000
,
0001
0000
0001
0000
1000
0100
0010
0001
1000
0000
1000
0000
0000
0000
0100
0000
0010
0000
0001
0000
0100
0000
0001
0000
2000
0000
0000
0000
0200
0000
0000
3300
,
0010
0001
1000
0001
0200
0300
0200
0300
0020
0000
2030
0000
3000
0000
0100
0100
,
0010
0001
1000
0000
0100
0000
0010
0000
0100
0000
0100
0000
0010
0000
0001
0000
0010
0000
0001
0000
0100
0000
0001
0000
1000
0000
0001
0000
1000
0000
0001
0000
,
1000
0000
1100
0000
0100
0100
0010
0001
1000
0010
0100
0000
0011
0000
1001
0000
,
0110
0000
0011
0000
1001
0000
0000
0000
0110
0000
1000
1000
0100
0010
0100
0000
,
1000
1000
0100
0010
0001
0000
0000
0000
0001
0000
0001
0000
0001
0010
0100
1000
,
0100
0000
0010
0001
1100
0000
0010
0100
0010
0001
0110
0000
2100
0000
3001
0000
,
1001
0100
0010
0000
0011
0000
1001
0100
0010
0000
0011
0000
1100
0020
0032
0003
,
1000
0000
0100
0000
1000
0000
0010
0000
1000
0000
0001
0000
0100
0000
0000
0000
0010
0000
0000
0000
0100
0000
0000
0000
0001
0000
0000
0000
1000
0100
0010
0000
,
0001
0001
2000
0000
3100
0010
0101
1000
,
0011
0000
0000
0000
0101
0000
0000
0000
0110
0000
0000
0000
1100
0000
0000
0000
0110
0000
0000
0000
1001
0000
0000
0000
1000
0100
1000
0100
1000
0000
0100
0000
,
0011
0000
1000
0010
1000
0010
0100
0000
0010
0000
0010
0000
1000
0000
0001
0000
,
1100
0000
0010
0001
0110
0000
1100
0001
1000
0001
0110
0000
0011
0000
1001
0000
,
0001
0010
0001
0010
0100
1000
0100
1000
0010
0100
0001
0010
0100
1000
0001
1000
,
0100
0000
0010
0000
0100
0000
0010
0000
0001
0010
0100
1000
0100
0000
0010
0000
0001
0000
1000
0000
0010
0000
0000
0000
0010
0000
1000
0000
0100
0000
0010
0000
,
0001
0000
0000
0000
0011
0000
0000
0000
0011
0000
0000
0000
1000
0000
0100
0000
0011
0000
0000
0000
0011
0000
0000
0000
1000
0100
0010
0001
1000
0000
0010
0000
,
0100
0000
0001
0000
0100
0000
0001
0000
1000
0000
0100
0000
0000
0000
0100
0000
1000
0000
0100
0000
0010
0000
0001
0000
1000
0100
0010
0000
0001
0000
0100
0000
,
0001
0000
0000
0000
0001
0000
0001
0000
0010
0000
0100
0000
1000
0000
1000
0010
,
1000
0100
0010
0001
0100
0000
0000
0000
0010
0000
1000
0000
0100
0000
0000
0000
0010
0000
0001
0000
1000
0000
0010
0000
0100
0000
0001
0000
1000
0000
0100
0000
,
1001
0000
0011
0000
0110
0000
1000
0100
0010
0100
1000
0000
0011
0000
0110
0000
,
1001
0000
0011
0000
0110
0000
0000
0000
1100
0000
1000
0001
1000
0100
0010
0001
,
0010
0100
1000
0001
0010
0000
0100
0000
1000
0000
0100
0000
0010
0000
0000
0000
0001
0000
0000
0000
0001
0000
0000
0000
0010
0000
0100
0000
0010
0000
0100
0000
,
1001
0000
0001
1000
0110
0000
1100
0001
1000
0001
0110
0000
2001
0000
0010
0000
,
3100
0000
0000
0000
0000
0000
0000
0000
1000
0000
0001
0000
1000
0000
0100
0010
0001
1000
0000
0100
0000
0010
0000
0000
0001
0000
0010
0000
1001
0000
0000
0000
,
0110
0000
0000
0000
0000
0000
0011
1000
0000
0000
2010
0000
3100
0000
0010
0001
,
1100
0000
0001
0000
1000
0000
1100
0000
0011
0000
0001
0000
0100
0000
0010
1000
,
0100
0010
0100
1000
0100
0000
0000
0000
0010
0000
0000
0000
1000
0000
0100
0000
0010
0001
0010
0100
0010
0000
0001
0000
0010
0000
0100
0000
0010
0001
0010
0100
,
1000
0000
0100
0000
0110
0001
0100
0010
,
1100
0000
0000
0000
0001
0000
0000
0000
0100
0000
0001
0000
0010
0000
0000
0000
1002
0000
0000
0000
0000
0000
0000
0000
0000
0000
0000
0000
1003
0100
0010
0001
,
1000
0100
1000
0010
0100
0000
0002
0000
,
1003
0000
0001
0000
1000
0001
0010
0100
1000
0000
0000
0000
0000
0000
0000
0000
1000
0000
0000
0000
1000
0000
0000
0000
0100
0000
0010
0000
0001
0000
1000
0000
,
0010
0000
0000
0000
0000
0000
0100
0000
0000
0000
0000
0000
0001
0000
0010
0000
0100
0000
1000
0000
0000
0000
0000
0000
1000
0000
0000
0000
0000
0000
0100
0000
0000
0000
0000
0000
0000
0000
0000
0100
0000
0000
0000
0000
0000
0000
0000
0000
,
0010
0001
0010
0000
0100
0000
0000
0000
0100
0000
1002
0000
2000
0000
0000
0000
,
3003
0001
0010
0000
0100
0000
0000
0000
;
