#TITLE:Cyber Beasts!;
#SUBTITLE:;
#ARTIST:MegaMan Battle Network 6;
#TITLETRANSLIT:;
#SUBTITLETRANSLIT:;
#ARTISTTRANSLIT:;
#CREDIT:Kytsune;
#BANNER:../Zeppelin_bn.png;
#BACKGROUND:../bg_Zeppelin.png;
#LYRICSPATH:;
#CDTITLE:../cdtitle_ZAiA.png;
#MUSIC:Cyber Beasts!.ogg;
#OFFSET:1.162;
#SAMPLESTART:52.160;
#SAMPLELENGTH:22.560;
#SELECTABLE:YES;
#BPMS:0.000=171.001;
#STOPS:;
#BGCHANGES:;
// cache tags:
#FIRSTBEAT:4.000;
#LASTBEAT:288.000;
#SONGFILENAME:Songs/Cirque du Zeppelin/Cyber Beasts! - [Zaia]/Cyber Beasts!.sm;
#HASMUSIC:1;
#HASBANNER:1;
#MUSICLENGTH:101.826;
// end cache tags

//---------------dance-single - 12/5/11/5----------------
#NOTES:
     dance-single:
     12/5/11/5:
     Challenge:
     13:
     1.000,1.000,0.177,1.000,1.000,769.000,18.000,132.000,0.000,2.000:
0000
0000
0000
0000
,
1000
0000
0000
0000
0001
0100
0002
0000
2003
0000
3200
0000
0320
0000
0230
0000
,
1300
0000
0010
1000
0002
0000
0023
0000
0032
0000
2003
0000
3020
0000
0230
0000
,
0301
0000
0000
0000
1000
0010
1000
0001
0100
0001
0010
0001
0100
0010
1000
0010
,
0100
0001
0010
0001
0100
0010
1000
0010
1000
0001
0010
0100
1000
0001
0100
0010
,
1000
0001
0010
0001
1000
0001
0100
0010
1000
0001
1000
0100
0010
0100
1000
0001
,
0100
0001
0010
0100
1000
0001
0010
0001
0100
0001
1000
0010
1000
0001
0010
0100
,
1000
0010
1000
0001
0010
0100
1000
0001
0100
0001
1000
0001
0010
0100
1000
0001
,
0100
0010
1000
0100
0010
0100
1000
0001
0100
0001
0010
0001
1000
0100
0010
0001
,
1000
0001
0100
0001
1000
0001
0010
0100
1000
0001
1000
0010
0100
0010
1000
0001
,
0100
0001
0010
0100
1000
0001
0010
0001
0100
0001
1000
0010
1000
0001
0010
0100
,
1000
0010
1000
0001
0100
0010
1000
0001
0010
0001
1000
0001
0100
0010
1000
0001
,
0010
0100
1000
0010
0100
0010
1000
0001
0010
0001
0100
0001
1000
0010
0100
0001
,
1000
0100
0010
0001
1000
0001
0100
0010
1000
0001
0100
0001
0010
0100
1000
0010
,
0100
0010
1000
0001
0010
0001
0100
0010
1000
0001
0010
0100
1000
0010
0100
0001
,
2000
3000
0200
0320
0030
0002
0203
0320
,
2030
3000
0002
0023
0030
0200
0000
0000
,
1300
0010
0100
0000
0201
0000
0302
0000
2003
0000
3200
0000
2300
0000
3020
0000
,
0130
0000
0000
0000
0001
0000
0000
0000
0010
0000
0000
0000
0000
0000
0000
0000
0021
0000
0000
0000
0000
0000
0000
0000
0032
0000
0000
0000
0000
0000
0000
0000
2003
0000
0000
0000
0000
0000
0000
0000
3002
0000
0000
0000
0000
0000
0000
0000
0203
0000
0000
0000
0000
0000
0000
0000
0320
0000
0000
0000
0000
0000
0000
0030
,
2010
3002
0023
0230
2300
3020
0230
0320
,
1030
0000
0100
0000
0010
0000
0001
0000
0000
0000
0000
0000
0100
0001
0010
0002
,
2000
0000
0000
0000
0000
0000
0000
0000
0000
0000
0000
0000
0000
0000
0000
0000
0000
0000
0000
0000
0000
0000
0000
3003
2112
0000
0000
0000
0000
0000
0000
0000
0000
0000
0000
0000
0000
0000
0000
0000
3003
0000
0000
0000
0000
0000
0000
0000
0000
0000
0000
0000
0000
0000
0000
0000
0001
0000
0000
0000
0100
0000
0000
0000
,
0010
0000
1000
0000
0100
0000
0010
0000
0002
0000
0000
0203
0000
0000
0320
0000
,
2030
0000
0000
0000
3002
0000
0003
0010
,
0200
0000
1300
0002
0000
0000
0003
0000
,
0200
0000
0000
0000
0320
0000
0000
0000
1030
0001
0100
0010
1000
0000
0001
0000
,
0020
0000
0000
0000
0230
0000
0000
0000
1300
0001
0010
0100
1000
0001
0100
0001
,
2000
0000
0000
0000
0000
0000
0000
0000
3002
0000
0000
0000
0000
0000
0000
0003
0010
0000
0001
0000
1000
0000
0001
0000
0200
0000
0000
0000
0000
0000
0000
0000
,
0320
0000
0000
0000
0000
0000
0000
0000
2030
0000
0000
0000
0000
0000
3001
0010
,
0001
0000
1000
0010
1000
0000
0001
0100
0001
1000
0001
0010
0100
1000
0001
0100
,
0010
1000
0001
1000
0100
0010
0100
1000
0010
0100
0001
0010
0001
1000
0100
1000
,
0010
1000
0001
0010
0001
0100
0001
1000
0100
0010
0001
0100
0010
1000
0001
0100
,
0010
0000
0000
0000
0000
0000
0000
0000
0000
0000
0000
0000
0100
0000
0000
0000
0000
0000
0000
0000
0000
0000
0000
0000
0001
0000
0000
0000
0000
0000
0000
0000
0000
0000
0000
0000
0010
0000
0000
0000
0000
0000
0000
0000
0000
0000
0000
0000
0200
0300
0000
0000
0000
0000
0000
0000
0000
0000
0000
0000
2000
0000
0000
3000
0000
0000
0000
0000
0000
0000
0000
0000
0020
0000
0000
0000
0030
0000
0000
0000
0000
0000
0000
0000
0200
0000
0000
0000
0000
0000
0300
0000
0000
0000
0000
0000
0002
0000
0000
0000
0000
0000
0000
0000
0003
0000
0000
0000
0020
0000
0000
0000
0000
0000
0000
0000
0000
0030
0000
0000
0002
0000
0000
0000
0000
0000
0000
0000
0003
0000
0000
0000
2000
0000
0000
0000
3000
0000
0000
0000
0000
0000
0000
0000
0200
0000
0000
0300
0000
0000
0000
0000
0000
0000
0000
0000
2000
3000
0000
0000
0000
0000
0000
0000
0000
0000
0000
0000
0001
0000
0000
0000
0000
0000
0000
0000
0000
0000
0000
0000
0010
0000
0000
0000
0000
0000
0000
0000
0000
0000
0000
0000
,
0001
0100
0010
1000
0001
0010
0100
1000
0010
0100
0001
0100
0010
1000
0001
0010
,
0100
1000
0001
0101
0100
0010
0000
1001
,
0001
0010
0001
1000
0000
0010
0100
0001
,
1010
0000
0000
1001
0000
0000
0011
0000
,
0001
1000
0100
1000
0010
0100
0001
0100
0001
1000
0100
0010
0001
1000
0010
0100
,
0001
1000
0100
1000
0001
1000
0010
0100
0001
1000
0001
0010
0100
0010
0001
1000
,
0010
1000
0100
0010
0001
1000
0100
1000
0010
1000
0001
0100
0001
1000
0100
0010
,
0001
0100
0001
1000
0100
0010
0001
1000
0010
1000
0001
1000
0100
0010
0001
1000
,
0010
0100
0001
0010
0100
0010
0001
1000
0010
1000
0100
1000
0001
0010
0100
1000
,
0001
1000
0010
1000
0001
1000
0100
0010
0001
1000
0001
0100
0010
0100
0001
1000
,
0010
1000
0100
0010
0001
1000
0100
1000
0010
1000
0001
0100
0001
1000
0100
0010
,
0001
0100
0001
1000
0010
0100
0001
1000
0100
1000
0001
1000
0010
0100
0001
1000
,
0100
0010
0001
0100
0010
0100
0001
1000
0100
1000
0010
1000
0001
0100
0010
1000
,
0001
0010
0100
1000
0001
1000
0010
0100
0001
1000
0010
1000
0100
0010
0001
0100
,
0010
0100
0001
1000
0100
1000
0010
0100
0001
1000
0100
0010
0001
0100
0010
1000
,
0002
0003
0020
0230
0300
2000
3020
0230
,
0302
0003
2000
3200
0300
0020
0000
0000
,
0031
0100
0010
0000
1020
0000
2030
0000
3002
0000
0023
0000
0032
0000
0203
0000
,
0310
0000
0000
0000
1000
0000
0000
0000
0100
0000
0000
0000
0000
0000
0000
0000
1200
0000
0000
0000
0000
0000
0000
0000
2300
0000
0000
0000
0000
0000
0000
0000
3002
0000
0000
0000
0000
0000
0000
0000
2003
0000
0000
0000
0000
0000
0000
0000
3020
0000
0000
0000
0000
0000
0000
0000
0230
0000
0000
0000
0000
0000
0000
0300
,
0102
2003
3200
0320
0032
0203
0320
0230
,
0301
0000
0010
0000
0100
0000
1000
0000
0000
0000
0000
0000
0010
1000
0100
2000
,
0002
0000
0000
0000
0000
0000
0000
0000
0000
0000
0000
0000
0000
0000
0000
0000
0000
0000
0000
0000
0000
0000
0000
3003
2112
0000
0000
0000
0000
0000
0000
0000
0000
0000
0000
0000
0000
0000
0000
0000
3003
0000
0000
0000
0000
0000
0000
0000
0000
0000
0000
0000
0000
0000
0000
0000
1000
0000
0000
0000
0010
0000
0000
0000
,
0100
0000
0001
0000
0010
0000
0100
0000
2000
0000
0000
3020
0000
0000
0230
0000
,
0302
0000
0000
0000
2003
0000
3000
0100
,
0020
0000
0031
2000
0000
0000
3000
0000
,
0020
0000
0000
0000
0230
0000
0000
0000
0301
1000
0010
0100
0001
0000
1000
0000
,
0200
0000
0000
0000
0320
0000
0000
0000
0031
1000
0100
0010
0001
1000
0010
1000
,
0002
0000
0000
0000
0000
0000
0000
0000
2003
0000
0000
0000
0000
0000
0000
3000
0100
0000
1000
0000
0001
0000
1000
0000
0020
0000
0000
0000
0000
0000
0000
0000
,
0230
0000
0000
0000
0000
0000
0000
0000
0302
0000
0000
0000
0000
0000
1003
0100
,
1000
0000
0001
0100
0001
0000
1000
0010
1000
0001
1000
0100
0010
0001
1000
0010
,
0100
0001
1000
0001
0010
0100
0010
0001
0100
0010
1000
0100
1000
0001
0010
0001
,
0100
0001
1000
0100
1000
0010
1000
0001
0010
0100
1000
0010
0100
0001
1000
0010
,
0100
0000
0000
0000
0000
0000
0000
0000
0000
0000
0000
0000
0010
0000
0000
0000
0000
0000
0000
0000
0000
0000
0000
0000
1000
0000
0000
0000
0000
0000
0000
0000
0000
0000
0000
0000
0100
0000
0000
0000
0000
0000
0000
0000
0000
0000
0000
0000
0020
0030
0000
0000
0000
0000
0000
0000
0000
0000
0000
0000
0002
0000
0000
0003
0000
0000
0000
0000
0000
0000
0000
0000
0200
0000
0000
0000
0300
0000
0000
0000
0000
0000
0000
0000
0020
0000
0000
0000
0000
0000
0030
0000
0000
0000
0000
0000
2000
0000
0000
0000
0000
0000
0000
0000
3000
0000
0000
0000
0200
0000
0000
0000
0000
0000
0000
0000
0000
0300
0000
0000
2000
0000
0000
0000
0000
0000
0000
0000
3000
0000
0000
0000
0002
0000
0000
0000
0003
0000
0000
0000
0000
0000
0000
0000
0020
0000
0000
0030
0000
0000
0000
0000
0000
0000
0000
0000
0002
0003
0000
0000
0000
0000
0000
0000
0000
0000
0000
0000
1000
0000
0000
0000
0000
0000
0000
0000
0000
0000
0000
0000
0010
0000
0000
0000
0000
0000
0000
0000
0000
0000
0000
0000
,
1000
0100
0010
0001
1000
0010
0100
0001
0010
0100
1000
0100
0010
0001
1000
0010
,
0100
0001
1000
1100
0100
0010
0000
1001
,
1000
0010
1000
0001
0000
0010
0100
1000
,
0011
0000
0000
1001
0000
0000
1010
0000
,
0010
0100
0001
1000
0010
1000
0010
0100
0001
1000
0100
0010
0100
1000
0001
1000
,
0002
0000
0000
0000
,
0003
0000
0000
0000
;

//---------------dance-single - ----------------
#NOTES:
     dance-single:
     :
     Hard:
     11:
     1.000,1.000,0.295,1.000,0.746,599.000,30.000,129.000,0.000,2.000:
0000
0000
0000
0000
,
1000
0000
0000
0000
0001
0100
0002
0000
2003
0000
3200
0000
0320
0000
0230
0000
,
1300
0000
0010
1000
0002
0000
0023
0000
0032
0000
2003
0000
3020
0000
0230
0000
,
0301
0000
0000
0000
1000
0010
0100
0001
1000
0001
1000
0100
0010
0001
1000
0001
,
0100
0001
0010
0100
1000
0001
1000
0001
0100
0010
1000
0001
0010
0001
0100
0010
,
1000
0001
1000
0200
0000
0320
0000
0030
,
0100
1000
0010
0100
0001
1000
0010
1000
0100
1000
0001
0010
0001
1000
0010
0100
,
0001
0010
0100
2000
0000
3002
0000
0003
,
0100
0010
1000
0100
0010
0100
1000
0001
0100
0001
0010
0001
1000
0100
0010
0001
,
1000
0001
1000
0020
0000
0230
0000
0300
,
0010
1000
0100
0010
0001
1000
0100
1000
0010
1000
0001
0100
0001
1000
0100
1000
,
0001
0100
0010
2000
0000
3002
0000
0003
,
0010
0100
1000
0010
0100
0010
1000
0001
0010
0001
0100
0001
1000
0010
0100
0001
,
1000
0001
0010
0000
0100
0000
1000
0000
0010
0100
0001
0000
1000
0100
0010
0001
,
1000
0001
0100
0000
0010
0000
1000
0000
0001
0000
0010
0000
0100
1000
0001
0100
,
0002
0003
0200
0320
0030
2000
3200
0320
,
0032
0003
2000
3020
0030
0200
0000
0000
,
0301
0010
0100
0000
1200
0000
2300
0000
3002
0000
0203
0000
0302
0000
0023
0000
,
0130
0000
0000
0000
1000
0000
0000
0000
0010
0000
0000
0000
0000
0000
0000
0000
1020
0000
0000
0000
0000
0000
0000
0000
2030
0000
0000
0000
0000
0000
0000
0000
3002
0000
0000
0000
0000
0000
0000
0000
2003
0000
0000
0000
0000
0000
0000
0000
3200
0000
0000
0000
0000
0000
0000
0000
0320
0000
0000
0000
0000
0000
0000
0030
,
0012
2003
3020
0230
0302
0023
0230
0320
,
0031
0000
0100
0000
0010
0000
1000
0000
0000
0000
0000
0000
0100
1000
0010
2000
,
0002
0000
0000
0000
0000
0000
0000
0000
0000
0000
0000
0000
0000
0000
0000
0000
0000
0000
0000
0000
0000
0000
0000
3003
2112
0000
0000
0000
0000
0000
0000
0000
0000
0000
0000
0000
0000
0000
0000
0000
3003
0000
0000
0000
0000
0000
0000
0000
0000
0000
0000
0000
0000
0000
0000
0000
0001
0000
0000
0000
0100
0000
0000
0000
,
0010
0000
1000
0000
0100
0000
0010
0000
0002
0000
0000
0203
0000
0000
0320
0000
,
2030
0000
0000
0000
3002
0000
0003
0010
,
0200
0000
1300
0002
0000
0000
0003
0000
,
0200
0000
0000
0000
0320
0000
0000
0000
1030
0001
0100
0010
1000
0000
0001
0000
,
0020
0000
0000
0000
0230
0000
0000
0000
1300
0001
0010
0100
1000
0001
0100
0001
,
2000
0000
0000
0000
0000
0000
0000
0000
3002
0000
0000
0000
0000
0000
0000
0003
0010
0000
0001
0000
1000
0000
0001
0000
0200
0000
0000
0000
0000
0000
0000
0000
,
0320
0000
0000
0000
0000
0000
0000
0000
2030
0000
0000
0000
0000
0000
3001
0010
,
0001
0000
1000
0010
1000
0000
0001
0100
0001
1000
0001
0010
0100
1000
0001
0100
,
0010
1000
1010
0010
0100
0101
0001
0010
,
0100
1000
1001
0010
0100
1001
0001
0010
,
0100
0000
0000
1000
0000
0000
2100
3000
0000
0200
0000
0300
0020
0000
0030
0012
0003
0000
0001
0000
0000
0100
0000
0000
,
0010
1000
0001
0010
0100
1000
0001
0100
,
0010
1000
0001
0011
0010
0100
0000
1001
,
0001
0010
0001
1000
0000
0010
0100
0001
,
1010
0000
0000
1001
0000
0000
0011
0000
,
0001
1000
0100
1000
0010
0100
0001
0100
0001
1000
0100
0010
0001
1000
0010
0100
,
0001
1000
0001
0020
0000
0230
0000
0300
,
0010
0001
0100
0010
1000
0001
0100
0001
0010
0001
1000
0100
1000
0001
0100
0010
,
1000
0100
0010
0002
0000
2003
0000
3000
,
0010
0100
0001
0010
0100
0010
0001
1000
0010
1000
0100
1000
0001
0010
0100
1000
,
0001
1000
0001
0200
0000
0320
0000
0030
,
0100
0001
0010
0100
1000
0001
0010
0001
0100
0001
1000
0010
1000
0001
0010
0001
,
1000
0010
0100
0002
0000
2003
0000
3000
,
0100
0010
0001
0100
0010
0100
0001
1000
0100
1000
0010
1000
0001
0100
0010
1000
,
0001
1000
0100
0000
0010
0000
0001
0000
0100
0010
1000
0000
0001
0010
0100
1000
,
0001
1000
0010
0000
0100
0000
0001
0000
1000
0000
0100
0000
0010
0001
1000
0010
,
2000
3000
0020
0230
0300
0002
0023
0230
,
2300
3000
0002
0203
0300
0020
0000
0000
,
1030
0100
0010
0000
0021
0000
0032
0000
2003
0000
3020
0000
2030
0000
3200
0000
,
0310
0000
0000
0000
0001
0000
0000
0000
0100
0000
0000
0000
0000
0000
0000
0000
0201
0000
0000
0000
0000
0000
0000
0000
0302
0000
0000
0000
0000
0000
0000
0000
2003
0000
0000
0000
0000
0000
0000
0000
3002
0000
0000
0000
0000
0000
0000
0000
0023
0000
0000
0000
0000
0000
0000
0000
0230
0000
0000
0000
0000
0000
0000
0300
,
2100
3002
0203
0320
2030
3200
0320
0230
,
1300
0000
0010
0000
0100
0000
0001
0000
0000
0000
0000
0000
0010
0001
0100
0002
,
2000
0000
0000
0000
0000
0000
0000
0000
0000
0000
0000
0000
0000
0000
0000
0000
0000
0000
0000
0000
0000
0000
0000
3003
2112
0000
0000
0000
0000
0000
0000
0000
0000
0000
0000
0000
0000
0000
0000
0000
3003
0000
0000
0000
0000
0000
0000
0000
0000
0000
0000
0000
0000
0000
0000
0000
1000
0000
0000
0000
0010
0000
0000
0000
,
0100
0000
0001
0000
0010
0000
0100
0000
1000
0000
0000
0010
0000
0000
0100
0000
,
0002
0000
0000
0000
2003
0000
3000
0100
,
0020
0000
0031
2000
0000
0000
3000
0000
,
0020
0000
0000
0000
0230
0000
0000
0000
0301
1000
0010
0100
0001
0000
1000
0000
,
0200
0000
0000
0000
0320
0000
0000
0000
0031
1000
0100
0010
0001
1000
0010
1000
,
0002
0000
0000
0000
0000
0000
0000
0000
2003
0000
0000
0000
0000
0000
0000
3000
0100
0000
1000
0000
0001
0000
1000
0000
0020
0000
0000
0000
0000
0000
0000
0000
,
0230
0000
0000
0000
0000
0000
0000
0000
0302
0000
0000
0000
0000
0000
1003
0100
,
1000
0000
0001
0100
0001
0000
1000
0010
1000
0001
1000
0100
0010
0001
1000
0010
,
0100
0001
0101
0100
0010
1010
1000
0100
,
0010
0001
1001
0100
0010
1001
1000
0100
,
0010
0001
0011
0010
0100
1100
1000
0010
,
0100
0001
1000
0100
0010
0001
1000
0010
,
0100
0001
1000
1010
0010
0100
0000
1001
,
1000
0100
1000
0001
0000
0100
0010
1000
,
0101
0000
0000
1001
0000
0000
1100
0000
,
0100
0010
0001
1000
0100
1000
0100
0010
0001
1000
0010
0100
0010
1000
0001
1000
,
0002
0000
0000
0000
,
0003
0000
0000
0000
;

//---------------dance-single - ----------------
#NOTES:
     dance-single:
     :
     Medium:
     9:
     0.951,1.000,0.275,1.000,0.349,518.000,28.000,132.000,0.000,0.000:
0000
0000
0000
0000
,
1000
0000
0000
0000
0001
0100
0002
0000
2003
0000
3200
0000
0320
0000
0230
0000
,
1300
0000
0010
1000
0002
0000
0023
0000
0032
0000
2003
0000
3020
0000
0230
0000
,
0301
0000
1000
0001
0100
0001
0010
0001
,
0100
0010
1000
0010
0100
0001
0100
0010
,
1000
0001
1000
0200
0000
0320
0000
0030
,
0100
1000
0001
0000
1000
0010
1000
0000
0001
0100
0001
0000
1000
0100
1000
0000
,
0001
0010
0100
2000
0000
3002
0000
0003
,
0100
0010
1000
0000
0001
0010
0001
0000
1000
0010
1000
0000
0010
0100
0010
0000
,
1000
0001
1000
0020
0000
0230
0000
0300
,
0010
1000
0001
0000
1000
0100
1000
0000
0001
0010
0001
0000
1000
0010
1000
0000
,
0001
0100
0010
2000
0000
3002
0000
0003
,
0010
0100
1000
0000
0001
0100
0001
0000
1000
0100
1000
0000
0100
0010
0100
0000
,
1000
0001
0010
0000
0100
0000
1000
0000
0010
0100
0001
0000
1000
0000
0001
0000
,
1000
0001
0100
0000
0010
0000
1000
0000
0001
0000
0010
0000
0100
0000
0010
0000
,
0002
0003
0200
0320
0030
2000
3200
0320
,
0032
0003
2000
3020
0030
0200
0000
0000
,
0310
1000
0001
0000
1001
0000
2000
0000
3002
0000
0203
0000
0302
0000
0023
0000
,
0130
1000
0001
0000
1001
0000
2000
0000
3002
0000
2003
0000
3200
0000
0320
0000
,
0032
2003
3020
0230
0302
0023
0230
0320
,
0031
0000
0100
0000
0010
0000
1000
0000
0000
0000
0000
0000
0010
0100
0010
2000
,
0002
0000
0000
0000
0000
0000
0000
0000
0000
0000
0000
0000
0000
0000
0000
0000
0000
0000
0000
0000
0000
0000
0000
3003
2002
0000
0000
0000
0000
0000
0000
0000
0000
0000
0000
0000
0000
0000
0000
0000
3003
0000
0000
0000
0000
0000
0000
0000
0000
0000
0000
0000
0000
0000
0000
0000
0001
0000
0000
0000
0100
0000
0000
0000
,
0010
0000
1000
0000
0100
0000
0010
0000
0002
0000
0000
0203
0000
0000
0320
0000
,
2030
0000
0000
0000
3002
0000
0003
0010
,
0200
0000
1300
0002
0000
0000
0003
0000
,
0200
0000
0000
0000
0320
0000
0000
0000
1030
0001
1000
0000
0001
0000
1000
0000
,
0020
0000
0000
0000
0230
0000
0000
0000
0301
1000
0001
0000
0100
0000
0010
0000
,
2000
0000
0000
0000
0000
0000
0000
0000
3002
0000
0000
0000
0000
0000
0000
0003
0010
0000
0001
0000
1000
0000
0000
0000
0200
0000
0000
0000
0000
0000
0000
0000
,
0320
0000
0000
0000
0000
0000
0000
0000
0032
0000
0000
0000
0000
0000
1003
0010
,
1000
0000
0001
0010
0001
0000
1000
0000
0001
1000
0001
1000
0001
1000
0001
1000
,
0001
1000
1010
0010
0100
0101
0001
0010
,
0100
1000
1001
0001
1000
1001
0001
0010
,
0100
0000
0000
1000
0000
0000
2100
3000
0000
0200
0000
0300
0020
0000
0030
0012
0003
0000
0001
0000
0000
0100
0000
0000
,
0010
1000
0001
0010
0100
1000
0001
0100
,
0010
1000
0001
0011
0010
0100
0000
1001
,
0001
0010
0001
1000
0000
0010
0100
0001
,
1010
0000
0000
1001
0000
0000
0011
0000
,
0001
0010
0100
1000
0100
0010
0001
0100
,
0001
1000
0001
0020
0000
0230
0000
0300
,
0010
0001
1000
0000
0001
0100
0001
0000
1000
0010
1000
0000
0001
0010
0001
0000
,
1000
0100
0010
0002
0000
2003
0000
3000
,
0010
0100
0001
0000
1000
0100
1000
0000
0001
0100
0001
0000
0100
0010
0100
0000
,
0001
1000
0001
0200
0000
0320
0000
0030
,
0100
0001
1000
0000
0001
0010
0001
0000
1000
0100
1000
0000
0001
0100
0001
0000
,
1000
0010
0100
0002
0000
2003
0000
3000
,
0100
0010
0001
0000
1000
0010
1000
0000
0001
0010
0001
0000
0010
0100
0010
0000
,
0001
1000
0100
0000
0010
0000
0001
0000
0100
0010
1000
0000
0001
0000
1000
0000
,
0001
1000
0010
0000
0100
0000
0001
0000
1000
0000
0100
0000
0010
0000
0100
0000
,
2000
3000
0020
0230
0300
0002
0023
0230
,
2300
3000
0002
0203
0300
0020
0000
0000
,
0130
0001
1000
0000
1001
0000
0002
0000
2003
0000
3020
0000
2030
0000
3200
0000
,
0310
0001
1000
0000
1001
0000
0002
0000
2003
0000
3002
0000
0023
0000
0230
0000
,
2300
3002
0203
0320
2030
3200
0320
0230
,
1300
0000
0010
0000
0100
0000
0001
0000
0000
0000
0000
0000
0100
0010
0100
0002
,
2000
0000
0000
0000
0000
0000
0000
0000
0000
0000
0000
0000
0000
0000
0000
0000
0000
0000
0000
0000
0000
0000
0000
3003
2002
0000
0000
0000
0000
0000
0000
0000
0000
0000
0000
0000
0000
0000
0000
0000
3003
0000
0000
0000
0000
0000
0000
0000
0000
0000
0000
0000
0000
0000
0000
0000
1000
0000
0000
0000
0010
0000
0000
0000
,
0100
0000
0001
0000
0010
0000
0100
0000
2000
0000
0000
3020
0000
0000
0230
0000
,
0302
0000
0000
0000
2003
0000
3000
0100
,
0020
0000
0031
2000
0000
0000
3000
0000
,
0020
0000
0000
0000
0230
0000
0000
0000
0301
1000
0001
0000
1000
0000
0001
0000
,
0200
0000
0000
0000
0320
0000
0000
0000
1030
0001
1000
0000
0010
0000
0100
0000
,
0002
0000
0000
0000
0000
0000
0000
0000
2003
0000
0000
0000
0000
0000
0000
3000
0100
0000
1000
0000
0001
0000
0000
0000
0020
0000
0000
0000
0000
0000
0000
0000
,
0230
0000
0000
0000
0000
0000
0000
0000
2300
0000
0000
0000
0000
0000
3001
0100
,
0001
0000
1000
0100
1000
0000
0001
0000
1000
0001
1000
0001
1000
0001
1000
0001
,
1000
0001
0101
0100
0010
1010
1000
0100
,
0010
0001
1001
1000
0001
1001
1000
0100
,
0010
0000
0000
0001
0000
0000
0012
0003
0000
0020
0000
0030
0200
0000
0300
2100
3000
0000
1000
0000
0000
0010
0000
0000
,
0100
0001
1000
0100
0010
0001
1000
0010
,
0100
0001
1000
1100
0100
0010
0000
1001
,
1000
0100
1000
0001
0000
0100
0010
1000
,
0101
0000
0000
1001
0000
0000
1100
0000
,
1000
0100
0010
0001
0010
0100
1000
0010
,
1000
2000
0000
0000
0000
0000
0000
0000
0000
0000
0000
0000
0000
0000
0000
0000
0000
0000
0000
0000
0000
0000
0000
0000
0000
0000
0000
0000
0000
0000
0000
0000
0000
0000
0000
0000
0000
0000
0000
0000
0000
0000
0000
0000
0000
0000
0000
0000
0000
0000
0000
0000
0000
0000
0000
0000
0000
0000
0000
0000
0000
0000
0000
0000
0000
0000
0000
0000
0000
0000
0000
0000
0000
0000
0000
0000
0000
0000
0000
0000
0000
0000
0000
0000
0000
0000
0000
0000
0000
0000
0000
0000
0000
0000
0000
0000
0000
0000
0000
0000
0000
0000
0000
0000
0000
0000
0000
0000
0000
0000
0000
0000
0000
0000
0000
0000
0000
0000
0000
0000
0000
0000
0000
0000
0000
0000
0000
0000
0000
0000
0000
0000
0000
0000
0000
0000
0000
0000
0000
0000
0000
0000
0000
0000
0000
0000
0000
0000
0000
0000
0000
0000
0000
0000
0000
0000
0000
0000
0000
0000
0000
0000
0000
0000
0000
0000
0000
0000
0000
0000
0000
0000
0000
0000
0000
0000
0000
0000
0000
0000
0000
0000
0000
0000
0000
0000
0000
0000
0000
0000
0000
0000
,
3000
0000
0000
0000
;
