#TITLE:Payon;
#SUBTITLE:;
#ARTIST:Gravity;
#TITLETRANSLIT:;
#SUBTITLETRANSLIT:;
#ARTISTTRANSLIT:;
#CREDIT:;
#BANNER:payon.png;
#BACKGROUND:payon-bg.png;
#LYRICSPATH:;
#CDTITLE:;
#MUSIC:payon.mp3;
#OFFSET:0.000;
#SAMPLESTART:66.723;
#SAMPLELENGTH:12.000;
#SELECTABLE:YES;
#BPMS:0.000=90.000;
#STOPS:;
#BGCHANGES:;
// cache tags:
#FIRSTBEAT:3.750;
#LASTBEAT:211.250;
#SONGFILENAME:Songs/Beyond Legends/Payon/payon.sm;
#HASMUSIC:1;
#HASBANNER:1;
#MUSICLENGTH:142.118;
// end cache tags

//---------------dance-single - ----------------
#NOTES:
     dance-single:
     :
     Hard:
     11:
     0.982,1.000,1.000,0.626,1.000,662.000,226.000,89.000,0.000,0.000:  // measure 1
0000
0000
0000
0000
0000
0000
0000
0000
0000
0000
0000
0000
0000
0000
0000
0100
,  // measure 2
0000
1000
0000
0001
0000
0100
0000
0000
0000
0000
0000
1000
0000
0100
0000
0000
,  // measure 3
0000
0000
0010
0000
0000
0000
0000
0000
0000
0000
0100
0000
0000
0000
0000
1010
0101
1010
0101
1010
0000
0000
0000
0000
0000
0000
0110
0000
0000
0000
0000
0000
,  // measure 4
0000
0000
0000
0000
0000
0100
0000
1000
0000
0001
0000
0000
0000
0000
0000
0010
,  // measure 5
0000
0000
1000
0000
0000
0000
0100
0000
0000
0000
0010
0000
0000
0000
0000
0000
0000
0000
0000
0000
0000
0000
0100
0000
0000
0000
0000
0110
1001
0110
1001
0110
,  // measure 6
1001
0110
0000
0000
0000
0000
0100
0000
0000
0000
0010
0000
0000
0000
0001
0000
0000
0000
0100
0000
0000
0000
0000
0000
0000
0000
0000
0000
0000
0000
0000
0000
,  // measure 7
0000
0000
0000
0100
1000
0100
0000
0010
0001
0010
0000
0000
0000
0000
0000
0101
,  // measure 8
0000
1000
0000
0001
0000
0100
0000
0000
0000
0000
0000
0011
0000
1100
0000
0011
,  // measure 9
0000
1100
0000
0011
0000
1100
0000
0011
0000
0101
0000
0000
0000
0101
0000
0000
,  // measure 10
0000
0000
0000
0110
0000
0110
0000
0000
0000
1100
0000
0000
0000
0000
0000
0000
,  // measure 11
0000
1010
0011
0000
0000
0000
0000
0000
0000
0000
0101
0000
0000
0000
0000
0000
0000
0000
0110
0000
0000
0000
0000
0000
0011
0000
1001
0000
0000
0000
0001
0000
,  // measure 12
0000
0101
0000
1010
0000
0101
0000
0101
0000
0101
0000
1010
0000
0101
0000
0001
,  // measure 13
0000
0100
0000
1000
0000
1000
0000
0000
0000
1000
0000
0000
0000
0000
0000
0100
,  // measure 14
0000
1000
0000
0100
0000
0010
0000
0100
0000
0001
0000
0000
0100
0010
0000
0000
,  // measure 15
0000
0000
0000
0000
0000
0000
0000
0000
1000
0010
1000
0010
0100
0010
0001
0010
,  // measure 16
0001
0000
0000
0000
0000
0000
0000
0000
0000
0000
0000
1000
0100
0010
0001
0010
0100
0001
0110
0001
0110
1000
0100
1000
0100
0010
0001
0001
0001
0010
0100
1000
,  // measure 17
0100
0010
0001
0010
0100
1000
0100
0010
0100
0010
0100
1000
0010
1000
0100
0010
0001
1000
0101
1000
1100
0010
0101
1010
0101
0100
0100
0100
0100
0100
0100
0100
,  // measure 18
0110
1000
0011
1000
0110
1000
0011
1000
0110
0100
0010
1000
0100
0010
0001
1000
0100
0010
0001
1000
0100
0010
0001
1000
0110
0001
0100
1000
0100
0010
0100
0010
,  // measure 19
0100
0010
0100
0001
0100
0001
0100
0001
0100
0001
0100
0010
0100
0010
0100
0010
0100
1000
0100
1000
0100
1000
0010
1000
0100
1000
0010
1000
0100
1000
0010
1000
,  // measure 20
0100
1000
0010
1000
0100
1000
0001
1000
0100
1000
0010
1000
0100
1000
0001
1000
0100
1000
0001
1000
0100
1000
0010
1000
0100
1000
0001
1000
0100
1000
0010
1000
,  // measure 21
0100
1000
0001
1000
0100
1000
0010
1000
0100
1000
0010
1000
0100
1001
0110
0110
1100
1001
1001
0110
0100
0001
0001
0001
0001
0001
0001
0001
0110
0110
0110
0000
,  // measure 22
0000
0000
0000
0000
0000
0000
0000
0000
0000
0000
0000
0000
0000
1000
0210
1300
0201
1300
0210
1300
0201
1300
0210
1300
0201
1300
0210
1300
0201
1300
0210
1300
,  // measure 23
0201
1300
0210
1300
0201
1300
0210
1300
0201
1300
0210
1300
0201
1300
0210
1300
0201
1300
0210
1300
0201
1300
0210
1300
0201
1300
0210
1300
0201
1300
0210
1300
,  // measure 24
0201
1300
0210
1300
0201
1300
0210
1300
0201
1300
0210
1300
0201
1300
0210
1300
0201
1300
0210
1300
0201
1300
0210
1300
0201
1300
0210
1300
0201
1300
0210
1300
,  // measure 25
0201
1300
0210
1300
0201
1300
0210
1300
0201
1300
0210
1300
0201
1300
0210
1300
0201
1300
0210
1300
0201
1300
0210
1300
0201
1300
0210
1300
0201
1300
0210
1300
,  // measure 26
0201
1300
0210
1300
0201
1300
0210
1300
0201
1300
0210
1300
0201
1300
0210
1300
0201
1300
0210
1300
0201
1300
0210
1300
0201
1300
0210
1300
0201
1300
0210
1300
,  // measure 27
0201
1300
0210
1300
0201
1300
0210
1300
0201
1300
0210
1300
0201
1300
0210
1300
0201
1300
0210
1300
0201
1300
0210
1300
0201
1300
0210
0300
0000
0000
0000
0000
,  // measure 28
0000
0000
0000
0000
0000
0000
0000
0000
0000
1000
0110
1000
0101
1000
0101
1000
0011
1000
0110
1000
0011
1000
0110
1000
0101
1000
0110
1000
0110
1000
0011
1000
,  // measure 29
0101
1000
0110
1000
0011
1000
0101
1000
0011
1000
0110
1000
0110
1000
0011
1000
0101
1000
0011
1000
0110
1000
0101
1000
0110
1000
0101
1000
0011
1000
0101
1000
,  // measure 30
0011
1000
0110
1000
0110
1000
0110
1000
0101
1000
0110
1000
0011
1000
0011
1000
0011
1000
0110
1000
0011
1000
0110
1000
0011
1000
0110
1000
0011
1000
0110
1000
,  // measure 31
0110
1000
0110
1000
0011
1000
0000
0000
0000
0000
0110
0000
0000
0000
0000
0000
0000
0000
1100
0000
0000
0000
0000
0000
0000
0000
0000
0000
0000
0000
1100
0000
,  // measure 32
0000
1100
0000
0000
0000
0101
0000
0000
0000
0000
0000
0000
0000
1100
0000
0000
,  // measure 33
0000
0101
0000
0000
0000
0000
0000
0110
0000
1100
0000
0110
0000
0101
0000
0000
,  // measure 34
0000
0000
0000
0000
0000
0110
0000
0000
0000
1001
0000
0000
0000
0000
0000
0100
,  // measure 35
0000
0100
0000
0010
0000
0010
0000
0001
0000
0001
0000
0000
0000
1000
0000
1000
,  // measure 36
0000
0100
0000
0100
0000
0010
0000
0010
0000
0001
0010
0100
1000
0100
0010
0001
,  // measure 37
0010
0100
1000
0100
0010
1001
0000
0000
0000
0100
0000
0000
0000
0000
0000
0110
,  // measure 38
0000
0011
0000
0000
0000
0110
0000
0000
0000
0000
0000
0000
0000
1100
0000
0000
,  // measure 39
0000
0101
0000
0000
0000
0000
0000
1100
0000
0101
0000
1100
0000
0101
0000
0000
,  // measure 40
0000
0000
0000
0000
0000
0100
0000
0000
0000
0010
0000
0000
0000
0000
0000
0011
,  // measure 41
0000
1001
0000
1100
0000
0110
0000
1001
0000
0011
0000
0000
0110
0110
0000
1000
,  // measure 42
0000
0200
0000
0010
0300
0002
0000
0010
0003
0100
0000
0000
0000
0000
0000
0000
,  // measure 43
0000
0000
0000
0000
0000
1000
0000
0100
0000
0010
0000
0100
0000
0000
0000
1000
,  // measure 44
0000
0100
0000
0010
0000
0001
0000
1000
0000
0001
0000
1000
0000
0010
0000
0000
,  // measure 45
0000
0010
0000
0000
0000
0010
0000
0000
0000
0010
0000
0000
0000
0000
0000
1000
,  // measure 46
0000
0100
0000
0000
0000
1000
0000
0100
0000
0001
0000
0100
0000
1000
0000
0100
,  // measure 47
0000
0001
0000
0100
0000
1000
0000
0100
0000
0001
0000
0010
0000
0010
0000
0000
,  // measure 48
0000
0010
0000
0000
0000
1000
0000
0100
0000
0010
0000
0001
0000
1000
0000
1000
,  // measure 49
0000
0000
0000
0000
0000
0100
0000
1000
0000
0100
0000
0000
0000
0000
1000
0100
,  // measure 50
0010
0001
0000
1000
0000
0100
0000
0000
0000
0000
0000
0000
0000
0100
0000
1000
,  // measure 51
0000
0001
0000
0100
0000
0100
0000
1000
0000
0001
0000
0100
0000
0001
0000
1000
,  // measure 52
0000
0100
0000
0000
0000
0100
0000
0000
0000
0000
0000
0000
0000
0000
0000
0000
,  // measure 53
0000
0000
0000
0000
0000
0000
1000
0001
0000
0000
0000
0000
0000
0000
0000
0000
0000
0000
0000
0000
0000
0000
0000
0000
0000
0000
0000
0000
0000
0000
0000
0000
;

//---------------dance-single - ----------------
#NOTES:
     dance-single:
     :
     Challenge:
     11:
     1.000,1.000,1.000,0.563,1.000,668.000,274.000,80.000,0.000,6.000:  // measure 1
0000
0000
0000
0000
0000
0000
0000
0000
0000
0000
0000
0000
0000
0000
0000
0100
,  // measure 2
0000
1000
0000
0001
0000
0100
0000
0000
0000
0000
0000
1001
0000
1100
0000
0000
,  // measure 3
0000
0000
0110
0000
0000
0000
0000
0000
0000
0000
0101
0000
0000
0000
0000
1010
0101
0011
0101
0110
0000
0000
0000
0000
0000
0000
0110
0000
0000
0000
0000
0000
,  // measure 4
0000
0000
0000
0000
0000
0100
0000
1000
0000
0001
0000
0000
0000
0000
0000
0020
,  // measure 5
0000
0000
1000
0000
0000
0000
0100
0000
0000
0000
0031
0000
0000
0000
0000
0000
0000
0000
0000
0000
0000
0000
0100
0000
0000
0000
0000
0110
1001
0011
0101
1010
,  // measure 6
0101
0110
0000
0000
0000
0000
0110
0000
0000
0000
0110
0000
0000
0000
0011
0000
0000
0000
0110
0000
0000
0000
0000
0000
0000
0000
0000
0000
0000
0000
0000
0000
,  // measure 7
0000
0000
0000
0110
1010
0101
0000
0110
1001
0110
0000
0000
0000
0000
0000
0101
,  // measure 8
0000
1001
0000
0101
0000
0110
0000
0000
0000
0000
0000
0011
0000
1100
0000
0011
,  // measure 9
0000
1100
0000
0011
0000
1100
0000
0011
0000
0101
0000
0000
0000
0101
0000
0000
,  // measure 10
0000
0000
0000
0110
0000
0110
0000
0000
0000
1100
0000
0000
0000
0000
0000
0000
,  // measure 11
0000
0200
0000
0000
0000
0000
0000
0000
0000
0000
0301
0000
0000
0000
0000
0000
0000
0000
0110
0000
0000
0000
0000
0000
0011
0000
1001
0000
0000
0000
0001
0000
,  // measure 12
0000
0101
0000
1010
0000
0101
0000
0101
0000
0101
0000
1010
0000
0101
0000
0011
,  // measure 13
0000
0000
0101
0000
0000
0000
1001
0000
0000
0000
1020
0030
0000
0000
0000
0000
0000
0000
1010
0000
0000
0000
0000
0000
0000
0000
0000
0000
0000
0000
0200
0000
,  // measure 14
0000
1000
0000
0302
0000
0010
0000
0103
0000
0101
0000
0000
0110
1010
0000
0000
,  // measure 15
0000
0000
0000
0000
0000
0000
0000
0000
1010
0102
0010
0100
0013
2000
0002
0200
,  // measure 16
0000
0000
0000
0000
0000
0000
0000
0000
0000
0000
0000
3000
0303
0110
0012
0010
0100
0010
0200
0013
0011
1001
0301
1000
1100
1010
1001
1010
1100
1000
0110
1001
,  // measure 17
0101
1010
0101
0011
0110
1000
0100
0110
0100
0010
0101
1000
1010
1000
0101
1010
0011
1000
0101
1000
1100
0010
0101
1010
0101
0100
0101
0100
1100
0110
0100
0101
,  // measure 18
0110
1000
0011
1000
0110
1000
0011
1000
0110
0100
0010
1001
0101
0010
0001
1000
0101
0010
1001
1000
0110
0010
0101
1000
0110
0002
0100
1000
0100
0010
0100
0010
,  // measure 19
0100
0013
2100
0001
0100
0001
0100
0001
0100
0001
0100
0010
0100
0010
0100
0010
3100
1000
0110
1000
0101
1000
1010
1000
0110
1000
0110
1000
1100
1000
0011
0001
,  // measure 20
0110
0001
1010
0010
0110
0010
0110
1000
0100
0001
1010
1000
0101
1000
0001
1010
0100
1000
0001
1001
0100
1000
0010
1000
0110
0100
0011
1000
0010
0100
0010
0200
,  // measure 21
0302
0203
0302
2003
3200
2300
3020
2030
3200
2300
3020
0230
0320
1030
0110
0110
1100
1001
1001
0110
0100
0001
1001
0101
0101
1001
0011
1001
0110
1001
0110
0000
,  // measure 22
0000
0000
0000
0000
0000
0000
0000
0000
0000
0000
0000
0000
0000
1000
0210
0310
1200
0301
0021
1030
0002
0013
0020
0130
0200
1300
1002
0103
0011
1000
2100
3010
,  // measure 23
0201
1300
0210
1000
0001
0310
0021
0130
0201
0301
0102
0103
1200
0310
1002
0103
0201
1300
0210
1300
1200
0310
0210
0301
1002
0103
2010
3001
0201
0310
2010
3001
,  // measure 24
0201
0310
0210
0301
0201
1300
0210
1300
1200
1300
0210
0310
0201
0301
0210
0310
0210
0310
0210
0310
0201
0301
0201
0301
0201
0301
1200
1300
1200
1300
1200
1300
,  // measure 25
0011
0010
0020
0100
0200
0000
0330
0010
0102
0010
0020
0100
0203
0000
0330
0010
0001
0001
0010
0010
0100
0100
0100
0100
0010
0010
0010
0100
0100
0100
0100
0001
,  // measure 26
0001
0001
0001
0001
0001
0001
0001
0001
0200
1300
0020
0130
0002
0013
0101
1000
0100
1000
0010
1000
0100
0001
0110
0001
0101
0010
1100
0100
0101
0001
0110
0101
,  // measure 27
0101
0100
0110
0100
0101
0010
1010
0010
1100
0001
1010
0100
0101
0001
0120
0031
0110
0001
0010
2010
0010
3020
0130
0110
0100
2001
0010
0100
0010
0100
0010
0001
,  // measure 28
0010
0100
0010
0001
0010
0100
0010
0001
0010
3100
0110
1000
0100
0001
0101
1000
0011
0001
0110
1000
0011
0001
0110
1000
0101
0001
0110
1000
0110
1000
0011
1000
,  // measure 29
0101
0001
0110
1000
0011
0001
0101
1000
0011
0001
0110
1000
0110
1000
0011
1000
0101
0001
0011
0001
0110
0001
0101
0100
0110
0100
0101
0001
0011
1000
0101
1000
,  // measure 30
0011
0010
0110
0001
0110
1000
1010
0100
0101
0100
0110
0010
0011
0001
0011
1000
0011
0100
0110
1000
0011
0001
0110
0110
0011
1000
0110
0001
0011
0100
0110
0001
,  // measure 31
0110
0010
0110
0001
0011
1000
0000
0000
0000
0000
0110
0000
0000
0000
0000
0000
0000
0000
1100
0000
0000
0000
0000
0000
0000
0000
0000
0000
0000
0000
1100
0000
,  // measure 32
0000
1100
0000
0000
0000
0101
0000
0000
0000
0000
0000
0000
0000
1100
0000
0000
,  // measure 33
0000
0101
0000
0000
0000
0000
0000
0110
0000
1100
0000
0110
0000
0101
0000
0000
,  // measure 34
0000
0000
0000
0000
0000
0110
0000
0000
0000
1001
0000
0000
0000
0000
0000
0100
,  // measure 35
0000
0100
0000
0010
0000
0010
0000
0001
0000
0001
0000
0000
0000
1000
0000
1000
,  // measure 36
0000
0100
0000
0100
0000
0010
0000
0010
0000
0001
0010
0100
1000
0100
0010
0001
,  // measure 37
0010
0100
1000
0100
0010
1001
0000
0000
0000
0100
0000
0000
0000
0000
0000
0110
,  // measure 38
0000
0011
0000
0000
0000
0110
0000
0000
0000
0000
0000
0000
0000
1100
0000
0000
,  // measure 39
0000
0101
0000
0000
0000
0000
0000
1100
0000
0101
0000
1100
0000
0101
0000
0000
,  // measure 40
0000
0000
0000
0000
0000
0100
0000
0000
0000
0010
0000
0000
0000
0000
0000
0011
,  // measure 41
0000
1001
0000
1100
0000
0110
0000
1001
0000
0011
0000
0000
0110
0110
0000
1000
,  // measure 42
0000
0200
0000
0010
0300
0002
0000
0010
0003
0100
0000
0000
0000
0000
0000
0000
,  // measure 43
0000
0000
0000
0000
0000
1000
0000
0100
0000
0010
0000
0100
0000
0000
0000
1000
,  // measure 44
0000
0100
0000
0010
0000
0001
0000
1000
0000
0001
0000
1000
0000
0010
0000
0000
,  // measure 45
0000
0010
0000
0000
0000
0010
0000
0000
0000
0010
0000
0000
0000
0000
0000
1000
,  // measure 46
0000
0100
0000
0000
0000
1000
0000
0100
0000
0001
0000
0100
0000
1000
0000
0100
,  // measure 47
0000
0001
0000
0100
0000
1000
0000
0100
0000
0001
0000
0010
0000
0010
0000
0000
,  // measure 48
0000
0010
0000
0000
0000
1000
0000
0100
0000
0010
0000
0001
0000
1000
0000
1000
,  // measure 49
0000
0000
0000
0000
0000
0100
0000
1000
0000
0100
0000
0000
0000
0000
1000
0100
,  // measure 50
0010
0001
0000
1000
0000
0100
0000
0000
0000
0000
0000
0000
0000
0100
0000
1000
,  // measure 51
0000
0001
0000
0100
0000
0100
0000
1000
0000
0001
0000
0100
0000
0001
0000
1000
,  // measure 52
0000
0100
0000
0000
0000
0100
0000
0000
0000
0000
0000
0000
0000
0000
0000
0000
,  // measure 53
0000
0000
0000
0000
0000
0000
1000
0001
0000
0000
0000
0000
0000
0000
0000
0000
0000
0000
0000
0000
0000
0000
0000
0000
0000
0000
0000
0000
0000
0000
0000
0000
;

//---------------dance-double - ----------------
#NOTES:
     dance-double:
     :
     Hard:
     8:
     0.359,0.409,0.436,0.049,0.939,288.000,62.000,7.000,0.000,0.000:  // measure 1
00000000
00000000
00000000
00000000
00000000
00000000
00000000
00000000
00000000
00000000
00000000
00000000
00000000
00000000
00000000
01000000
,  // measure 2
00000000
10000000
00000000
00010000
00000000
01000000
00000000
00000000
00000000
00000000
00000000
10000000
00000000
01000000
00000000
00000000
,  // measure 3
00000000
00100000
00000000
00000000
00000000
01000000
00000000
00000000
00000000
00100000
00000000
00000000
00000000
01000000
00000000
00000000
,  // measure 4
00000000
00000000
00000000
00000000
00000000
01000000
00000000
10000000
00000000
00010000
00000000
00000000
00000000
00000000
00000000
00100000
,  // measure 5
00000000
01000000
00000000
00100000
00000000
00010000
00000000
00000000
00000000
00000000
00000000
00011000
00000000
01002000
00000000
00000000
,  // measure 6
00003000
00100000
00000000
00001000
00000000
00100000
00000000
00001000
00000000
00100000
00000000
00000000
00000000
00000000
00000000
00000000
,  // measure 7
00000000
00000000
00000000
00100000
01000000
00100000
00000000
00010000
00001000
00010000
00000000
00000000
00000000
00000000
00000000
00101000
,  // measure 8
00000000
01000000
00000000
00001000
00000000
00100000
00000000
00000000
00000000
00000000
00000000
00001000
00000000
01100000
00000000
00001000
,  // measure 9
00000000
00110000
00000000
00000100
00000000
00110000
00000000
00000100
00000000
00010100
00000000
00000000
00000000
00010100
00000000
00000000
,  // measure 10
00000000
00000000
00000000
00011000
00000000
00011000
00000000
00000000
00000000
00110000
00000000
00000000
00000000
00000000
00000000
00010000
,  // measure 11
00000000
00010000
00000000
00000000
00000000
00010000
00000000
00000000
00000000
00010000
00000000
00000000
00001100
00100100
00000000
00000100
,  // measure 12
00000000
00010000
00000000
00100000
00000000
00010000
00000000
00000100
00000000
00010000
00000000
00100000
00000000
00010000
00000000
00000100
,  // measure 13
00000000
00001000
00000000
00010000
00000000
00010000
00000000
00000000
00000000
00010000
00000000
00000000
00000000
00000000
00000000
00001000
,  // measure 14
00000000
00010000
00000000
00001000
00000000
00000100
00000000
00001000
00000000
00000010
00000000
00000000
00001000
00000100
00000000
00000000
,  // measure 15
00000000
00000000
00000000
00000000
00000000
00000000
00000000
00000000
00010000
00000100
00010000
00000100
00001000
00000100
00000010
00000100
,  // measure 16
00000010
00000000
00000000
00000000
00000000
00002000
00000000
00000000
00000000
00010000
00000000
00000000
00000000
00000000
00000000
00000010
,  // measure 17
00000000
00000010
00000000
00010000
00000000
00013000
00000000
00000000
00000000
00000000
00000000
00001000
00000000
00010000
00000000
00000000
,  // measure 18
00000000
00001000
00000000
00000000
00000000
00000010
00000000
00000100
00000000
00000010
00000000
00001000
00000000
00001000
00000000
00010000
,  // measure 19
00001000
00000100
00000000
00000000
00000000
00011000
00000000
00000000
00000000
00001010
00000000
00000000
00000000
00000000
00000000
00000100
,  // measure 20
00000000
00000100
00000000
00001000
00000000
00001000
00000000
00000000
00000000
00000000
00000000
00001000
00000000
00010000
00000000
00000000
,  // measure 21
00000000
00000100
00000000
00000000
00000000
00001100
00000000
00000100
00000000
00000011
00000000
00000001
00000010
00000100
00000000
00000000
,  // measure 22
00000000
00000000
00000000
00000000
00000000
00000110
00000000
00000000
00000000
00000110
00000000
00000000
00000000
00000000
00000000
00000100
,  // measure 23
00000000
00001001
00000000
00000010
00000000
00001001
00000000
00000000
00000000
00000000
00000000
00000100
00000000
00001100
00000000
00000001
,  // measure 24
00000000
00000101
00000000
00000010
00000000
00001010
00000000
00000001
00000000
00001001
00000000
00000100
00000000
00000000
00000000
00000000
,  // measure 25
00000000
00000000
00000000
00000000
00000000
00010010
00000000
00000000
00000000
00010010
00000000
00000000
00000000
00000000
00000000
00011000
,  // measure 26
00000000
00000110
00000000
00000000
00000000
00001000
00000000
00000000
00000000
00010010
00000000
00000000
00010000
00001000
00000000
00001000
,  // measure 27
00000000
00010000
00000000
00001000
00000000
00000100
00000000
00000010
00000000
00001000
00000000
00000100
00000000
00010000
00000000
00000010
,  // measure 28
00000000
00000100
00000000
00001000
00000000
00001000
00000000
00000000
00000000
00010000
00000000
00000000
00000000
00000000
00000000
00001000
,  // measure 29
00000000
00200000
00000000
00000000
00000000
00300100
00000000
00000000
00000000
00000000
00000000
00010000
00000000
00100000
00000000
00010000
,  // measure 30
00000000
00100000
00000000
00010000
00000000
00001000
00000000
00010000
00000000
00100000
00000000
00010000
00000000
00001000
00000000
00010000
,  // measure 31
00000000
00100000
00000000
00000000
00000000
00011000
00000000
00000000
00000000
00110000
00000000
00000000
00000000
00000000
00000000
00110000
,  // measure 32
00000000
00110000
00000000
00000000
00000000
00010100
00000000
00000000
00000000
00000000
00000000
00000000
00000000
00110000
00000000
00000000
,  // measure 33
00000000
00101000
00000000
00000000
00000000
00000000
00000000
00110000
00000000
01100000
00000000
00110000
00000000
00101000
00000000
00000000
,  // measure 34
00000000
00000000
00000000
00000000
00000000
00110000
00000000
00000000
00000000
01001000
00000000
00000000
00000000
00000000
00000000
00100000
,  // measure 35
00000000
00100000
00000000
00010000
00000000
00010000
00000000
00001000
00000000
00001000
00000000
00000000
00000000
01000000
00000000
01000000
,  // measure 36
00000000
00100000
00000000
00100000
00000000
00010000
00000000
00010000
00000000
00001000
00010000
00100000
01000000
00100000
00010000
00001000
,  // measure 37
00100000
01000000
10000000
01000000
00100000
10010000
00000000
00000000
00000000
01000000
00000000
00000000
00000000
00000000
00000000
01100000
,  // measure 38
00000000
00110000
00000000
00000000
00000000
01100000
00000000
00000000
00000000
00000000
00000000
00000000
00000000
11000000
00000000
00000000
,  // measure 39
00000000
01010000
00000000
00000000
00000000
00000000
00000000
11000000
00000000
01010000
00000000
11000000
00000000
01010000
00000000
00000000
,  // measure 40
00000000
00000000
00000000
00000000
00000000
01000000
00000000
00000000
00000000
00100000
00000000
00000000
00000000
00000000
00000000
00110000
,  // measure 41
00000000
01001000
00000000
01100000
00000000
00110000
00000000
01001000
00000000
00011000
00000000
00000000
00110000
00110000
00000000
01000000
,  // measure 42
00000000
00200000
00000000
00010000
00300000
00002000
00000000
00010000
00003000
00100000
00000000
00000000
00000000
00000000
00000000
00000000
,  // measure 43
00000000
00000000
00000000
00000000
00000000
01000000
00000000
00100000
00000000
00010000
00000000
00100000
00000000
00000000
00000000
01000000
,  // measure 44
00000000
00100000
00000000
00010000
00000000
00001000
00000000
01000000
00000000
00001000
00000000
01000000
00000000
00010000
00000000
00000000
,  // measure 45
00000000
00001000
00000000
00000000
00000000
00001000
00000000
00000000
00000000
00001000
00000000
00000000
00000000
00000000
00000000
00100000
,  // measure 46
00000000
00010000
00000000
00000000
00000000
00100000
00000000
00010000
00000000
00000100
00000000
00010000
00000000
00100000
00000000
00010000
,  // measure 47
00000000
00000100
00000000
00010000
00000000
00100000
00000000
00010000
00000000
00000100
00000000
00001000
00000000
00001000
00000000
00000000
,  // measure 48
00000000
00001000
00000000
00000000
00000000
00100000
00000000
00010000
00000000
00001000
00000000
00000100
00000000
00100000
00000000
00100000
,  // measure 49
00000000
00000000
00000000
00000000
00000000
00001000
00000000
00010000
00000000
00001000
00000000
00000000
00000000
00000000
00010000
00001000
,  // measure 50
00000100
00000010
00000000
00010000
00000000
00001000
00000000
00000000
00000000
00000000
00000000
00000000
00000000
00001000
00000000
00010000
,  // measure 51
00000000
00000010
00000000
00001000
00000000
00001000
00000000
00010000
00000000
00000010
00000000
00001000
00000000
00000010
00000000
00010000
,  // measure 52
00000000
00001000
00000000
00000000
00000000
00001000
00000000
00000000
00000000
00000000
00000000
00000000
00000000
00000000
00000000
00000000
,  // measure 53
00000000
00000000
00000000
00002002
00000000
00000000
00000000
00000000
00000000
00000000
00000000
00000000
00000000
00003003
00000000
00000000
;

//---------------dance-double - ----------------
#NOTES:
     dance-double:
     :
     Challenge:
     10:
     0.210,0.285,0.486,0.000,0.362,121.000,69.000,0.000,0.000,17.000:  // measure 1
00000000
00000000
00000000
00000000
00000000
00000000
00000000
00000000
00000000
00000000
00000000
00000000
00000000
00000000
00000000
01000000
,  // measure 2
00000000
00000000
00000000
01000000
00000000
00000000
00000000
00000000
00000000
00000000
00000000
00100000
00000000
10100000
00000000
00000000
,  // measure 3
00000000
01000000
00000000
00000000
00000000
00000000
00000000
00000000
00000000
00000000
00000000
00000000
00000000
00000000
00000000
00000000
,  // measure 4
00000000
00000000
00000000
00000000
00000000
01010000
00000000
01000000
00000000
11000000
00000000
00000000
00000000
00000000
00000000
00000000
,  // measure 5
00000000
00000000
01100000
00000000
00000000
00000000
00111000
00000000
00000000
00000000
01101000
00000000
00000000
00000000
00000000
00000000
00000000
00000000
00000000
00000000
00000000
00000000
00111000
00000000
00000000
00000000
00010000
01000000
00110000
01000000
00010000
01001000
,  // measure 6
01010000
01010000
00000000
01010000
00000000
01100000
00000000
00110000
00000000
01100000
00000000
00000000
00000000
00000000
00000000
00000000
,  // measure 7
00000000
00000000
00000000
00101000
01100000
00011000
00000000
00110000
01001000
00110000
00000000
00000000
00000000
00000000
00000000
00101000
,  // measure 8
00000000
00100000
00000000
01100000
00000000
00101000
00000000
00000000
00000000
00000000
00000000
01011000
00000000
00110000
00000000
01100000
,  // measure 9
00000000
00011000
00000000
00100100
00000000
00111000
00000000
00101100
00000000
00011000
00000000
00000000
00000000
00110000
00000000
00000000
,  // measure 10
00000000
00000000
00000000
00110000
00000000
00111100
00000000
00000000
00000000
00101100
00000000
00000000
00000000
00000000
00000000
00000000
,  // measure 11
00000000
00101000
00011000
00000000
00000000
00000000
00000000
00000000
00000000
00000000
00100000
00000000
00000000
00000000
00000000
00000000
00000000
00000000
00100000
00000000
00000000
00000000
00000000
00000000
00000000
00100000
00000000
00010000
00000000
00000000
00100100
00000000
,  // measure 12
00000000
00101100
00000000
00110100
00000000
00111000
00000000
00011100
00000000
00111100
00000000
00110000
00000000
00011000
00000000
00111000
,  // measure 13
00000000
00001010
00000000
00010100
00000000
00001010
00000000
00000000
00000000
00010010
00000000
00000000
00000000
00000000
00000000
00001010
,  // measure 14
00000000
00010100
00000000
00001010
00000000
00001100
00000000
00011000
00000000
00010010
00000000
00000000
00011100
00010010
00000000
00001010
,  // measure 15
00000000
00011000
00000000
00000000
00000000
00000000
00000000
00000000
00011000
00000110
00001010
00010110
00011100
00001010
00010010
00001100
,  // measure 16
00000000
00000000
00000000
00000000
00000000
00000000
00001000
00000000
00000000
00000000
00001000
00010000
00001000
00010000
00001000
00010000
00001000
00010000
00001000
00010000
00001000
00010000
00001000
00010000
00001000
00010000
00001000
00010000
00001000
00010000
00001000
00010000
,  // measure 17
00000100
00001000
00000100
00001000
00000100
00001000
00000100
00001000
00000100
00001000
00000100
00001000
00000100
00001000
00000000
00000000
00000000
00000000
00000000
00000000
00000000
00000000
00000000
00000000
00000000
00000000
00000000
00000000
00000000
00000000
00000000
00000000
,  // measure 18
00000000
00000000
00000000
00000000
,  // measure 19
00000000
00000000
00000000
00000000
00000000
00000000
00000000
00000000
00000000
00000000
00000000
00000000
00000000
00000001
00000000
00000000
00000000
00000000
00000000
00000000
00000000
00000000
00000000
00000000
00000000
00000000
00000000
00000000
00000000
00000000
00000000
00000000
;

//---------------dance-couple - ----------------
#NOTES:
     dance-couple:
     :
     Hard:
     8:
     0.359,0.409,0.436,0.049,0.939,288.000,62.000,7.000,0.000,0.000:  // measure 1
00000000
00000000
00000000
00000000
00000000
00000000
00000000
00000000
00000000
00000000
00000000
00000000
00000000
00000000
00000000
01000000
,  // measure 2
00000000
10000000
00000000
00010000
00000000
01000000
00000000
00000000
00000000
00000000
00000000
10000000
00000000
01000000
00000000
00000000
,  // measure 3
00000000
00100000
00000000
00000000
00000000
01000000
00000000
00000000
00000000
00100000
00000000
00000000
00000000
01000000
00000000
00000000
,  // measure 4
00000000
00000000
00000000
00000000
00000000
01000000
00000000
10000000
00000000
00010000
00000000
00000000
00000000
00000000
00000000
00100000
,  // measure 5
00000000
01000000
00000000
00100000
00000000
00010000
00000000
00000000
00000000
00000000
00000000
00011000
00000000
01002000
00000000
00000000
,  // measure 6
00003000
00100000
00000000
00001000
00000000
00100000
00000000
00001000
00000000
00100000
00000000
00000000
00000000
00000000
00000000
00000000
,  // measure 7
00000000
00000000
00000000
00100000
01000000
00100000
00000000
00010000
00001000
00010000
00000000
00000000
00000000
00000000
00000000
00101000
,  // measure 8
00000000
01000000
00000000
00001000
00000000
00100000
00000000
00000000
00000000
00000000
00000000
00001000
00000000
01100000
00000000
00001000
,  // measure 9
00000000
00110000
00000000
00000100
00000000
00110000
00000000
00000100
00000000
00010100
00000000
00000000
00000000
00010100
00000000
00000000
,  // measure 10
00000000
00000000
00000000
00011000
00000000
00011000
00000000
00000000
00000000
00110000
00000000
00000000
00000000
00000000
00000000
00010000
,  // measure 11
00000000
00010000
00000000
00000000
00000000
00010000
00000000
00000000
00000000
00010000
00000000
00000000
00001100
00100100
00000000
00000100
,  // measure 12
00000000
00010000
00000000
00100000
00000000
00010000
00000000
00000100
00000000
00010000
00000000
00100000
00000000
00010000
00000000
00000100
,  // measure 13
00000000
00001000
00000000
00010000
00000000
00010000
00000000
00000000
00000000
00010000
00000000
00000000
00000000
00000000
00000000
00001000
,  // measure 14
00000000
00010000
00000000
00001000
00000000
00000100
00000000
00001000
00000000
00000010
00000000
00000000
00001000
00000100
00000000
00000000
,  // measure 15
00000000
00000000
00000000
00000000
00000000
00000000
00000000
00000000
00010000
00000100
00010000
00000100
00001000
00000100
00000010
00000100
,  // measure 16
00000010
00000000
00000000
00000000
00000000
00002000
00000000
00000000
00000000
00010000
00000000
00000000
00000000
00000000
00000000
00000010
,  // measure 17
00000000
00000010
00000000
00010000
00000000
00013000
00000000
00000000
00000000
00000000
00000000
00001000
00000000
00010000
00000000
00000000
,  // measure 18
00000000
00001000
00000000
00000000
00000000
00000010
00000000
00000100
00000000
00000010
00000000
00001000
00000000
00001000
00000000
00010000
,  // measure 19
00001000
00000100
00000000
00000000
00000000
00011000
00000000
00000000
00000000
00001010
00000000
00000000
00000000
00000000
00000000
00000100
,  // measure 20
00000000
00000100
00000000
00001000
00000000
00001000
00000000
00000000
00000000
00000000
00000000
00001000
00000000
00010000
00000000
00000000
,  // measure 21
00000000
00000100
00000000
00000000
00000000
00001100
00000000
00000100
00000000
00000011
00000000
00000001
00000010
00000100
00000000
00000000
,  // measure 22
00000000
00000000
00000000
00000000
00000000
00000110
00000000
00000000
00000000
00000110
00000000
00000000
00000000
00000000
00000000
00000100
,  // measure 23
00000000
00001001
00000000
00000010
00000000
00001001
00000000
00000000
00000000
00000000
00000000
00000100
00000000
00001100
00000000
00000001
,  // measure 24
00000000
00000101
00000000
00000010
00000000
00001010
00000000
00000001
00000000
00001001
00000000
00000100
00000000
00000000
00000000
00000000
,  // measure 25
00000000
00000000
00000000
00000000
00000000
00010010
00000000
00000000
00000000
00010010
00000000
00000000
00000000
00000000
00000000
00011000
,  // measure 26
00000000
00000110
00000000
00000000
00000000
00001000
00000000
00000000
00000000
00010010
00000000
00000000
00010000
00001000
00000000
00001000
,  // measure 27
00000000
00010000
00000000
00001000
00000000
00000100
00000000
00000010
00000000
00001000
00000000
00000100
00000000
00010000
00000000
00000010
,  // measure 28
00000000
00000100
00000000
00001000
00000000
00001000
00000000
00000000
00000000
00010000
00000000
00000000
00000000
00000000
00000000
00001000
,  // measure 29
00000000
00200000
00000000
00000000
00000000
00300100
00000000
00000000
00000000
00000000
00000000
00010000
00000000
00100000
00000000
00010000
,  // measure 30
00000000
00100000
00000000
00010000
00000000
00001000
00000000
00010000
00000000
00100000
00000000
00010000
00000000
00001000
00000000
00010000
,  // measure 31
00000000
00100000
00000000
00000000
00000000
00011000
00000000
00000000
00000000
00110000
00000000
00000000
00000000
00000000
00000000
00110000
,  // measure 32
00000000
00110000
00000000
00000000
00000000
00010100
00000000
00000000
00000000
00000000
00000000
00000000
00000000
00110000
00000000
00000000
,  // measure 33
00000000
00101000
00000000
00000000
00000000
00000000
00000000
00110000
00000000
01100000
00000000
00110000
00000000
00101000
00000000
00000000
,  // measure 34
00000000
00000000
00000000
00000000
00000000
00110000
00000000
00000000
00000000
01001000
00000000
00000000
00000000
00000000
00000000
00100000
,  // measure 35
00000000
00100000
00000000
00010000
00000000
00010000
00000000
00001000
00000000
00001000
00000000
00000000
00000000
01000000
00000000
01000000
,  // measure 36
00000000
00100000
00000000
00100000
00000000
00010000
00000000
00010000
00000000
00001000
00010000
00100000
01000000
00100000
00010000
00001000
,  // measure 37
00100000
01000000
10000000
01000000
00100000
10010000
00000000
00000000
00000000
01000000
00000000
00000000
00000000
00000000
00000000
01100000
,  // measure 38
00000000
00110000
00000000
00000000
00000000
01100000
00000000
00000000
00000000
00000000
00000000
00000000
00000000
11000000
00000000
00000000
,  // measure 39
00000000
01010000
00000000
00000000
00000000
00000000
00000000
11000000
00000000
01010000
00000000
11000000
00000000
01010000
00000000
00000000
,  // measure 40
00000000
00000000
00000000
00000000
00000000
01000000
00000000
00000000
00000000
00100000
00000000
00000000
00000000
00000000
00000000
00110000
,  // measure 41
00000000
01001000
00000000
01100000
00000000
00110000
00000000
01001000
00000000
00011000
00000000
00000000
00110000
00110000
00000000
01000000
,  // measure 42
00000000
00200000
00000000
00010000
00300000
00002000
00000000
00010000
00003000
00100000
00000000
00000000
00000000
00000000
00000000
00000000
,  // measure 43
00000000
00000000
00000000
00000000
00000000
01000000
00000000
00100000
00000000
00010000
00000000
00100000
00000000
00000000
00000000
01000000
,  // measure 44
00000000
00100000
00000000
00010000
00000000
00001000
00000000
01000000
00000000
00001000
00000000
01000000
00000000
00010000
00000000
00000000
,  // measure 45
00000000
00001000
00000000
00000000
00000000
00001000
00000000
00000000
00000000
00001000
00000000
00000000
00000000
00000000
00000000
00100000
,  // measure 46
00000000
00010000
00000000
00000000
00000000
00100000
00000000
00010000
00000000
00000100
00000000
00010000
00000000
00100000
00000000
00010000
,  // measure 47
00000000
00000100
00000000
00010000
00000000
00100000
00000000
00010000
00000000
00000100
00000000
00001000
00000000
00001000
00000000
00000000
,  // measure 48
00000000
00001000
00000000
00000000
00000000
00100000
00000000
00010000
00000000
00001000
00000000
00000100
00000000
00100000
00000000
00100000
,  // measure 49
00000000
00000000
00000000
00000000
00000000
00001000
00000000
00010000
00000000
00001000
00000000
00000000
00000000
00000000
00010000
00001000
,  // measure 50
00000100
00000010
00000000
00010000
00000000
00001000
00000000
00000000
00000000
00000000
00000000
00000000
00000000
00001000
00000000
00010000
,  // measure 51
00000000
00000010
00000000
00001000
00000000
00001000
00000000
00010000
00000000
00000010
00000000
00001000
00000000
00000010
00000000
00010000
,  // measure 52
00000000
00001000
00000000
00000000
00000000
00001000
00000000
00000000
00000000
00000000
00000000
00000000
00000000
00000000
00000000
00000000
,  // measure 53
00000000
00000000
00000000
00002002
00000000
00000000
00000000
00000000
00000000
00000000
00000000
00000000
00000000
00003003
00000000
00000000
;

//---------------dance-couple - ----------------
#NOTES:
     dance-couple:
     :
     Challenge:
     10:
     0.210,0.285,0.486,0.000,0.362,121.000,69.000,0.000,0.000,17.000:  // measure 1
00000000
00000000
00000000
00000000
00000000
00000000
00000000
00000000
00000000
00000000
00000000
00000000
00000000
00000000
00000000
01000000
,  // measure 2
00000000
00000000
00000000
01000000
00000000
00000000
00000000
00000000
00000000
00000000
00000000
00100000
00000000
10100000
00000000
00000000
,  // measure 3
00000000
01000000
00000000
00000000
00000000
00000000
00000000
00000000
00000000
00000000
00000000
00000000
00000000
00000000
00000000
00000000
,  // measure 4
00000000
00000000
00000000
00000000
00000000
01010000
00000000
01000000
00000000
11000000
00000000
00000000
00000000
00000000
00000000
00000000
,  // measure 5
00000000
00000000
01100000
00000000
00000000
00000000
00111000
00000000
00000000
00000000
01101000
00000000
00000000
00000000
00000000
00000000
00000000
00000000
00000000
00000000
00000000
00000000
00111000
00000000
00000000
00000000
00010000
01000000
00110000
01000000
00010000
01001000
,  // measure 6
01010000
01010000
00000000
01010000
00000000
01100000
00000000
00110000
00000000
01100000
00000000
00000000
00000000
00000000
00000000
00000000
,  // measure 7
00000000
00000000
00000000
00101000
01100000
00011000
00000000
00110000
01001000
00110000
00000000
00000000
00000000
00000000
00000000
00101000
,  // measure 8
00000000
00100000
00000000
01100000
00000000
00101000
00000000
00000000
00000000
00000000
00000000
01011000
00000000
00110000
00000000
01100000
,  // measure 9
00000000
00011000
00000000
00100100
00000000
00111000
00000000
00101100
00000000
00011000
00000000
00000000
00000000
00110000
00000000
00000000
,  // measure 10
00000000
00000000
00000000
00110000
00000000
00111100
00000000
00000000
00000000
00101100
00000000
00000000
00000000
00000000
00000000
00000000
,  // measure 11
00000000
00101000
00011000
00000000
00000000
00000000
00000000
00000000
00000000
00000000
00100000
00000000
00000000
00000000
00000000
00000000
00000000
00000000
00100000
00000000
00000000
00000000
00000000
00000000
00000000
00100000
00000000
00010000
00000000
00000000
00100100
00000000
,  // measure 12
00000000
00101100
00000000
00110100
00000000
00111000
00000000
00011100
00000000
00111100
00000000
00110000
00000000
00011000
00000000
00111000
,  // measure 13
00000000
00001010
00000000
00010100
00000000
00001010
00000000
00000000
00000000
00010010
00000000
00000000
00000000
00000000
00000000
00001010
,  // measure 14
00000000
00010100
00000000
00001010
00000000
00001100
00000000
00011000
00000000
00010010
00000000
00000000
00011100
00010010
00000000
00001010
,  // measure 15
00000000
00011000
00000000
00000000
00000000
00000000
00000000
00000000
00011000
00000110
00001010
00010110
00011100
00001010
00010010
00001100
,  // measure 16
00000000
00000000
00000000
00000000
00000000
00000000
00001000
00000000
00000000
00000000
00001000
00010000
00001000
00010000
00001000
00010000
00001000
00010000
00001000
00010000
00001000
00010000
00001000
00010000
00001000
00010000
00001000
00010000
00001000
00010000
00001000
00010000
,  // measure 17
00000100
00001000
00000100
00001000
00000100
00001000
00000100
00001000
00000100
00001000
00000100
00001000
00000100
00001000
00000000
00000000
00000000
00000000
00000000
00000000
00000000
00000000
00000000
00000000
00000000
00000000
00000000
00000000
00000000
00000000
00000000
00000000
,  // measure 18
00000000
00000000
00000000
00000000
,  // measure 19
00000000
00000000
00000000
00000000
00000000
00000000
00000000
00000000
00000000
00000000
00000000
00000000
00000000
00000001
00000000
00000000
00000000
00000000
00000000
00000000
00000000
00000000
00000000
00000000
00000000
00000000
00000000
00000000
00000000
00000000
00000000
00000000
;

//---------------dance-solo - ----------------
#NOTES:
     dance-solo:
     :
     Hard:
     8:
     0.359,0.409,0.436,0.049,0.939,288.000,62.000,7.000,0.000,0.000:  // measure 1
000000
000000
000000
000000
000000
000000
000000
000000
000000
000000
000000
000000
000000
000000
000000
010000
,  // measure 2
000000
100000
000000
000100
000000
010000
000000
000000
000000
000000
000000
100000
000000
010000
000000
000000
,  // measure 3
000000
001000
000000
000000
000000
010000
000000
000000
000000
001000
000000
000000
000000
010000
000000
000000
,  // measure 4
000000
000000
000000
000000
000000
010000
000000
100000
000000
000100
000000
000000
000000
000000
000000
001000
,  // measure 5
000000
010000
000000
001000
000000
000100
000000
000000
000000
000000
000000
000110
000000
010020
000000
000000
,  // measure 6
000030
001000
000000
000010
000000
001000
000000
000010
000000
001000
000000
000000
000000
000000
000000
000000
,  // measure 7
000000
000000
000000
001000
010000
001000
000000
000100
000010
000100
000000
000000
000000
000000
000000
001010
,  // measure 8
000000
010000
000000
000010
000000
001000
000000
000000
000000
000000
000000
000010
000000
011000
000000
000010
,  // measure 9
000000
001100
000000
000001
000000
001100
000000
000001
000000
000101
000000
000000
000000
000101
000000
000000
,  // measure 10
000000
000000
000000
000110
000000
000110
000000
000000
000000
001100
000000
000000
000000
000000
000000
000100
,  // measure 11
000000
000100
000000
000000
000000
000100
000000
000000
000000
000100
000000
000000
000011
001001
000000
000001
,  // measure 12
000000
000100
000000
001000
000000
000100
000000
000001
000000
000100
000000
001000
000000
000100
000000
000001
,  // measure 13
000000
001000
000000
010000
000000
010000
000000
000000
000000
010000
000000
000000
000000
000000
000000
001000
,  // measure 14
000000
010000
000000
001000
000000
000100
000000
001000
000000
000010
000000
000000
001000
000100
000000
000000
,  // measure 15
000000
000000
000000
000000
000000
000000
000000
000000
010000
000100
010000
000100
001000
000100
000010
000100
,  // measure 16
000010
000000
000000
000000
000000
002000
000000
000000
000000
010000
000000
000000
000000
000000
000000
000010
,  // measure 17
000000
000010
000000
010000
000000
013000
000000
000000
000000
000000
000000
001000
000000
010000
000000
000000
,  // measure 18
000000
001000
000000
000000
000000
000010
000000
000100
000000
000010
000000
001000
000000
001000
000000
010000
,  // measure 19
001000
000100
000000
000000
000000
011000
000000
000000
000000
001010
000000
000000
000000
000000
000000
000100
,  // measure 20
000000
000100
000000
001000
000000
001000
000000
000000
000000
000000
000000
001000
000000
010000
000000
000000
,  // measure 21
000000
010000
000000
000000
000000
110000
000000
010000
000000
001100
000000
000100
001000
010000
000000
000000
,  // measure 22
000000
000000
000000
000000
000000
011000
000000
000000
000000
011000
000000
000000
000000
000000
000000
010000
,  // measure 23
000000
100100
000000
001000
000000
100100
000000
000000
000000
000000
000000
010000
000000
110000
000000
000100
,  // measure 24
000000
010100
000000
001000
000000
101000
000000
000100
000000
100100
000000
010000
000000
000000
000000
000000
,  // measure 25
000000
000000
000000
000000
000000
010010
000000
000000
000000
010010
000000
000000
000000
000000
000000
011000
,  // measure 26
000000
000110
000000
000000
000000
001000
000000
000000
000000
010010
000000
000000
010000
001000
000000
001000
,  // measure 27
000000
010000
000000
001000
000000
000100
000000
000010
000000
001000
000000
000100
000000
010000
000000
000010
,  // measure 28
000000
000100
000000
001000
000000
001000
000000
000000
000000
010000
000000
000000
000000
000000
000000
001000
,  // measure 29
000000
002000
000000
000000
000000
003001
000000
000000
000000
000000
000000
000100
000000
001000
000000
000100
,  // measure 30
000000
001000
000000
000100
000000
000010
000000
000100
000000
001000
000000
000100
000000
000010
000000
000100
,  // measure 31
000000
001000
000000
000000
000000
000110
000000
000000
000000
001100
000000
000000
000000
000000
000000
001100
,  // measure 32
000000
001100
000000
000000
000000
000101
000000
000000
000000
000000
000000
000000
000000
001100
000000
000000
,  // measure 33
000000
001010
000000
000000
000000
000000
000000
001100
000000
011000
000000
001100
000000
001010
000000
000000
,  // measure 34
000000
000000
000000
000000
000000
001100
000000
000000
000000
010010
000000
000000
000000
000000
000000
001000
,  // measure 35
000000
001000
000000
000100
000000
000100
000000
000010
000000
000010
000000
000000
000000
010000
000000
010000
,  // measure 36
000000
001000
000000
001000
000000
000100
000000
000100
000000
000010
000100
001000
010000
001000
000100
000010
,  // measure 37
001000
010000
100000
010000
001000
100100
000000
000000
000000
010000
000000
000000
000000
000000
000000
011000
,  // measure 38
000000
001100
000000
000000
000000
011000
000000
000000
000000
000000
000000
000000
000000
110000
000000
000000
,  // measure 39
000000
010100
000000
000000
000000
000000
000000
110000
000000
010100
000000
110000
000000
010100
000000
000000
,  // measure 40
000000
000000
000000
000000
000000
010000
000000
000000
000000
001000
000000
000000
000000
000000
000000
001100
,  // measure 41
000000
010010
000000
011000
000000
001100
000000
010010
000000
000110
000000
000000
001100
001100
000000
010000
,  // measure 42
000000
002000
000000
000100
003000
000020
000000
000100
000030
001000
000000
000000
000000
000000
000000
000000
,  // measure 43
000000
000000
000000
000000
000000
010000
000000
001000
000000
000100
000000
001000
000000
000000
000000
010000
,  // measure 44
000000
001000
000000
000100
000000
000010
000000
010000
000000
000010
000000
010000
000000
000100
000000
000000
,  // measure 45
000000
000010
000000
000000
000000
000010
000000
000000
000000
000010
000000
000000
000000
000000
000000
001000
,  // measure 46
000000
000100
000000
000000
000000
001000
000000
000100
000000
000001
000000
000100
000000
001000
000000
000100
,  // measure 47
000000
000001
000000
000100
000000
001000
000000
000100
000000
000001
000000
000010
000000
000010
000000
000000
,  // measure 48
000000
000010
000000
000000
000000
001000
000000
000100
000000
000010
000000
000001
000000
001000
000000
001000
,  // measure 49
000000
000000
000000
000000
000000
001000
000000
010000
000000
001000
000000
000000
000000
000000
010000
001000
,  // measure 50
000100
000010
000000
010000
000000
001000
000000
000000
000000
000000
000000
000000
000000
001000
000000
010000
,  // measure 51
000000
000010
000000
001000
000000
001000
000000
010000
000000
000010
000000
001000
000000
000010
000000
010000
,  // measure 52
000000
001000
000000
000000
000000
001000
000000
000000
000000
000000
000000
000000
000000
000000
000000
000000
,  // measure 53
000000
000000
000000
200200
000000
000000
000000
000000
000000
000000
000000
000000
000000
300300
000000
000000
;

//---------------dance-solo - ----------------
#NOTES:
     dance-solo:
     :
     Challenge:
     10:
     0.157,0.246,0.366,0.000,0.310,104.000,52.000,0.000,0.000,0.000:  // measure 1
000000
000000
000000
000000
000000
000000
000000
000000
000000
000000
000000
000000
000000
000000
000000
010000
,  // measure 2
000000
000000
000000
010000
000000
000000
000000
000000
000000
000000
000000
001000
000000
101000
000000
000000
,  // measure 3
000000
010000
000000
000000
000000
000000
000000
000000
000000
000000
000000
000000
000000
000000
000000
000000
,  // measure 4
000000
000000
000000
000000
000000
010100
000000
010000
000000
110000
000000
000000
000000
000000
000000
000000
,  // measure 5
000000
000000
011000
000000
000000
000000
000000
000000
000000
000000
000000
000000
000000
000000
000000
000000
000000
000000
000000
000000
000000
000000
000000
000000
000000
000000
000100
010000
001100
010000
000100
010010
,  // measure 6
010100
010100
000000
010100
000000
011000
000000
001100
000000
011000
000000
000000
000000
000000
000000
000000
,  // measure 7
000000
000000
000000
001010
011000
000110
000000
001100
010010
001100
000000
000000
000000
000000
000000
001010
,  // measure 8
000000
001000
000000
011000
000000
001010
000000
000000
000000
000000
000000
000000
000000
001100
000000
011000
,  // measure 9
000000
000110
000000
001001
000000
000000
000000
000000
000000
000110
000000
000000
000000
001100
000000
000000
,  // measure 10
000000
000000
000000
001100
000000
000000
000000
000000
000000
000000
000000
000000
000000
000000
000000
000000
,  // measure 11
000000
001010
000110
000000
000000
000000
000000
000000
000000
000000
001000
000000
000000
000000
000000
000000
000000
000000
001000
000000
000000
000000
000000
000000
000000
001000
000000
000100
000000
000000
001001
000000
,  // measure 12
000000
000000
000000
000000
000000
000000
000000
000000
000000
000000
000000
001100
000000
000110
000000
000000
,  // measure 13
000000
001010
000000
010100
000000
001010
000000
000000
000000
010010
000000
000000
000000
000000
000000
001010
,  // measure 14
000000
010100
000000
001010
000000
001100
000000
011000
000000
010010
000000
000000
000000
010010
000000
001010
,  // measure 15
000000
011000
000000
000000
000000
000000
000000
000000
011000
000110
001010
000000
000000
001010
010010
001100
,  // measure 16
000000
000000
000000
000000
000000
000000
001000
000000
000000
000000
001000
010000
001000
010000
001000
010000
001000
010000
001000
010000
001000
010000
001000
010000
001000
010000
001000
010000
001000
010000
001000
010000
,  // measure 17
010000
100000
010000
100000
010000
100000
010000
100000
010000
100000
010000
100000
010000
100000
000000
000000
000000
000000
000000
000000
000000
000000
000000
000000
000000
000000
000000
000000
000000
000000
000000
000000
,  // measure 18
000000
000000
000000
000000
,  // measure 19
000000
000000
000000
000000
000000
000000
000000
000000
000000
000000
000000
000000
000000
000100
000000
000000
000000
000000
000000
000000
000000
000000
000000
000000
000000
000000
000000
000000
000000
000000
000000
000000
;
