#TITLE:Hacking to the gate;
#SUBTITLE:Gate OP;
#ARTIST:Kanako Ito;
#TITLETRANSLIT:;
#SUBTITLETRANSLIT:;
#ARTISTTRANSLIT:;
#CREDIT:;
#BANNER:BN.jpg;
#BACKGROUND:BG.jpg;
#LYRICSPATH:;
#CDTITLE:bombastik.png;
#MUSIC:Hacking to the gate.mp3;
#OFFSET:0.260;
#SAMPLESTART:27.360;
#SAMPLELENGTH:12.000;
#SELECTABLE:YES;
#BPMS:0.000=161.000,40.000=80.500,52.000=161.000,60.000=80.500,72.000=161.000,145.000=322.000,147.000=161.000,253.500=322.000,255.500=161.000,256.500=80.500,268.500=161.000,272.500=322.000,275.500=161.000,278.000=80.500,290.000=161.000,292.000=322.000,295.000=161.000,365.500=322.000,367.500=161.000;
#STOPS:78.500=0.200
,108.500=0.200
,197.500=0.200
;
#BGCHANGES:;
// cache tags:
#FIRSTBEAT:8.000;
#LASTBEAT:441.500;
#SONGFILENAME:Songs/FUCK ANIME PACK/Gate OP/Hacking to the gate.sm;
#HASMUSIC:1;
#HASBANNER:1;
#MUSICLENGTH:256.109;
// end cache tags

//---------------dance-single - ----------------
#NOTES:
     dance-single:
     :
     Challenge:
     9:
     0.956,1.000,1.000,0.629,0.552,1004.000,461.000,161.000,0.000,107.000:

0000
0000
0000
0000
,
0000
0000
0000
0000
,
0110
0000
0000
0000
,
1100
0000
0000
0000
,
0011
0000
0000
0000
,
1001
0000
0000
0000
0000
0000
0000
0000
0000
0000
0000
0000
0001
0000
0010
0010
,
1100
0000
0000
0000
1010
0000
0000
0000
0011
0000
0000
0000
0110
0000
1000
1000
,
0011
1100
1001
1100
,
1001
0100
0010
1000
0100
0001
0010
1000
,
0011
0000
0100
0000
0010
0000
1000
0000
0001
0000
0100
0000
0010
0000
0100
0100
,
1010
0000
0001
0000
1010
0000
0100
0000
1001
0000
0010
0000
1000
0000
0010
0000
1100
0000
0001
0000
2200
0000
0000
0000
3310
0100
0010
0100
1001
0000
0001
0000
,
0210
0000
0301
0000
0101
0000
1000
0000
0110
0000
0100
0000
0011
0000
1000
0000
0202
0000
0000
0000
0313
1000
0010
1000
0202
0000
0303
0000
2002
0000
3003
0000
,
0011
0100
1100
0100
0202
0303
1001
0100
2020
3130
0011
1000
0110
0001
1000
0010
,
1101
0000
1101
0000
1011
0000
0111
0000
0000
0000
1100
0010
1100
0001
1100
0000
,
0010
0001
0010
0000
0001
0000
1110
0000
0000
0001
1110
0001
1110
0001
0010
0100
,
1001
0000
0010
0000
1010
0000
0100
0000
0110
0000
0001
0000
1001
0000
0100
0000
1100
0000
0010
0000
0101
1000
0010
0100
1001
0000
0000
0000
1100
0000
1000
0000
,
0101
0000
0010
0000
1100
0000
0001
1000
0001
1000
0001
0000
0110
0000
1000
0000
0202
0000
0303
0000
0101
0000
1000
0010
2200
0000
3300
0000
2002
0000
3103
0000
,
0110
1000
0101
0010
1010
0000
0110
1000
0011
0100
0110
0010
2020
0000
3131
0100
,
1011
0000
0100
0000
0011
0000
0000
0010
1100
0001
1010
0001
2200
3300
2022
0000
,
0000
3033
1011
0000
1011
0000
0000
0000
1110
0000
0001
0000
1110
0000
0000
0000
,
0000
1000
0101
0010
1100
0000
2200
3300
,
2002
3003
0220
0330
0022
0000
1000
0033
0000
0000
1100
0000
0001
0000
1110
0000
,
0000
0000
0100
0010
1000
0010
1100
0000
0110
0000
1001
0000
0012
0000
1000
0000
,
0100
0000
1000
0003
0010
0000
1000
0000
0202
0303
0202
0303
0202
0303
0000
0000
,
1100
0000
1100
0000
0011
1000
0100
0000
0011
0100
0001
1000
0220
0000
0330
0000
,
1001
0000
2002
3003
0010
1000
0001
0100
0010
1000
0011
0000
0011
0000
0022
0033
,
0100
0000
0001
0000
1100
0001
1100
0001
0110
1000
0011
1000
0011
0000
1110
0000
,
1110
0000
1110
0000
0111
0000
1000
0000
0000
0000
0010
0100
0010
0001
0010
0100
,
1000
0100
0010
0100
1000
0010
0100
1000
0100
0010
1001
0000
0110
0000
1100
0000
,
0011
2200
3301
0000
0110
0000
1001
1000
,
1010
0010
0110
0100
0101
0001
1001
1001
,
2002
0000
3003
0000
1100
0001
1100
0001
1100
0000
2200
3300
0000
0000
0001
0000
,
0110
1000
1001
0001
0101
0220
0330
1000
,
0110
0001
2200
3300
1101
1101
0000
0010
,
0010
1101
0000
0000
0010
1101
0000
0010
,
0010
0000
1101
0000
0000
0000
0110
0000
1100
0001
0010
0001
1100
0000
0000
0000
,
1000
0000
0001
0000
0100
0010
0100
0010
0100
0010
0100
0010
2002
0000
0000
3003
,
1110
1110
0001
0222
0333
1000
0110
2002
,
3013
0000
1100
0000
0010
0000
1100
0000
0010
0000
1001
0010
0100
0010
2002
3003
,
0000
0000
0110
0001
1000
0001
0220
0000
0330
0000
0001
0000
0110
0001
0100
0010
,
1100
0001
1000
0010
0101
0010
1000
0100
0011
0000
0011
0000
0011
0000
0010
0100
,
1011
0000
1011
0000
0100
0000
1011
0000
0000
0000
1100
0010
1000
0001
1110
0000
,
0000
0000
0011
0000
1010
0000
1100
0000
1001
0000
0010
0100
0010
0100
2002
0000
,
3003
0000
0100
0010
0100
0010
1001
0000
0100
0000
0011
0000
0100
0000
2020
0000
,
0000
3030
0000
0000
0001
0000
0001
0000
0110
0000
1001
0000
0220
0330
0001
0100
,
1011
0000
1011
0000
0100
0010
2202
0000
3303
0000
0100
0000
0010
0000
1101
0010
,
0100
1000
0010
0100
1000
0100
0010
0100
0010
0100
1001
0000
1001
0000
2002
0000
,
3003
0100
0010
0100
1001
0000
2002
0000
3003
0000
1000
0100
0010
0100
2002
3003
,
0000
0000
0110
0000
0100
0000
0011
0000
0100
0000
1100
0000
1100
0001
0010
0001
,
1110
0000
1110
0000
0001
0000
1110
0000
0011
0000
1000
0000
0011
1000
0100
0001
,
0010
1000
0001
0100
0010
0100
0010
1000
0011
0000
0011
0000
0022
0000
0033
0000
,
1100
0000
1100
0000
2200
3300
0000
0000
1001
0000
0000
0000
0011
0000
0110
0000
,
1100
0000
0012
0000
0100
0000
1000
0000
0100
0000
0010
0000
1000
0003
0111
0000
,
0111
0000
0000
0000
1110
0000
0000
0000
1011
0000
0000
0000
0010
0001
1100
0001
,
1000
0010
1100
0001
0100
1000
0011
0100
0001
1000
0101
0010
0100
0001
1010
0100
,
0001
0010
0101
1000
0001
0100
1010
0001
0100
0010
1001
0100
1000
0001
1100
0010
,
0100
0001
0110
1000
0001
0100
0011
1000
0010
0100
1001
0100
0001
0010
0101
0010
,
1000
0001
1010
0100
0001
0100
1001
0010
1000
0100
0011
1000
0011
1000
0011
0100
,
0001
0100
1010
0001
1000
0010
1100
0001
0100
0010
1001
0100
0001
0010
0101
1000
,
0010
0100
1010
0001
1000
0100
1001
0010
0100
0010
1100
0001
0100
0010
0101
1000
,
0010
0100
0011
0100
0010
1000
0101
0010
1000
0001
1100
0010
0001
0100
1010
0001
,
0100
0010
1100
0010
0100
0001
0110
1000
0001
0010
0101
0010
1000
0100
2002
3013
,
1000
0100
0011
0100
0001
1000
0110
0001
0100
0010
1100
0001
0010
0100
2002
3003
,
0010
0100
1010
0000
0001
1000
0010
0100
0010
0100
0010
0100
0000
0000
1001
0000
,
1001
0000
0000
0000
1011
0000
0100
0000
0001
0000
0010
0000
1100
0000
0010
0000
0100
0000
0002
0000
0110
0000
1100
0000
0223
0000
0331
1000
0220
0000
0330
0000
,
1001
0000
0100
0000
1010
0000
0100
0000
0011
0000
1000
0000
0101
0000
0010
0000
1100
0000
0001
0000
1100
0000
0000
0000
0001
0000
0100
0001
1100
0000
0010
0100
,
1001
0000
0100
0010
1001
0000
1000
0000
1010
0000
0010
0000
0220
0000
0330
0000
1001
0000
0010
0000
0101
0000
0000
0000
1100
0000
0010
0000
1100
0000
0001
0000
,
0110
1000
0111
0000
0111
0000
1000
0000
0111
0000
0000
0000
1110
0000
0100
0000
,
1011
0100
0010
0100
0010
0000
0000
1110
,
0000
1000
0011
1000
0100
0001
1000
0010
1001
0100
0110
0010
0011
1000
0110
2000
,
0011
0000
3100
0000
2002
0000
3103
0010
1001
0000
0000
0000
1001
0000
0100
0000
1001
0000
0010
0000
1100
0000
1000
0000
0101
0000
0010
0000
1100
0000
0002
0000
,
0110
0000
0000
0000
0113
0000
1000
0001
0110
0000
0100
0010
1100
0000
0011
0000
0110
0000
1000
0000
0101
0000
0010
0000
1100
0000
0000
0000
1010
0000
0100
0000
,
1001
0000
1100
0001
1100
0010
1100
0001
1110
0000
1110
0000
0001
0000
0110
0000
,
1000
0001
1000
0001
1000
0001
1110
0000
,
1110
1110
0000
0111
1000
0000
0011
0000
,
0000
0000
1000
0000
0000
0000
0100
0001
1000
0000
0000
0000
0110
0000
0000
0000
,
1001
0000
1001
0000
0220
0000
1001
0330
0000
0000
1001
0000
0100
0000
1010
0000
,
0000
0000
0001
0000
0110
0000
0001
0000
2200
3300
2200
3300
2200
0000
0000
3300
,
0011
1000
0011
0000
0000
0000
0110
0000
0110
0000
0110
0000
2002
0000
3003
0000
,
1100
0000
0010
0000
0011
0000
0100
0000
1001
0000
1001
0000
2002
3003
0000
0000
,
0110
0000
1000
0000
0110
0000
0001
0000
1000
0000
0110
0000
0110
0000
0220
0330
,
0000
0000
0110
0000
1000
0000
0010
0000
0011
0000
0100
0000
2020
3030
0111
0000
,
0111
0000
0222
0333
0000
0000
0001
1000
0001
0000
0000
0000
1110
0001
0100
0010
,
1001
0100
1001
1100
1100
0000
0011
0000
,
1100
0110
0012
1100
0003
1100
0000
0010
,
1100
0010
1001
0100
0011
0100
1001
1001
,
1001
0000
2002
3003
0000
0000
0010
0100
0010
0100
1001
0010
2002
3003
0000
0000
,
1001
0100
1010
0000
0011
0011
0022
0033
,
1100
1100
2200
3300
0001
1110
1110
0000
,
0100
0100
1011
0000
0000
0010
1101
0000
,
0010
0000
0010
0000
1101
0000
0000
0000
0100
0000
0010
0000
0001
1000
0110
0000
,
0000
0000
1000
0000
0001
0000
0100
0010
0100
0010
0100
0010
0100
0000
1001
0010
,
1001
0010
1101
0000
1101
0000
0010
0000
1101
0000
0000
0000
1100
0000
0110
0000
,
0022
0030
0100
0000
1000
0000
0010
0000
1003
0000
0001
0000
0110
0000
0110
0000
,
0220
0330
0000
0000
1001
0000
0100
0000
1001
0000
0000
0000
1001
0000
0100
0000
,
0110
0001
1100
0010
0101
1100
1100
1100
,
0001
1000
0111
0000
0111
0000
0100
0000
0011
0000
0000
0000
0110
0000
1100
0000
,
0222
0333
1000
0000
0110
0000
0010
0000
1001
0000
0100
0000
0011
0000
0011
0000
,
2022
3033
0000
0000
0010
0000
0100
0000
1001
0000
0000
0000
1001
0000
0000
0000
,
2000
0000
0000
3000
0000
0000
0011
0000
0011
0000
0110
0000
1100
0000
2002
3003
,
0100
0010
1101
0000
1101
0000
0010
0000
1101
0000
0000
0000
0110
0000
0010
0000
,
1101
0010
0100
1000
0100
0010
0001
0010
1000
0000
0010
0000
1001
0000
1001
0000
,
2002
0000
3003
0000
0110
0000
0010
0000
0220
0330
0000
0000
0110
0000
0000
0001
,
2200
3300
0000
0000
0011
0000
0100
0000
1100
0010
0001
0010
1100
0001
1100
0001
,
1100
0001
1110
0000
1110
0000
0001
0000
1110
0000
0000
0000
0011
0000
0001
0000
,
2110
0000
0010
0000
0011
0000
0001
3000
0110
0000
0000
0000
0111
0000
0111
0000
,
0222
0000
0333
0000
0110
0000
0001
0000
0220
0330
0000
0000
1001
0000
0010
0100
,
2002
0000
3003
0000
0110
0000
0001
0000
1100
0000
0110
0000
0011
0000
0110
0001
,
0110
0001
1110
0000
1110
0000
0000
0000
0111
0000
0000
0000
1101
0000
0000
0000
,
1101
0000
2202
0000
0000
0000
0000
0000
0000
0000
0003
0000
0000
0000
0000
0300
,
0000
0000
0000
3000
0000
0000
0000
0000
;
