#TITLE:Bergentrückung + ASGORE;
#SUBTITLE:Undertale OST\;
#ARTIST:Toby Fox;
#TITLETRANSLIT:;
#SUBTITLETRANSLIT:;
#ARTISTTRANSLIT:;
#CREDIT:owenviau1;
#BANNER:BN.png;
#BACKGROUND:BG.png;
#LYRICSPATH:;
#CDTITLE:../CDTitleOV1.png;
#MUSIC:Undertale OST- Bergentruckung-ASGORE.ogg;
#OFFSET:-0.247;
#SAMPLESTART:29.572;
#SAMPLELENGTH:29.999;
#SELECTABLE:YES;
#BPMS:0.000=113.000,32.000=229.712,453.000=114.856,485.000=229.712;
#STOPS:32.000=3.758
;
#BGCHANGES:;
// cache tags:
#FIRSTBEAT:0.000;
#LASTBEAT:590.000;
#SONGFILENAME:Songs/owenviau1 Simfiles 07_final/Bergentruckung + ASGORE - [owenviau1] v1.1.4/Bergentruckung - ASGORE.sm;
#HASMUSIC:1;
#HASBANNER:1;
#MUSICLENGTH:180.384;
// end cache tags

//---------------dance-single - 18.07 (18) (owenviau----------------
#NOTES:
     dance-single:
     18.07 (18) (owenviau:
     Challenge:
     18:
     1.000,1.000,0.177,0.299,1.000,1896.000,32.000,54.000,0.000,1.000:
1010
0000
0010
0000
0110
0000
0100
0000
0102
0000
0000
0000
0000
0000
0000
0003
,
1100
0000
0100
0000
0110
0000
0010
0000
0012
0000
0000
0000
0000
0000
0000
0003
,
1010
0000
1000
0000
1001
0000
0001
0000
0201
0000
0010
0000
0001
0000
0010
0300
,
1001
0000
0000
0001
0000
0000
0011
0000
0000
0010
0000
0000
0210
0000
0000
0000
0000
0000
0000
0000
0000
0000
0300
0000
,
0011
0000
0001
0000
1001
0000
1000
0000
1020
0000
0000
0000
0000
0000
0000
0030
,
1001
0000
0001
0000
0101
0000
0100
0000
0120
0000
0000
0000
0200
0000
0000
0030
,
1301
0001
0101
0100
0120
0000
0100
0130
,
0101
0000
0001
0010
0100
0000
1000
0000
1010
0000
0000
0000
1000
0000
0000
0000
1002
0000
0000
0000
0000
0000
0000
0000
0000
0000
0000
0000
0000
0000
0000
0000
,
0003
1010
0010
0110
,
0100
0000
0000
0000
0001
0010
0100
1000
0010
0100
0001
0100
0010
1000
0100
0010
,
0001
0100
0010
1000
0001
0010
0100
1000
0010
0100
0010
1000
0001
0100
0001
0010
,
0100
1000
0010
0100
0001
1000
0100
1000
0010
0100
0001
0100
0010
1000
0100
0010
,
0001
0100
0010
1000
0001
0100
0001
0010
0100
1000
0010
0100
0001
1000
0100
1000
,
0010
0100
0010
1000
0001
0100
0001
0010
0100
1000
0010
0100
0001
1000
0100
0010
,
0001
1000
0010
1000
0100
0010
0001
0100
0010
1000
0001
0010
0100
1000
0010
0100
,
0010
1000
0001
0100
0010
0100
0001
1000
0100
0010
0001
0100
0010
1000
0010
0100
,
0001
1000
0100
0010
0001
0000
1000
0000
0010
0000
0000
0000
0110
0000
0100
0000
,
0001
0000
0000
0000
1000
0100
0010
0001
0100
0010
0100
0001
1000
0010
0100
0001
,
1000
0100
0010
0001
0100
0010
1000
0001
0010
0100
1000
0010
0100
0001
0100
0010
,
1000
0001
1000
0100
0010
0001
0100
0010
1000
0001
0010
0100
1000
0010
0100
0001
,
0100
0010
1000
0001
1000
0100
0010
0001
0100
0010
1000
0001
0010
0001
0100
0010
,
0100
0001
1000
0010
0100
0010
1000
0001
0100
0001
0010
0100
1000
0010
0100
0001
,
1000
0100
0010
0001
0100
0010
1000
0010
0100
0001
0010
0001
1000
0010
0100
0001
,
1000
0100
0010
0001
0100
0010
1000
0001
0010
0100
1000
0010
0100
0000
0001
0000
,
1000
0100
0110
0000
0010
0000
0011
0000
,
0001
0000
0000
0000
1000
0010
0100
0001
0010
0100
1000
0010
0100
0010
1000
0001
,
0100
0010
1000
0100
0010
0001
1000
0010
1000
0100
0010
0001
0100
0010
1000
0001
,
0010
0100
1000
0001
0010
0001
0100
0010
1000
0010
0100
0001
1000
0001
0010
0100
,
1000
0010
0100
0001
1000
0100
1000
0001
0100
0010
1000
0010
0100
0001
0010
0001
,
1000
0010
0100
0001
1000
0100
0010
0001
0100
0010
1000
0001
0010
0001
0100
0010
,
1000
0001
0100
0001
0010
0100
1000
0010
0100
0001
0100
0010
1000
0001
1000
0100
,
0010
0001
0100
0010
0100
0001
0010
0100
1000
0010
0100
0001
1000
0100
0010
0001
,
0100
0010
1000
0001
0100
0000
0010
0000
1000
0000
0000
0000
1001
0000
0001
0000
,
0100
0000
0000
0000
0010
1000
0100
0010
0001
0100
0010
1000
0010
0100
0001
1000
,
0100
0010
0001
0100
0010
1000
0001
0100
0001
0010
0100
1000
0010
0100
0001
1000
,
0100
0010
0001
0100
0010
1000
0010
0100
0001
1000
0001
0010
0100
1000
0001
0010
,
0001
0100
0010
1000
0100
1000
0001
0010
0100
1000
0010
0100
0001
0100
0010
1000
,
0010
0100
0001
0010
0100
1000
0001
1000
0100
0010
0001
0100
0010
1000
0001
0010
,
0001
0100
0010
1000
0100
0010
0001
1000
0010
1000
0100
0010
0001
0100
0010
1000
,
0001
0010
0100
1000
0002
0000
0000
0000
0000
0000
0000
0000
0003
0000
0000
0000
,
0000
0000
0000
0000
1010
0000
0000
0000
1000
0000
0000
0000
1001
0000
0001
0010
,
0100
1000
0010
0100
0001
0000
0010
0000
0100
0000
1000
0000
0010
0000
0100
0001
,
0010
0001
2000
0000
3000
0000
0010
0000
0100
0000
0001
0000
1000
0000
0000
0000
,
0100
0000
0010
0001
0010
0100
1000
0010
,
0100
0002
0000
1003
0010
0100
0010
0000
,
1000
0100
0010
0001
0100
0000
0010
0000
1000
0000
0001
0000
0010
0000
0100
0000
,
1000
0020
0000
0130
0001
1000
0100
0000
,
0010
0001
0100
0010
2000
0000
0000
0000
0000
0000
3020
0000
0000
0000
0000
0000
,
0230
0000
0000
0000
0300
0000
0000
0001
2000
0000
0000
0000
3020
0000
0000
0000
0030
0000
0000
0000
0200
0000
0000
0000
0000
0000
0000
0000
0000
0000
0300
0001
,
2000
0000
0000
0000
3001
0000
0010
0000
0100
0000
1000
0000
0010
0000
0100
0001
,
0010
0100
2000
0000
3000
0000
0010
0000
0100
0000
0001
0000
1000
0000
0000
0000
,
0100
0000
0010
0001
0010
0100
1000
0010
,
0100
0002
0000
1003
0010
0100
0010
0000
,
1000
0100
0010
0001
0100
0000
0010
0000
1000
0000
0001
0000
0010
0000
0100
0000
,
1000
0020
0000
0130
0001
1000
0100
0000
,
0010
0001
0100
0010
2000
0000
0000
0000
0000
0000
3020
0000
0000
0000
0000
0000
,
0230
0000
0000
0000
0300
0000
0000
0001
2000
0000
0000
0000
3020
0000
0000
0000
0030
0000
0000
0000
0200
0000
0000
0000
0000
0000
0000
0000
0000
0000
0300
0001
,
1000
0000
0000
0000
0010
1000
0100
0010
0001
0100
0010
1000
0010
0100
0001
1000
,
0100
0010
0001
0100
0010
1000
0001
0100
0001
0010
0100
1000
0010
0100
0001
1000
,
0100
0010
0001
0100
0010
1000
0010
0100
0001
1000
0001
0010
0100
1000
0001
0010
,
0001
0100
0010
1000
0100
1000
0001
0010
0100
1000
0010
0100
0001
0100
0010
1000
,
0010
0100
0001
0010
0100
1000
0001
1000
0100
0010
0001
0100
0010
1000
0001
0010
,
0001
0100
0010
1000
0100
0010
0001
1000
0010
1000
0100
0010
0001
0100
0010
1000
,
0001
0010
0100
1000
0010
1000
0100
0010
0001
0100
0010
1000
0010
0100
0001
1000
,
0100
0010
0001
0100
0010
1000
0001
0100
0001
0010
0100
1000
0010
0100
0001
1000
,
0100
0010
0001
0100
0010
1000
0010
0100
0001
1000
0001
0010
0100
1000
0001
0010
,
0001
0100
0010
1000
0100
1000
0001
0010
0100
1000
0010
0100
0001
0100
0010
1000
,
0010
0100
0001
0010
0100
1000
0001
1000
0100
0010
0001
0100
0010
1000
0001
0010
,
0001
0100
0010
1000
0100
0010
0001
1000
0010
1000
0100
0010
0001
0100
0010
1000
,
0001
0010
0100
1000
0010
1000
0100
0010
0001
0100
0010
1000
0010
0100
0001
1000
,
0100
0010
0001
0100
0010
1000
0001
0100
0001
0010
0100
1000
0010
0100
0001
1000
,
0100
0010
0001
0100
0010
1000
0010
0100
0001
1000
0001
0010
0100
1000
0001
0010
,
0001
0100
0010
1000
0100
1000
0001
0010
0100
1000
0010
0100
0001
0100
0010
1000
,
0010
0100
0001
0010
0100
1000
0001
1000
0100
0010
0001
0100
0010
1000
0001
0010
,
0001
0100
0010
1000
0100
0010
0001
1000
0010
1000
0100
0010
0001
0100
0010
1000
,
0001
0010
0100
1000
0010
1000
0100
0010
0001
0100
0010
1000
0010
0100
0001
1000
,
0100
0010
0001
0100
0010
1000
0001
0100
0001
0010
0100
1000
0010
0100
0001
1000
,
0100
0010
0001
0100
0010
1000
0010
0100
0001
1000
0001
0010
0100
1000
0001
0010
,
0001
0100
0010
1000
0100
1000
0001
0010
0100
1000
0010
0100
0001
0100
0010
1000
,
0010
0100
0001
0010
0100
1000
0001
1000
0100
0010
0001
0100
0010
1000
0001
0010
,
0001
0100
0010
1000
0100
0010
0001
1000
0010
1000
0100
0010
0001
0100
0010
1000
,
0001
0010
0100
1000
0010
1000
0100
0010
0001
0100
0010
1000
0010
0100
0001
1000
,
0100
0010
0001
0100
0010
1000
0001
0100
0001
0010
0100
1000
0010
0100
0001
1000
,
0100
0010
0001
0100
0010
1000
0010
0100
0001
1000
0001
0010
0100
1000
0001
0010
,
0001
0100
0010
1000
0100
1000
0001
0010
0100
1000
0010
0100
0001
0100
0010
1000
,
0010
0100
0001
0010
0100
1000
0001
1000
0100
0010
0001
0100
0010
1000
0001
0010
,
0001
0100
0010
1000
0100
0010
0001
1000
0010
1000
0100
0010
0001
0100
0010
1000
,
0001
0010
0100
1000
0010
1000
0100
0010
0001
0100
0010
1000
0010
0100
0001
1000
,
0100
0010
0001
0100
0010
1000
0001
0100
0001
0010
0100
1000
0010
0100
0001
1000
,
0100
0010
0001
1000
0010
0000
0100
0000
0001
0000
1000
0000
0100
0000
0010
0000
,
0001
0100
0010
1000
0001
0100
0001
0010
,
0100
1000
0010
0100
0001
1000
0100
0010
,
0001
1000
0010
1000
0001
0100
0010
1000
,
0001
0010
0100
1000
0010
0100
0001
1000
,
0100
0010
0001
1000
0010
1000
0001
0100
,
0001
0010
0100
1000
0010
0100
0001
1000
,
0100
0000
0020
0000
0000
0032
0000
0000
,
2003
0000
0000
0000
3001
0010
0100
1000
0001
0100
0010
1000
0010
0100
0001
1000
,
0100
0010
0001
0100
0010
1000
0001
0100
0001
0010
0100
1000
0010
0100
0001
1000
,
0100
0010
0001
0100
0010
1000
0010
0100
0001
1000
0001
0010
0100
1000
0001
0010
,
0001
0100
0010
1000
0100
1000
0001
0010
0100
1000
0010
0100
0001
0100
0010
1000
,
0010
0100
0001
0010
0100
1000
0001
1000
0100
0010
0001
0100
0010
1000
0001
0010
,
0001
0100
0010
1000
0100
0010
0001
1000
0010
1000
0100
0010
0001
0100
0010
1000
,
0001
0010
0100
1000
0010
1000
0100
0010
0001
0100
0010
1000
0010
0100
0001
1000
,
0100
0010
0001
0100
0010
1000
0001
0100
0001
0010
0100
1000
0010
0100
0001
1000
,
0100
0010
0001
0100
0010
1000
0010
0100
0001
1000
0001
0010
0100
1000
0001
0010
,
0001
0100
0010
1000
0100
1000
0001
0010
0100
1000
0010
0100
0001
0100
0010
1000
,
0010
0100
0001
0010
0100
1000
0001
1000
0100
0010
0001
0100
0010
1000
0001
0010
,
0001
0100
0010
1000
0100
0010
0001
1000
0010
1000
0100
0010
0001
1000
0100
0010
,
0001
0100
0010
1000
0010
0100
0001
1000
0100
0010
0001
0100
0010
1000
0001
0100
,
0001
0010
0100
1000
0010
0100
0001
1000
0100
0010
0001
0100
0010
1000
0010
0100
,
0001
1000
0001
0100
0010
0000
0100
0000
0001
0000
1000
0000
0000
0000
0100
0000
,
0010
0000
0000
0000
0000
0000
0000
0000
0000
0000
0000
0000
0000
0000
0000
0000
0000
0000
0000
0000
0000
0000
0000
0000
0000
0000
0000
0000
0000
0000
0000
0000
0000
0000
0000
0000
0000
0000
0000
0000
0000
0000
0001
0000
0000
0000
0000
0000
2000
0000
0000
0000
0000
0000
0000
0000
0000
0000
0000
0000
0000
0000
0000
0000
0000
0000
0000
0000
0000
0000
0000
0000
3010
0000
0000
0000
0000
0000
0000
0000
0000
0000
0000
0000
0000
0000
0000
0000
0000
0000
0000
0000
0000
0000
0000
0000
0000
0000
0000
0000
0000
0000
0000
0000
0000
0000
0000
0000
0000
0000
0000
0000
0000
0000
0000
0000
0000
0000
0000
0000
0200
0000
0000
0000
0000
0000
0000
0000
0000
0000
0000
0000
0000
0000
0000
0000
0000
0000
0000
0000
0000
0000
0000
0000
0300
0000
0000
0000
0000
0000
0000
0000
0000
0000
0000
0000
0000
0000
0000
0000
0000
0000
0000
0000
0000
0000
0000
0000
0000
0000
0000
0000
0000
0000
0000
0000
0000
0000
0000
0000
0000
0000
0000
0000
0001
0000
0000
0000
0000
0000
0000
0000
,
0020
0000
0030
0000
0100
1000
0010
0100
0001
0000
1000
0000
0010
0000
0000
0100
,
0000
0000
0001
0010
0100
0000
0000
1000
0000
0010
0100
0000
0002
0000
0000
0000
,
0000
0000
0000
0000
1003
0100
0010
0001
1000
0000
0010
0000
0100
0000
0000
0001
,
0000
0000
1000
0100
1000
0000
0000
0010
0000
0100
0001
0000
2000
0000
0000
0000
,
0000
0000
0000
0000
3001
0010
0100
1000
0020
0000
0230
0000
0302
0000
0000
2003
,
3000
0000
0010
0100
0002
0000
0000
2003
0000
3010
0200
0000
0302
0000
0000
0000
,
0000
0000
0000
0000
1003
0010
0100
0001
0020
0000
0230
0000
2300
0000
0000
3002
,
0003
0000
0100
0010
2000
0000
0000
3002
0000
0013
0200
0000
2300
0000
0000
0000
,
0000
0000
0000
0000
3001
0010
0100
1000
0010
0100
0001
1000
0100
0010
0001
0100
,
0010
1000
0010
0100
0001
1000
0001
0010
0100
1000
0001
0010
0001
0100
0010
1000
,
0100
1000
0001
0010
0100
1000
0010
0100
0001
0100
0010
1000
0010
0100
0001
0010
,
0100
1000
0001
1000
0100
0010
0001
0100
0010
1000
0001
0010
0001
0100
0010
1000
,
0100
0010
0001
1000
0010
1000
0100
0010
0001
1000
0100
0010
0001
0100
0010
1000
,
0010
0100
0001
1000
0100
0010
0001
0100
0010
1000
0001
0100
0001
0010
0100
1000
,
0010
0100
0001
1000
0100
0010
0001
0100
0010
1000
0010
0100
0001
1000
0001
0100
,
0010
0100
0001
1000
0100
0010
0001
0100
0010
0000
1000
0000
0100
0000
0010
0000
,
0001
0000
0100
0000
0010
1000
0001
1000
0010
0100
0001
1000
0100
0010
0001
0100
,
0010
1000
0010
0100
0001
1000
0001
0010
0100
1000
0001
0010
0001
0100
0010
1000
,
0100
1000
0001
0010
0100
1000
0010
0100
0001
0100
0010
1000
0010
0100
0001
0010
,
0100
1000
0001
1000
0100
0010
0001
0100
0010
1000
0001
0010
0001
0100
0010
1000
,
0100
0010
0001
1000
0010
1000
0100
0010
0001
1000
0100
0010
0001
0100
0010
1000
,
0010
0100
0001
1000
0100
0010
0001
0100
0010
1000
0001
0100
0001
0010
0100
1000
,
0010
0100
0001
1000
0100
0010
0001
0100
0010
1000
0010
0100
0001
0010
0100
1000
,
0010
0100
0001
1000
0100
0010
0001
0100
0010
1000
0010
0100
0001
1000
0001
0010
,
0100
1000
0001
0010
0001
0100
0010
1000
0100
1000
0001
0010
0100
1000
0010
0100
,
0001
0100
0010
1000
0010
0100
0001
0010
0100
1000
0001
1000
0100
0010
0001
0100
,
0010
1000
0001
0010
0001
0100
0010
1000
0100
0010
0001
1000
0010
1000
0100
0010
,
0001
1000
0100
0010
0001
0100
0010
1000
0010
0100
0001
1000
0100
0010
0001
0100
,
0010
1000
0001
0100
0001
0010
0100
1000
0010
0100
0001
1000
0100
0010
0001
0100
,
0010
1000
0010
0100
0001
1000
0001
0010
0100
1000
0001
0010
0001
0100
0010
1000
,
0100
1000
0001
0010
0100
1000
0010
0100
0001
0100
0010
1000
0010
0100
0001
0010
,
0100
1000
0001
1000
0100
0010
0001
0100
0010
1000
0001
0010
0001
0100
0010
1000
,
0100
0010
0001
1000
0010
1000
0100
0010
0001
1000
0100
0010
0001
0100
0010
1000
,
0010
0100
0001
1000
0100
0010
0001
0100
0010
1000
0001
0100
0001
0010
0100
1000
,
0010
0100
0001
1000
0020
0000
0000
0000
0030
0000
0000
0000
0000
0000
0000
0000
;

//---------------dance-single - 5.20 (5) (owenviau1)----------------
#NOTES:
     dance-single:
     5.20 (5) (owenviau1):
     Easy:
     5:
     0.364,0.450,0.006,0.310,0.022,403.000,1.000,56.000,0.000,0.000:
1000
0000
0000
0000
0100
0000
0000
0000
0020
0000
0000
0000
0000
0000
0000
0030
,
0001
0000
0000
0000
0100
0000
0000
0000
0020
0000
0000
0000
0000
0000
0000
0030
,
1000
0000
0000
0000
0001
0000
0000
0000
0200
0000
0000
0000
0000
0000
0000
0300
,
0010
0000
0000
1000
0000
0000
0002
0000
0000
0000
0000
0003
,
0010
0000
0000
0000
0100
0000
0000
0000
2000
0000
0000
0000
0000
0000
0000
3000
,
0010
0100
0002
2003
,
3010
0100
0002
0023
,
0130
1000
0002
0000
,
0003
1000
0000
0010
,
0000
0000
0200
0000
0000
0000
0300
0010
,
0000
0000
1000
0000
0000
0001
0000
0000
,
0010
0200
0000
0000
,
0300
1000
0000
0010
,
0000
0000
0200
0000
0000
0000
0300
0001
,
0000
0000
1000
0000
0000
0100
0000
0000
,
0010
0001
0100
0010
,
1000
0001
0000
0100
,
0000
0020
0000
0000
,
1030
0000
0001
0000
0000
0010
0000
0000
,
0100
2000
0000
0000
,
3010
0000
0100
0000
0000
0001
0000
0000
,
1000
0100
0010
0000
,
0001
0000
0100
0000
,
0010
2000
0000
3001
,
0000
0010
0000
0100
,
0000
0000
2000
0000
0000
0000
3000
0010
,
0000
0000
1000
0000
0000
0001
0000
0000
,
0010
0200
0000
0000
,
0300
1000
0000
0010
,
0000
0000
0200
0000
0000
0000
0300
0001
,
0000
0000
1000
0000
0000
0100
0000
0000
,
0010
0001
0100
0010
,
1000
0001
0000
0100
,
0000
0020
0000
0000
,
1030
0000
0001
0000
0000
0010
0000
0000
,
0100
2000
0000
0000
,
3010
0000
0100
0000
0000
0001
0000
0000
,
1000
0100
0010
0000
,
0001
0000
0100
0000
,
0010
2000
0000
3000
,
0000
0001
0000
0100
,
0000
0010
0000
1000
,
0000
0010
0000
0000
0100
0000
0001
0000
,
1000
0100
0000
0010
,
0000
0001
0000
0000
0100
0000
0010
0000
,
1000
0001
0000
0100
,
0000
0010
0000
0000
1000
0000
0100
0000
,
0010
0000
0001
0000
0000
0100
0000
0000
,
0010
0000
1000
0000
0000
0002
0000
0000
,
0203
0310
0000
1000
,
0000
0010
0000
0000
0100
0000
0001
0000
,
1000
0100
0000
0010
,
0000
0001
0000
0000
0100
0000
0010
0000
,
1000
0001
0000
0100
,
0000
0010
0000
0000
1000
0000
0100
0000
,
0010
0000
0002
0000
0000
0203
0000
0000
,
0320
0000
1030
0000
0000
0002
0000
0000
,
0203
0310
0010
1000
,
0000
0001
0000
0000
0100
0000
0001
0000
,
1000
0100
0000
0010
,
0000
0001
0000
0000
0100
0000
0010
0000
,
1000
0001
0000
0100
,
0000
0010
0000
0000
1000
0000
0100
0000
,
0010
0000
0002
0000
0000
0203
0000
0000
,
0320
0000
1030
0000
0000
0002
0000
0000
,
0023
0130
0000
1000
,
0000
0010
0000
0000
0100
0000
0001
0000
,
1000
0100
0000
0010
,
0000
0001
0000
0000
0100
0000
0010
0000
,
1000
0001
0000
0100
,
0000
0010
0000
0000
1000
0000
0100
0000
,
0010
0000
0002
0000
0000
0203
0000
0000
,
0320
0000
1030
0000
0000
0002
0000
0000
,
0203
0310
0000
1000
,
0000
0010
0000
0000
0100
0000
0001
0000
,
1000
0100
0000
0010
,
0000
0001
0000
0000
0010
0000
0100
0000
,
1000
0001
0000
0100
,
0000
0010
0000
0000
1000
0000
0100
0000
,
0010
0000
0002
0000
0000
0203
0000
0000
,
0320
0000
1030
0000
0000
0002
0000
0000
,
0203
0310
0010
1000
,
0000
0001
0000
0000
0100
0000
0001
0000
,
1000
0100
0000
0010
,
0000
0001
0000
0000
0100
0000
0010
0000
,
1000
0001
0000
0100
,
0000
0010
0000
0000
1000
0000
0100
0000
,
0010
0000
0002
0000
0000
0203
0000
0000
,
0320
0000
1030
0000
0000
0002
0000
0000
,
0023
0130
0000
1000
,
0000
0001
0000
0100
,
0010
1000
0000
0001
,
0100
0000
0010
0000
0000
1000
0000
0000
,
0001
0010
0000
0100
,
0000
0000
1000
0000
0000
0010
0000
0000
,
0100
0002
0000
0000
,
0003
0000
1000
0000
0000
0100
0000
0000
,
0010
0001
0100
0000
,
0010
0000
1000
0000
,
0001
0000
0100
0000
,
0001
0000
0010
0000
,
0100
0000
1000
0000
,
0010
0000
0100
0000
,
0001
0000
1000
0000
,
0100
0000
1000
0000
,
0010
0000
0100
0000
,
0001
0000
0010
0000
,
0100
0000
1000
0000
,
0010
0000
0100
0000
,
0001
0000
1000
0000
,
0001
0000
1000
0000
,
0100
0000
0010
0000
0000
0001
0000
0000
,
0100
0000
0010
0000
0000
1000
0000
0000
,
0001
0000
0000
0000
0010
0000
0000
0000
0100
0000
0100
0000
1000
0000
0000
0001
,
0000
0000
0100
0000
0010
0000
0000
1000
0000
0000
0001
0000
0020
0000
0000
0000
,
0000
0000
0000
0000
0130
0000
0000
0000
1000
0000
0001
0000
0100
0000
0000
0010
,
0000
0000
1000
0000
0010
0000
0000
0100
0000
0000
0001
0000
0020
0000
0000
0000
,
0000
0000
0000
0000
0130
0000
0000
0000
1000
0000
0100
0000
1000
0000
0000
0001
,
0000
0000
0100
0000
0010
0000
0000
1000
0000
0000
0001
0000
0020
0000
0000
0000
,
0000
0000
0000
0000
0130
0000
0000
0000
1000
0000
0001
0000
0100
0000
0000
0010
,
0000
0000
1000
0000
0010
0000
0000
0100
0000
0000
0001
0000
0020
0000
0000
0000
,
0000
0130
1000
0000
,
0010
0000
1000
0000
,
0001
0000
0100
0000
,
0001
0000
0010
0000
,
0100
0000
1000
0000
,
0010
0000
0100
0000
,
0001
0000
1000
0000
,
0100
0000
1000
0000
,
0010
0100
0001
0000
,
0010
0000
0010
0000
,
0100
0000
1000
0000
,
0010
0000
0100
0000
,
0001
0000
1000
0000
,
0001
0000
1000
0000
,
0100
0000
0010
0000
,
0001
0000
0100
0000
,
0001
0000
1000
0000
,
0010
0000
0100
0000
,
0001
0000
1000
0000
,
0100
0000
0010
0000
,
0001
0000
0100
0000
,
0010
0000
1000
0000
,
0001
0000
0100
0000
0000
0010
0000
0000
,
1000
0000
0001
0000
0000
0100
0000
0000
,
0010
0000
0100
0000
0000
0001
0000
0000
,
1000
0000
0100
0000
0000
0010
0000
0000
,
0001
2002
3003
0000
;

//---------------dance-single - 12.05 (12) (owenviau----------------
#NOTES:
     dance-single:
     12.05 (12) (owenviau:
     Hard:
     12:
     0.950,0.940,0.177,0.299,0.133,1114.000,32.000,54.000,0.000,1.000:
1010
0000
0010
0000
0110
0000
0100
0000
0102
0000
0000
0000
0000
0000
0000
0003
,
1100
0000
0100
0000
0110
0000
0010
0000
0012
0000
0000
0000
0000
0000
0000
0003
,
1010
0000
1000
0000
1001
0000
0001
0000
0201
0000
0010
0000
0001
0000
0010
0300
,
1001
0000
0000
0001
0000
0000
0011
0000
0000
0010
0000
0000
0210
0000
0000
0000
0000
0000
0000
0000
0000
0000
0300
0000
,
0011
0000
0001
0000
1001
0000
1000
0000
1020
0000
0000
0000
0000
0000
0000
0030
,
1001
0000
0001
0000
0101
0000
0100
0000
0120
0000
0000
0000
0200
0000
0000
0030
,
1301
0001
0101
0100
0120
0000
0100
0130
,
0101
0000
0001
0010
0100
0000
1000
0000
1010
0000
0000
0000
1000
0000
0000
0000
1002
0000
0000
0000
0000
0000
0000
0000
0000
0000
0000
0000
0000
0000
0000
0000
,
0003
1010
0010
0110
,
0100
0000
0001
0010
0100
1000
0010
0100
,
0001
1000
0100
1000
0010
0100
0010
1000
,
0001
0100
0001
0010
0100
1000
0010
0100
,
0001
1000
0100
0010
0001
0100
0010
1000
,
0001
0100
0001
1000
0100
0010
0001
0100
,
0010
1000
0001
0010
0100
1000
0010
0100
,
0010
1000
0001
0100
0001
1000
0100
0010
,
0001
0100
0001
1000
0010
0000
0110
0100
,
0001
0000
1000
0100
0010
0001
0100
0010
,
0100
0001
1000
0010
0100
0001
1000
0100
,
0010
0001
0100
0010
1000
0001
0010
0100
,
1000
0001
0100
0001
0010
0100
1000
0010
,
1000
0100
0010
0001
1000
0001
0100
0010
,
1000
0001
0010
0001
0100
0010
1000
0100
,
0010
0001
1000
0010
0100
0001
0100
0010
,
1000
0100
0110
0000
0010
0000
0011
0000
,
0001
0000
1000
0100
0010
0001
0100
0010
,
1000
0010
0100
0001
1000
0001
0010
0100
,
1000
0010
0100
0001
1000
0100
0010
0001
,
1000
0010
1000
0001
0100
0001
1000
0100
,
0010
0001
0100
0010
1000
0001
0010
0100
,
1000
0010
0100
0010
1000
0001
0100
0001
,
1000
0100
0010
0001
0100
0010
1000
0001
,
0100
0010
0100
0001
1000
0000
1001
0001
,
0100
0000
0010
0100
0001
1000
0100
0010
,
0001
1000
0010
1000
0001
0100
0010
1000
,
0001
0010
0001
0100
0010
1000
0100
1000
,
0010
0100
0010
1000
0001
0100
0001
1000
,
0100
0010
0001
0100
0010
1000
0001
0010
,
0100
1000
0010
0100
0001
1000
0100
1000
,
0010
0100
0002
0000
0000
0000
0003
0000
,
0000
0000
0000
0000
1010
0000
0000
0000
1000
0000
0000
0000
1001
0000
0001
0010
,
0100
1000
0010
0100
0001
0000
0010
0000
0100
0000
1000
0000
0010
0000
0100
0001
,
0010
0001
2000
0000
3000
0000
0010
0000
0100
0000
0001
0000
1000
0000
0000
0000
,
0100
0000
0010
0001
0010
0100
1000
0010
,
0100
0002
0000
1003
0010
0100
0010
0000
,
1000
0100
0010
0001
0100
0000
0010
0000
1000
0000
0001
0000
0010
0000
0100
0000
,
1000
0020
0000
0130
0001
1000
0100
0000
,
0010
0001
0100
0010
2000
0000
0000
0000
0000
0000
3020
0000
0000
0000
0000
0000
,
0230
0000
0000
0000
0300
0000
0000
0001
2000
0000
0000
0000
3020
0000
0000
0000
0030
0000
0000
0000
0200
0000
0000
0000
0000
0000
0000
0000
0000
0000
0300
0001
,
2000
0000
0000
0000
3001
0000
0010
0000
0100
0000
1000
0000
0010
0000
0100
0001
,
0010
0100
2000
0000
3000
0000
0010
0000
0100
0000
0001
0000
1000
0000
0000
0000
,
0100
0000
0010
0001
0010
0100
1000
0010
,
0100
0002
0000
1003
0010
0100
0010
0000
,
1000
0100
0010
0001
0100
0000
0010
0000
1000
0000
0001
0000
0010
0000
0100
0000
,
1000
0020
0000
0130
0001
1000
0100
0000
,
0010
0001
0100
0010
2000
0000
0000
0000
0000
0000
3020
0000
0000
0000
0000
0000
,
0230
0000
0000
0000
0300
0000
0000
0001
2000
0000
0000
0000
3020
0000
0000
0000
0030
0000
0000
0000
0200
0000
0000
0000
0000
0000
0000
0000
0000
0000
0300
0001
,
1000
0000
0010
0100
0001
1000
0100
0010
,
0001
1000
0010
1000
0001
0100
0010
1000
,
0001
0010
0001
0100
0010
1000
0100
1000
,
0010
0100
0010
1000
0001
0100
0001
1000
,
0100
0010
0001
0100
0010
1000
0001
0010
,
0100
1000
0010
0100
0001
1000
0100
1000
,
0010
0100
0001
1000
0100
0010
0001
1000
,
0010
1000
0001
0100
0010
1000
0001
0010
,
0001
0100
0010
1000
0100
1000
0010
0100
,
0010
1000
0001
0100
0001
1000
0100
0010
,
0001
0100
0010
1000
0001
0010
0100
1000
,
0010
0100
0001
1000
0100
1000
0010
0100
,
0001
1000
0100
0010
0001
1000
0010
1000
,
0001
0100
0010
1000
0001
0010
0001
0100
,
0010
1000
0100
1000
0010
0100
0010
1000
,
0001
0100
0001
1000
0100
0010
0001
0100
,
0010
1000
0001
0010
0100
1000
0010
0100
,
0001
1000
0100
0010
0001
1000
0010
1000
,
0001
0100
0010
1000
0001
0010
0001
0100
,
0010
1000
0100
1000
0010
0100
0010
1000
,
0001
0100
0001
1000
0100
0010
0001
0100
,
0010
1000
0001
0010
0100
1000
0010
0100
,
0001
1000
0100
1000
0010
0100
0001
1000
,
0100
0010
0001
1000
0010
1000
0001
0100
,
0010
1000
0001
0010
0001
0100
0010
1000
,
0100
1000
0010
0100
0010
1000
0001
0100
,
0001
1000
0100
0010
0001
0100
0010
1000
,
0001
0010
0100
1000
0010
0100
0001
1000
,
0100
1000
0010
0100
0001
1000
0100
0010
,
0001
1000
0010
1000
0001
0100
0010
1000
,
0001
0010
0001
0100
0010
1000
0100
1000
,
0010
0100
0010
1000
0001
0100
0001
1000
,
0100
0010
0001
0100
0010
1000
0001
0010
,
0100
1000
0010
0100
0001
1000
0100
1000
,
0010
0100
0001
0100
0010
1000
0100
0010
,
0001
1000
0010
1000
0001
0100
0010
1000
,
0001
0010
0100
1000
0010
0100
0001
1000
,
0100
0010
0001
1000
0010
1000
0001
0100
,
0001
0010
0100
1000
0010
0100
0001
1000
,
0100
0000
0020
0000
0000
0032
0000
0000
,
2003
0000
3010
0100
0001
1000
0100
0010
,
0001
1000
0010
1000
0001
0100
0010
1000
,
0001
0010
0001
0100
0010
1000
0100
1000
,
0010
0100
0010
1000
0001
0100
0001
1000
,
0100
0010
0001
0100
0010
1000
0001
0010
,
0100
1000
0010
0100
0001
1000
0100
0010
,
0001
1000
0010
1000
0001
0100
0010
1000
,
0001
0010
0001
0100
0010
1000
0100
1000
,
0010
0100
0010
1000
0001
0100
0001
1000
,
0100
0010
0001
0100
0010
0100
0001
1000
,
0100
0010
0001
1000
0010
1000
0001
0100
,
0010
1000
0001
0010
0001
0100
0010
1000
,
0100
1000
0010
0100
0010
1000
0001
0100
,
0001
1000
0100
0010
0001
0100
0010
1000
,
0001
0010
0100
1000
0010
1000
0000
0100
,
0010
0000
0000
0000
0000
0000
0000
0000
0000
0000
0000
0000
0000
0000
0000
0000
0000
0000
0000
0000
0000
0000
0000
0000
0000
0000
0000
0000
0000
0000
0000
0000
0000
0000
0000
0000
0000
0000
0000
0000
0000
0000
0001
0000
0000
0000
0000
0000
2000
0000
0000
0000
0000
0000
0000
0000
0000
0000
0000
0000
0000
0000
0000
0000
0000
0000
0000
0000
0000
0000
0000
0000
3010
0000
0000
0000
0000
0000
0000
0000
0000
0000
0000
0000
0000
0000
0000
0000
0000
0000
0000
0000
0000
0000
0000
0000
0000
0000
0000
0000
0000
0000
0000
0000
0000
0000
0000
0000
0000
0000
0000
0000
0000
0000
0000
0000
0000
0000
0000
0000
0200
0000
0000
0000
0000
0000
0000
0000
0000
0000
0000
0000
0000
0000
0000
0000
0000
0000
0000
0000
0000
0000
0000
0000
0300
0000
0000
0000
0000
0000
0000
0000
0000
0000
0000
0000
0000
0000
0000
0000
0000
0000
0000
0000
0000
0000
0000
0000
0000
0000
0000
0000
0000
0000
0000
0000
0000
0000
0000
0000
0000
0000
0000
0000
0001
0000
0000
0000
0000
0000
0000
0000
,
0020
0000
0030
0000
0100
1000
0010
0100
0001
0000
1000
0000
0010
0000
0000
0100
,
0000
0000
0001
0010
0100
0000
0000
1000
0000
0010
0100
0000
0002
0000
0000
0000
,
0000
0000
0000
0000
1003
0100
0010
0001
1000
0000
0010
0000
0100
0000
0000
0001
,
0000
0000
1000
0100
1000
0000
0000
0010
0000
0100
0001
0000
2000
0000
0000
0000
,
0000
0000
0000
0000
3001
0010
0100
1000
0020
0000
0230
0000
0302
0000
0000
2003
,
3000
0000
0010
0100
0002
0000
0000
2003
0000
3010
0200
0000
0302
0000
0000
0000
,
0000
0000
0000
0000
1003
0010
0100
0001
0020
0000
0230
0000
2300
0000
0000
3002
,
0003
0000
0100
0010
2000
0000
0000
3002
0000
0013
0200
0000
2300
0000
0000
0000
,
0000
0000
3001
1000
0010
1000
0001
0100
,
0010
1000
0001
0010
0001
0100
0010
1000
,
0100
1000
0010
0100
0010
1000
0001
0100
,
0001
1000
0100
0010
0001
0100
0010
1000
,
0001
0010
0100
1000
0010
0100
0001
1000
,
0100
1000
0010
0100
0001
1000
0100
0010
,
0001
1000
0010
1000
0001
0100
0010
1000
,
0001
0010
0001
0100
0010
1000
0100
1000
,
0010
0100
0010
1000
0001
0100
0001
1000
,
0100
0010
0001
0100
0010
1000
0001
0010
,
0100
1000
0010
0100
0001
1000
0100
0010
,
0001
1000
0010
1000
0001
0100
0010
1000
,
0001
0010
0001
0100
0010
1000
0100
1000
,
0010
0100
0010
1000
0001
0100
0001
1000
,
0100
0010
0001
0100
0010
1000
0001
0010
,
0100
1000
0010
0100
0001
1000
0100
1000
,
0010
0100
0001
1000
0100
0010
0001
1000
,
0010
1000
0001
0100
0010
1000
0001
0010
,
0001
0100
0010
1000
0100
1000
0010
0100
,
0010
1000
0001
0100
0001
1000
0100
0010
,
0001
0100
0010
1000
0001
0010
0100
1000
,
0010
0100
0001
1000
0100
0010
0001
1000
,
0010
1000
0001
0100
0001
1000
0010
1000
,
0001
0100
0010
1000
0001
0010
0001
0100
,
0010
1000
0100
1000
0010
0100
0010
1000
,
0001
0100
0001
1000
0100
0010
0001
0100
,
0010
1000
0002
0000
0003
0000
0000
0000
;

//---------------dance-single - ----------------
#NOTES:
     dance-single:
     :
     Medium:
     10:
     0.935,0.940,0.177,0.299,0.089,1094.000,32.000,54.000,0.000,1.000:
1010
0000
0010
0000
0110
0000
0100
0000
0102
0000
0000
0000
0000
0000
0000
0003
,
1100
0000
0100
0000
0110
0000
0010
0000
0012
0000
0000
0000
0000
0000
0000
0003
,
1010
0000
1000
0000
1001
0000
0001
0000
0201
0000
0010
0000
0001
0000
0010
0300
,
1001
0000
0000
0001
0000
0000
0011
0000
0000
0010
0000
0000
0210
0000
0000
0000
0000
0000
0000
0000
0000
0000
0300
0000
,
0011
0000
0001
0000
1001
0000
1000
0000
1020
0000
0000
0000
0000
0000
0000
0030
,
1001
0000
0001
0000
0101
0000
0100
0000
0120
0000
0000
0000
0200
0000
0000
0030
,
1301
0001
0101
0100
0120
0000
0100
0130
,
0101
0001
1000
0010
1010
0000
1000
0000
1002
0000
0000
0000
0000
0000
0000
0000
,
0003
1010
0010
0110
,
0100
0000
0001
0010
0100
1000
0010
0100
,
0001
1000
0100
1000
0010
0100
0010
1000
,
0001
0100
0001
0010
0100
1000
0010
0100
,
0001
1000
0100
0010
0001
0100
0010
1000
,
0001
0100
0001
1000
0100
0010
0001
0100
,
0010
1000
0001
0010
0100
1000
0010
0100
,
0010
1000
0001
0100
0001
1000
0100
0010
,
0001
0100
0001
1000
0010
0000
0110
0100
,
0001
0000
1000
0100
0010
0001
0100
0010
,
0100
0001
1000
0010
0100
0001
1000
0100
,
0010
0001
0100
0010
1000
0001
0010
0100
,
1000
0001
0100
0001
0010
0100
1000
0010
,
1000
0100
0010
0001
1000
0001
0100
0010
,
1000
0001
0010
0001
0100
0010
1000
0100
,
0010
0001
1000
0010
0100
0001
0100
0010
,
1000
0100
0110
0000
0010
0000
0011
0000
,
0001
0000
1000
0100
0010
0001
0100
0010
,
1000
0010
0100
0001
1000
0001
0010
0100
,
1000
0010
0100
0001
1000
0100
0010
0001
,
1000
0010
1000
0001
0100
0001
1000
0100
,
0010
0001
0100
0010
1000
0001
0010
0100
,
1000
0010
0100
0010
1000
0001
0100
0001
,
1000
0100
0010
0001
0100
0010
1000
0001
,
0100
0010
0100
0001
1000
0000
1001
0001
,
0100
0000
0010
0100
0001
1000
0100
0010
,
0001
1000
0010
1000
0001
0100
0010
1000
,
0001
0010
0001
0100
0010
1000
0100
1000
,
0010
0100
0010
1000
0001
0100
0001
1000
,
0100
0010
0001
0100
0010
1000
0001
0010
,
0100
1000
0010
0100
0001
1000
0100
1000
,
0010
0100
0002
0000
0000
0000
0003
0000
,
0000
0000
1010
0000
1000
0000
1001
1000
,
0100
0010
0001
0010
0100
1000
0010
0100
,
0010
2000
3000
0010
0100
0001
1000
0000
,
0100
0000
0010
0001
0010
0100
1000
0010
,
0100
0002
0000
1003
0010
0100
0010
0000
,
1000
0010
0100
0010
1000
0001
0010
0100
,
1000
0020
0000
0130
0001
1000
0100
0000
,
0010
0001
2000
0000
0000
3020
0000
0000
,
0230
0000
0000
0000
0300
0000
0000
0001
2000
0000
0000
0000
3020
0000
0000
0000
0030
0000
0000
0000
0200
0000
0000
0000
0000
0000
0000
0000
0000
0000
0300
0001
,
2000
0000
3001
0010
0100
1000
0010
0100
,
0010
2000
3000
0010
0100
0001
1000
0000
,
0100
0000
0010
0001
0010
0100
1000
0010
,
0100
0002
0000
1003
0010
0100
0010
0000
,
1000
0010
0100
0010
1000
0001
0010
0100
,
1000
0020
0000
0130
0001
1000
0100
0000
,
0010
0001
2000
0000
0000
3020
0000
0000
,
0230
0000
0000
0000
0300
0000
0000
0001
2000
0000
0000
0000
3020
0000
0000
0000
0030
0000
0000
0000
0200
0000
0000
0000
0000
0000
0000
0000
0000
0000
0300
0001
,
1000
0000
0010
0100
0001
1000
0100
0010
,
0001
1000
0010
1000
0001
0100
0010
1000
,
0001
0010
0001
0100
0010
1000
0100
1000
,
0010
0100
0010
1000
0001
0100
0001
1000
,
0100
0010
0001
0100
0010
1000
0001
0010
,
0100
1000
0010
0100
0001
1000
0100
1000
,
0010
0100
0001
1000
0100
0010
0001
1000
,
0010
1000
0001
0100
0010
1000
0001
0010
,
0001
0100
0010
1000
0100
1000
0010
0100
,
0010
1000
0001
0100
0001
1000
0100
0010
,
0001
0100
0010
1000
0001
0010
0100
1000
,
0010
0100
0001
1000
0100
1000
0010
0100
,
0001
1000
0100
0010
0001
1000
0010
1000
,
0001
0100
0010
1000
0001
0010
0001
0100
,
0010
1000
0100
1000
0010
0100
0010
1000
,
0001
0100
0001
1000
0100
0010
0001
0100
,
0010
1000
0001
0010
0100
1000
0010
0100
,
0001
1000
0100
0010
0001
1000
0010
1000
,
0001
0100
0010
1000
0001
0010
0001
0100
,
0010
1000
0100
1000
0010
0100
0010
1000
,
0001
0100
0001
1000
0100
0010
0001
0100
,
0010
1000
0001
0010
0100
1000
0010
0100
,
0001
1000
0100
1000
0010
0100
0001
1000
,
0100
0010
0001
1000
0010
1000
0001
0100
,
0010
1000
0001
0010
0001
0100
0010
1000
,
0100
1000
0010
0100
0010
1000
0001
0100
,
0001
1000
0100
0010
0001
0100
0010
1000
,
0001
0010
0100
1000
0010
0100
0001
1000
,
0100
1000
0010
0100
0001
1000
0100
0010
,
0001
1000
0010
1000
0001
0100
0010
1000
,
0001
0010
0001
0100
0010
1000
0100
1000
,
0010
0100
0010
1000
0001
0100
0001
1000
,
0100
0010
0001
0100
0010
1000
0001
0010
,
0100
1000
0010
0100
0001
1000
0100
1000
,
0010
0100
0001
0100
0010
1000
0100
0010
,
0001
1000
0010
1000
0001
0100
0010
1000
,
0001
0010
0100
1000
0010
0100
0001
1000
,
0100
0010
0001
1000
0010
1000
0001
0100
,
0001
0010
0100
1000
0010
0100
0001
1000
,
0100
0000
0020
0000
0000
0032
0000
0000
,
2003
0000
3010
0100
0001
1000
0100
0010
,
0001
1000
0010
1000
0001
0100
0010
1000
,
0001
0010
0001
0100
0010
1000
0100
1000
,
0010
0100
0010
1000
0001
0100
0001
1000
,
0100
0010
0001
0100
0010
1000
0001
0010
,
0100
1000
0010
0100
0001
1000
0100
0010
,
0001
1000
0010
1000
0001
0100
0010
1000
,
0001
0010
0001
0100
0010
1000
0100
1000
,
0010
0100
0010
1000
0001
0100
0001
1000
,
0100
0010
0001
0100
0010
0100
0001
1000
,
0100
0010
0001
1000
0010
1000
0001
0100
,
0010
1000
0001
0010
0001
0100
0010
1000
,
0100
1000
0010
0100
0010
1000
0001
0100
,
0001
1000
0100
0010
0001
0100
0010
1000
,
0001
0010
0100
1000
0010
1000
0000
0100
,
0010
0000
0000
0000
0000
0000
0000
0000
0000
0000
0000
0000
0000
0000
0000
0000
0000
0000
0000
0000
0000
0000
0000
0000
0000
0000
0000
0000
0000
0000
0000
0000
0000
0000
0000
0000
0000
0000
0000
0000
0000
0000
0001
0000
0000
0000
0000
0000
2000
0000
0000
0000
0000
0000
0000
0000
0000
0000
0000
0000
0000
0000
0000
0000
0000
0000
0000
0000
0000
0000
0000
0000
3010
0000
0000
0000
0000
0000
0000
0000
0000
0000
0000
0000
0000
0000
0000
0000
0000
0000
0000
0000
0000
0000
0000
0000
0000
0000
0000
0000
0000
0000
0000
0000
0000
0000
0000
0000
0000
0000
0000
0000
0000
0000
0000
0000
0000
0000
0000
0000
0200
0000
0000
0000
0000
0000
0000
0000
0000
0000
0000
0000
0000
0000
0000
0000
0000
0000
0000
0000
0000
0000
0000
0000
0300
0000
0000
0000
0000
0000
0000
0000
0000
0000
0000
0000
0000
0000
0000
0000
0000
0000
0000
0000
0000
0000
0000
0000
0000
0000
0000
0000
0000
0000
0000
0000
0000
0000
0000
0000
0000
0000
0000
0000
0001
0000
0000
0000
0000
0000
0000
0000
,
0020
0000
0030
0000
0100
1000
0010
0100
0001
0000
1000
0000
0010
0000
0000
0100
,
0000
0000
0001
0010
0100
0000
0000
1000
0000
0010
0100
0000
0002
0003
0000
0000
,
0000
0000
0000
0000
1000
0100
0010
0001
1000
0000
0010
0000
0100
0000
0000
0001
,
0000
0000
1000
0100
1000
0000
0000
0010
0000
0100
0001
0000
2000
0000
0000
0000
,
0000
0000
0000
0000
3001
0010
0100
1000
0020
0000
0230
0000
0302
0000
0000
2003
,
3000
0000
0010
0100
0002
0000
0000
2003
0000
3010
0200
0000
0302
0000
0000
0000
,
0000
0000
0000
0000
1003
0010
0100
0001
0020
0000
0230
0000
2300
0000
0000
3002
,
0003
0000
0100
0010
2000
0000
0000
3002
0000
0013
0200
0000
2300
0000
0000
0000
,
0000
0000
3001
1000
0010
1000
0001
0100
,
0010
1000
0001
0010
0001
0100
0010
1000
,
0100
1000
0010
0100
0010
1000
0001
0100
,
0001
1000
0100
0010
0001
0100
0010
1000
,
0001
0010
0100
1000
0010
0100
0001
1000
,
0100
1000
0010
0100
0001
1000
0100
0010
,
0001
1000
0010
1000
0001
0100
0010
1000
,
0001
0010
0001
0000
1000
0000
0100
0000
,
0010
0000
0001
1000
0010
0100
0001
1000
,
0100
0010
0001
0100
0010
1000
0001
0010
,
0100
1000
0010
0100
0001
1000
0100
0010
,
0001
1000
0010
1000
0001
0100
0010
1000
,
0001
0010
0001
0100
0010
1000
0100
1000
,
0010
0100
0010
1000
0001
0100
0001
1000
,
0100
0010
0001
0100
0010
1000
0001
0010
,
0100
1000
0010
0100
0001
1000
0100
1000
,
0010
0100
0001
1000
0100
0010
0001
1000
,
0010
1000
0001
0100
0010
1000
0001
0010
,
0001
0100
0010
1000
0100
1000
0010
0100
,
0010
1000
0001
0100
0001
1000
0100
0010
,
0001
0100
0010
1000
0001
0010
0100
1000
,
0010
0100
0001
1000
0100
0010
0001
1000
,
0010
1000
0001
0100
0001
1000
0010
1000
,
0001
0100
0010
1000
0001
0010
0001
0100
,
0010
1000
0100
1000
0010
0100
0010
1000
,
0001
0100
0001
1000
0100
0010
0001
0100
,
0010
1000
0002
0000
0003
0000
0000
0000
;

//---------------dance-single - 1.36 (1) (owenviau1)----------------
#NOTES:
     dance-single:
     1.36 (1) (owenviau1):
     Beginner:
     1:
     0.143,0.286,0.067,0.078,0.000,154.000,12.000,14.000,0.000,0.000:
1000
0000
0000
0000
0000
0000
0000
0000
0020
0000
0000
0000
0000
0000
0000
0030
,
0100
0000
0000
0000
0000
0000
0000
0000
0020
0000
0000
0000
0000
0000
0000
0030
,
1000
0000
0000
0000
0000
0000
0000
0000
0200
0000
0000
0000
0000
0000
0000
0300
,
0010
0000
0000
0000
0000
0000
0002
0000
0000
0000
0000
0003
,
1000
0000
0000
0000
0000
0000
0000
0000
2000
0000
0000
0000
0000
0000
0000
3000
,
0001
0000
0000
0000
0000
0000
0000
0000
0000
0000
0000
0000
0002
0000
0000
0000
0000
0000
0000
0000
0000
0000
0000
0003
,
0010
0000
0000
0000
0000
0000
0000
0000
0000
0000
0000
0000
0002
0000
0000
0000
0000
0000
0000
0000
0000
0000
0000
0003
,
0100
0000
0002
0000
,
0003
1000
0000
0000
,
0000
0200
0000
0300
,
0000
1000
0000
0000
,
0000
0002
0000
0003
,
0000
1000
0000
0000
,
0000
0200
0000
0300
,
0000
0010
0000
0000
,
0000
0002
0000
0003
,
0000
1000
0000
0100
,
0000
0000
0000
0000
,
0000
1000
0000
0000
,
0000
0001
0000
0000
,
0000
0010
0000
0000
,
0000
0100
0000
0000
,
0000
0000
0000
0000
,
0000
1000
0000
0000
,
0000
0001
0000
0000
,
0000
1001
0000
0000
,
0000
1000
0000
0000
,
0000
0010
0000
0000
,
0000
0100
0000
0000
,
0000
0001
0000
0000
,
0000
1000
0000
0000
,
0000
0100
0000
0000
,
0000
0110
0000
0000
,
0000
0001
0000
0000
,
0000
1000
0000
0000
,
0000
0010
0000
0000
,
0000
0100
0000
0000
,
0000
0010
0000
0000
,
0000
0000
0000
0000
,
0000
1000
0000
0000
,
0000
0001
0000
0000
,
0000
0010
0000
0000
,
0000
0100
0000
0000
0000
0000
0000
0000
,
0000
1000
0000
0000
,
0000
0010
0000
0000
0000
0000
0000
0000
,
0000
0100
0000
0000
,
0000
0001
0000
0000
0000
0000
0000
0000
,
0000
1000
0000
0000
,
0000
0001
0000
0000
,
0000
0110
0000
0000
,
0000
1000
0000
0000
0000
0000
0000
0000
,
0000
0001
0000
0000
,
0000
0010
0000
0000
0000
0000
0000
0000
,
0000
0100
0000
0000
,
0000
1000
0000
0000
0000
0000
0000
0000
,
0000
0010
0000
0000
,
0000
0100
0000
0000
,
0000
1001
0000
0000
,
0000
1000
0000
0000
,
0000
0010
0000
0000
,
0000
0100
0000
0000
,
0000
0001
0000
0000
,
0000
1000
0000
0000
,
0000
0100
0000
0000
,
0000
0010
0000
0000
,
0000
0001
0000
0000
,
0000
1000
0000
0000
,
0000
0100
0000
0000
,
0000
0010
0000
0000
,
0000
0001
0000
0000
,
0000
1000
0000
0000
,
0000
0001
0000
0000
,
0000
1000
0000
0000
,
0000
1001
0000
0000
,
0000
0001
0000
0000
,
0000
0010
0000
0000
,
0000
0100
0000
0000
,
0000
1000
0000
0000
,
0000
0010
0000
0000
,
0000
0100
0000
0000
,
0000
0010
0000
0000
,
0000
1001
0000
0000
,
0000
1000
0000
0000
,
0000
0100
0000
0000
,
0000
0010
0000
0000
,
0000
0001
0000
0000
,
0000
0100
0000
0000
,
0000
0001
0000
0000
,
0000
1000
0000
0000
,
0000
1001
0000
0000
,
0000
1000
0000
0000
,
0000
0100
0000
0000
,
0000
0010
0000
0000
,
0000
0001
0000
0000
,
0000
1000
0000
0000
,
0000
0010
0000
0000
,
0000
0100
0000
0000
,
0000
0110
0000
0000
,
0000
0001
0000
0000
,
0000
1000
0000
0000
,
0000
0100
0000
0000
,
0000
0010
0000
0000
,
0000
0001
0000
0000
,
0000
0100
0000
0000
,
0000
0001
0000
0000
,
0000
1000
0000
0000
,
0000
0100
0000
0000
,
0000
0010
0000
0000
,
0000
0001
0000
0000
,
0000
0100
0000
0000
,
0000
0001
0000
0000
,
0000
1000
0000
0000
,
0000
0100
0000
0000
,
0000
0010
0000
0000
,
0000
0001
0000
0000
,
0000
1000
0000
0000
,
0000
0010
0000
0000
,
0000
0110
0000
0000
,
0000
0001
0000
0000
,
0000
1000
0000
0000
,
0000
0100
0000
0000
,
0000
0110
0000
0000
,
0000
0001
0000
0000
,
0000
1000
0000
0000
,
0000
0001
0000
0000
,
0000
0100
0000
0000
,
0000
0010
0000
0000
,
0000
1000
0000
0000
,
0000
0001
0000
0000
,
0000
1001
0000
0000
,
0000
1000
0000
0000
,
0000
0100
0000
0000
,
0000
0010
0000
0000
,
0000
0001
0000
0000
,
0000
0100
0000
0000
,
0000
0001
0000
0000
,
0000
1000
0000
0000
,
0000
0100
0000
0000
,
0000
1000
0000
0000
,
0000
0010
0000
0000
,
0000
1000
0000
0000
,
0000
0001
0000
0000
,
0000
1000
0000
0000
,
0000
0100
0000
0000
,
0000
0100
0000
0000
,
0000
0010
0000
0000
,
0000
0010
0000
0000
,
0000
2002
3003
0000
;
