#TITLE:Rave On;
#SUBTITLE:Killer7 Music;
#ARTIST:Masafumi Takada;
#TITLETRANSLIT:;
#SUBTITLETRANSLIT:;
#ARTISTTRANSLIT:;
#CREDIT:;
#BANNER:Killer7 Music - Rave On-bn.jpg;
#BACKGROUND:Killer7 Music - Rave On-bg.jpg;
#LYRICSPATH:;
#CDTITLE:;
#MUSIC:Killer7 Music - Rave On.mp3;
#OFFSET:0.060;
#SAMPLESTART:2.300;
#SAMPLELENGTH:13.080;
#SELECTABLE:YES;
#BPMS:0.000=150.020;
#STOPS:;
#BGCHANGES:2.000=Harmon-bg.jpg=1.000=0=0=1,
4.000=Kun-bg.jpg=1.000=0=0=1,
6.000=Garcian-bg.jpg=1.000=0=0=1,
22.000=dan1.jpg=1.000=0=0=1,
39.000=Coyote-bg.jpg=1.000=0=0=1,
56.000=Coyote-bg.jpg=1.000=0=0=1,
70.000=Con-bg.jpg=1.000=0=0=1,
94.000=Mask-bg.jpg=1.000=0=0=1,
138.000=Kaede-bg.jpg=1.000=0=0=1,
170.000=Con-bg.jpg=1.000=0=0=1,
194.000=Kevin-bg.jpg=1.000=0=0=1,
238.500=Garcian-bg.jpg=1.000=0=0=1,
270.000=Mask-bg.jpg=1.000=0=0=1,
302.000=Harmon-bg.jpg=1.000=0=0=1,
303.000=dan1.jpg=1.000=0=0=1,
304.000=Garcian-bg.jpg=1.000=0=0=1,
305.000=Kun-bg.jpg=1.000=0=0=1,
306.000=Travis.jpg=1.000=0=0=1,
333.000=iwazaru.jpg=1.000=0=0=1,
360.500=heaven smile.jpg=1.000=0=0=1,
387.000=killer-7-art.jpg=1.000=0=0=1,
402.000=Con-bg.jpg=1.000=0=0=1,
437.000=art6pe.jpg=1.000=0=0=1,
502.000=Con-bg.jpg=1.000=0=0=1,
536.500=Group-bg.jpg=1.000=0=0=1,
630.000=Killer7 Music - Rave On-bg.jpg=1.000=0=0=1,
99999=-nosongbg-=1.000=0=0=0 // don't automatically add -songbackground-
;
// cache tags:
#FIRSTBEAT:2.000;
#LASTBEAT:665.000;
#SONGFILENAME:Songs/toune 8/Killer7 Music - Rave On/Killer7 Music - Rave On.sm;
#HASMUSIC:1;
#HASBANNER:1;
#MUSICLENGTH:267.557;
// end cache tags

//---------------dance-single - Copied from----------------
#NOTES:
     dance-single:
     Copied from:
     Hard:
     11:
     0.910,1.000,0.460,1.000,0.619,1302.000,123.000,278.000,0.000,18.000:
0000
0000
0000
0000
0000
0000
0000
0000
0100
1000
0100
1000
0100
0010
0001
0010
,
1000
0100
0010
0001
1000
0010
0100
0001
1000
0000
0100
0000
1000
0000
0100
0000
,
0010
0001
0010
0001
0100
0010
0100
0010
,
1000
0100
0010
0100
0001
0010
0001
0010
,
0100
1000
0100
1000
0010
0100
0010
0100
,
0001
0010
0100
1000
2000
3020
2030
3200
,
0320
0032
0023
0230
2300
3020
0230
0302
,
2003
3002
0023
2030
3020
0230
0320
0032
,
2003
3200
0320
0032
0023
0230
0320
0230
,
2300
3002
0203
0000
0000
0300
0002
0000
,
0203
2000
3300
0220
0330
1000
0100
0010
,
0002
0000
0200
0000
0020
0333
2000
0000
,
0010
3002
0000
2000
3003
0001
0100
0020
,
2000
0000
0000
0000
0000
3030
0202
0303
,
2000
0200
0000
0002
3303
0010
0100
0001
,
2002
3003
0220
0330
1100
0110
0011
2002
,
3003
0101
1010
1001
0000
1000
0010
0100
,
2002
0000
0000
0000
3003
0000
0000
0000
1000
0100
1000
0010
1000
0100
1000
0001
,
1000
0100
1000
0010
1000
0100
1000
0001
0010
0001
1000
0001
0010
0001
0100
0001
,
0010
0001
1000
0001
0100
0001
0010
0001
1000
0100
1000
0010
1000
0100
1000
0001
,
1000
0100
1000
0010
1000
0100
1000
0001
0010
0001
1000
0001
0010
0001
0100
0001
,
0010
0001
1000
0001
0100
0001
1000
0001
0100
0010
1000
0001
0010
0100
1000
0001
,
0100
0010
1000
0001
0010
0100
1000
0001
0100
0010
1000
0001
0010
0100
1000
0001
,
0100
0010
1000
0001
0010
0100
1000
0000
1000
0000
0100
0000
0010
0000
0001
0000
,
1000
0010
0100
0001
0100
2000
0200
0020
,
0000
0000
0000
0000
,
0000
0001
0001
3331
0110
1001
0000
1100
,
0000
0010
0000
1010
0000
0001
0000
0022
,
0000
2200
0000
3333
1010
0101
0000
1001
,
0000
0110
0000
2000
0000
0000
0000
0200
,
0000
0000
0000
3300
0110
0011
0000
1100
,
0000
0101
0000
1010
0000
0011
0000
0110
,
0000
1001
0000
0000
0011
1100
0000
0200
,
0000
0020
0000
2000
0000
0000
0000
0002
,
0000
0000
0000
3333
1000
0100
1000
0100
,
0001
0100
0001
0100
1000
0010
1000
0010
,
0001
0100
0001
0100
1000
0100
0010
0001
,
1000
0100
0010
0001
1000
0010
0100
0001
,
1000
0010
0100
0001
1000
0100
1000
0100
,
1000
0010
1000
0010
1000
0001
1000
0001
,
1000
0100
1000
0100
0010
0001
0010
0001
,
0100
0001
0100
0001
1000
0001
1000
0001
,
0100
0000
0001
0000
0100
0000
0001
0000
1000
0100
1000
0010
1000
0100
1000
0001
,
1000
0100
1000
0010
1000
0100
1000
0001
0010
0001
1000
0001
0010
0001
0100
0001
,
0010
0001
1000
0001
0100
0001
0010
0001
1000
0100
1000
0010
1000
0100
1000
0001
,
1000
0100
1000
0010
1000
0100
1000
0001
0010
0001
1000
0001
0010
0001
0100
0001
,
0010
0001
1000
0001
0100
0001
1000
0001
0100
0010
1000
0001
0010
0100
1000
0001
,
0100
0010
1000
0001
0010
0100
1000
0001
0100
0010
1000
0001
0010
0100
1000
0001
,
0100
0010
1000
0001
0010
0100
1000
0000
2000
0000
3200
0000
0320
0000
0032
0000
,
0023
0230
2300
3200
0320
0032
2003
0200
,
0000
0300
0010
0000
0010
0000
0100
3001
,
0100
1000
0001
0000
1001
0000
1001
0000
2000
0000
3002
0000
2003
0000
3200
0000
,
0302
0023
0032
0203
2300
3002
0203
0320
,
2030
3020
0032
2003
3002
0203
0302
0023
,
2030
3200
0302
0023
0032
0203
0302
0203
,
2300
3020
2030
3200
0302
0023
0230
0302
,
0023
2030
3020
0032
0203
0320
0032
2003
,
3200
2300
3020
0230
0320
0032
0023
2030
,
3200
0302
0023
2030
3020
0032
0023
0032
,
0203
2300
3200
0302
0003
2200
3300
0022
,
0033
0220
0330
0202
0303
2020
3030
2200
,
3300
0202
0303
0022
0033
2020
3030
0220
,
0330
2002
3003
2200
3300
0022
0033
2020
,
3030
0202
0303
2200
3300
0022
0033
2200
,
3300
0220
0330
2020
3030
0202
0303
0022
,
0033
2020
3030
2200
3300
0202
0303
0220
,
0330
2200
3300
0022
0033
0102
1003
0100
,
1000
0100
0010
0000
1000
0000
0010
0000
2000
0000
0200
0000
0020
0000
0000
0000
,
3330
0200
0020
0002
0000
0000
0333
0000
,
0000
1001
0000
0000
0002
0020
0200
0000
,
0333
0020
0200
2000
0000
0000
3330
0000
,
0000
0110
0000
0000
0020
2000
0002
0000
,
3033
0002
2000
0200
0000
0000
3303
0000
,
0000
1111
0000
0000
1000
0100
0001
0100
,
1000
0010
0001
0010
1000
0100
0001
2020
,
0000
0000
0000
0000
3030
0000
0000
0000
0001
1000
0001
1000
0001
0010
0100
0010
,
1000
0001
0010
0100
1000
0100
1000
0100
0020
0000
0000
0000
1000
0000
0000
0000
,
0001
0000
0100
0000
1000
0000
0001
0230
,
0000
2300
0100
0010
0000
3002
0010
0200
,
0000
0000
0000
0000
,
0303
0000
2100
0100
3100
0000
0012
0010
,
0013
0000
0120
0100
0130
0000
2001
0001
,
3001
0000
0102
0100
0103
0000
2010
0010
,
3010
0000
1000
0010
0100
0001
0100
1000
,
1001
1000
0100
0012
0003
1100
0100
0011
,
0000
1010
0100
1001
0000
0101
0110
1100
,
0000
1100
0110
0011
0000
0011
0110
1100
,
0000
0000
1100
0000
0000
0000
0011
0000
0000
0000
1000
0010
0100
0001
0010
0100
,
1000
0100
0010
0100
1000
0001
0100
0000
2020
0000
0000
0000
0000
0000
0000
0000
,
0000
0000
0000
0000
0000
0000
0000
3030
,
0000
2000
0100
3001
0000
0200
0001
1300
,
0000
0200
0001
0310
0000
0002
0010
0200
,
0000
0000
0303
2000
,
3020
0031
0000
1001
0000
0001
0010
0100
,
2000
0000
0020
0000
0200
3330
0002
0000
,
0100
2003
0000
0002
3003
1000
0010
0200
,
0002
0000
0000
0000
0000
0303
2020
3030
,
0002
0020
0000
2000
3033
0100
0010
1000
,
2002
3003
0220
0330
0011
0110
1100
2002
,
3003
1010
0101
1001
0000
0001
0100
0010
,
2002
0000
0000
0000
0000
0000
3003
0000
1000
0100
1000
0010
1000
0100
1000
0001
,
1000
0100
1000
0010
1000
0100
1000
0001
0010
0001
1000
0001
0010
0001
0100
0001
,
0010
0001
1000
0001
0100
0001
0010
0001
1000
0100
1000
0010
1000
0100
1000
0001
,
1000
0100
1000
0010
1000
0100
1000
0001
0010
0001
1000
0001
0010
0001
0100
0001
,
0010
0001
1000
0001
0100
0001
1000
0001
0100
0010
1000
0001
0010
0100
1000
0001
,
0100
0010
1000
0001
0010
0100
1000
0001
0100
0010
1000
0001
0010
0100
1000
0001
,
0100
0010
1000
0001
0010
0100
1000
0000
0001
0010
0001
0100
0001
0010
0001
1000
,
0001
0010
0001
0100
0001
0010
0001
1000
0100
1000
0001
1000
0100
1000
0010
1000
,
0100
1000
0001
1000
0010
1000
0100
1000
0001
0010
0001
0100
0001
0010
0001
1000
,
0001
0010
0001
0100
0001
0010
0000
0000
0001
0000
0100
1000
0100
0000
0000
0001
,
0000
0010
0100
0000
0000
0000
1001
0000
1000
0010
0100
0001
0100
0000
1000
0100
,
0000
0100
1000
0000
0010
0000
0100
0000
0100
0000
1000
0010
1000
0000
0000
0100
,
0000
0001
1000
0000
0000
0000
0110
0000
0010
0001
1000
0100
1000
0000
0010
1000
,
0000
1000
0010
0000
0010
0000
0001
0000
0010
0000
0001
0100
0001
0000
0000
0010
,
0000
1000
0001
0000
0000
0000
0110
0000
0100
1000
0001
0010
0001
0000
0100
0001
,
0000
0001
0100
0000
0100
0000
0010
0000
1000
0000
0010
0001
0010
0000
0000
1000
,
0000
0100
0010
0000
0000
0000
1001
0000
0001
0100
0010
1000
0010
0000
0001
0010
,
0000
0010
0001
0000
0010
0000
0100
0000
0001
0000
0100
1000
0100
0000
0000
0001
,
0000
0010
0100
0000
0000
0000
1001
0000
1000
0010
0100
0001
0100
0000
1000
0100
,
0000
0100
1000
0000
1000
0000
0010
0000
0100
0000
0010
0001
0010
0000
0000
0100
,
0000
1000
0010
0000
0000
0000
0101
0000
0001
1000
0010
0100
0010
0000
0001
0010
,
0000
0010
0001
0000
0001
0000
0100
0000
0010
0000
0100
1000
0100
0000
0000
0010
,
0000
0001
0100
0000
0000
0000
1010
0000
1000
0001
0100
0010
0100
0000
1000
0100
,
0000
0100
1000
0000
0100
0000
0010
0000
0100
0000
0010
0001
0010
0000
0000
0100
,
0000
1000
0010
0000
0000
0000
0101
0000
0001
1000
0010
0100
0010
0000
0001
0010
,
0000
0010
0001
0000
1000
0000
0100
0000
1000
0100
1000
0100
0010
0001
0010
0001
,
1000
0001
1000
0001
1000
0100
1000
0100
0001
0100
0010
1000
0001
0010
0100
1000
,
0001
0100
0010
1000
0001
0010
0100
1000
0001
0010
0001
0010
0100
1000
0100
1000
,
0001
1000
0001
1000
0001
0010
0001
0010
1000
0010
0100
0001
1000
0100
0010
0001
,
1000
0010
0100
0001
1000
0100
0010
0001
1000
0100
1000
0100
0010
0001
0010
0001
,
1000
0001
1000
0001
1000
0100
1000
0100
0001
0100
0010
1000
0001
0010
0100
1000
,
0001
0100
0010
1000
0001
0010
0100
1000
0100
0000
0100
0000
1000
0000
0100
0000
,
0010
0001
0010
0001
0100
0001
1000
0202
,
0000
0000
0000
0000
,
0303
1010
0110
2000
0100
0010
3001
0020
,
0100
1000
0031
0200
0001
1000
0310
0020
,
1000
0001
0130
1000
0100
0010
0001
1000
,
0100
0010
0100
0001
0010
0100
1000
0010
,
0100
0001
1000
0002
0010
1000
0103
2000
,
0010
0001
3100
0020
0100
0001
1030
2000
,
0001
0100
3010
0001
0010
1000
0100
0001
,
0010
1000
0010
0100
1000
0010
0001
1000
,
0010
0000
0100
0000
0001
0000
0000
0000
0001
0000
0100
1000
0100
0000
0000
0001
,
0000
0010
0100
0000
0000
0000
1001
0000
1000
0010
0100
0001
0100
0000
1000
0100
,
0000
0100
1000
0000
0010
0000
0100
0000
0100
0000
1000
0010
1000
0000
0000
0100
,
0000
0001
1000
0000
0000
0000
0110
0000
0010
0001
1000
0100
1000
0000
0010
1000
,
0000
1000
0010
0000
0010
0000
0001
0000
0010
0000
0001
0100
0001
0000
0000
0010
,
0000
1000
0001
0000
0000
0000
0110
0000
0100
1000
0001
0010
0001
0000
0100
0001
,
0000
0001
0100
0000
0100
0000
0010
0000
1000
0000
1001
0000
0000
0000
0101
0000
,
0000
2000
0000
0010
0000
0000
0000
0010
,
0000
0000
0000
0000
3010
0000
0100
0000
0100
0000
1000
0010
1000
0000
0000
0100
,
0000
0001
1000
0000
0000
0000
0110
0000
0010
0001
1000
0100
1000
0000
0010
1000
,
0000
1000
0010
0000
1000
0000
0100
0000
0010
0000
0100
0000
1000
0000
0001
0000
,
0010
0100
0010
1000
0100
0010
0001
0010
,
0100
0000
0010
0000
0001
0000
0100
0000
0010
0000
1000
0010
1000
0000
0000
0100
,
0000
0001
1000
0000
0000
0000
0110
0000
0010
0001
1000
0100
1000
0000
0010
1000
,
0000
1000
0010
0000
0001
0000
1000
0000
1000
0010
1000
0010
1000
0000
0000
0100
,
0000
0001
1000
0000
0000
0000
0110
0000
2002
0000
0000
0000
0000
0000
0000
0000
,
0000
0000
0000
0000
,
0000
0000
0000
0000
,
0000
0000
0000
0000
,
0000
0000
0000
0000
,
0000
0000
0000
0000
,
0000
0000
0000
0000
,
0000
0000
0000
0000
,
0000
0000
0000
0000
,
0000
3003
0000
0000
;
