#TITLE:V;
#SUBTITLE:(Heavy Beat Remix);
#ARTIST:NAOKI feat.TaQ;
#TITLETRANSLIT:;
#SUBTITLETRANSLIT:;
#ARTISTTRANSLIT:;
#CREDIT:;
#BANNER:V (Heavy Beat Remix).png;
#BACKGROUND:V (Heavy Beat Remix)-bg.png;
#LYRICSPATH:;
#CDTITLE:NVLM-cdtitle.png;
#MUSIC:V (Heavy Beat Remix).mp3;
#OFFSET:-1.500;
#SAMPLESTART:53.730;
#SAMPLELENGTH:12.000;
#SELECTABLE:YES;
#BPMS:0.000=170.000;
#STOPS:;
#BGCHANGES:;
// cache tags:
#FIRSTBEAT:0.000;
#LASTBEAT:304.000;
#SONGFILENAME:Songs/toune 1 (2010)/V (Heavy Beat Remix)/V (Heavy Beat Remix).sm;
#HASMUSIC:1;
#HASBANNER:1;
#MUSICLENGTH:109.479;
// end cache tags

//---------------dance-single - ----------------
#NOTES:
     dance-single:
     :
     Hard:
     9:
     0.718,0.692,0.639,0.037,0.100,476.000,70.000,4.000,0.000,0.000:  // measure 1
1001
1100
0010
0101
,  // measure 2
1000
1010
0001
1001
,  // measure 3
0100
0110
0001
0011
,  // measure 4
1000
1010
0100
0011
,  // measure 5
0110
1100
0001
1001
,  // measure 6
0010
1100
1000
0110
,  // measure 7
0101
0011
0100
0110
,  // measure 8
0001
1001
1000
1010
,  // measure 9
0011
0101
1000
0110
,  // measure 10
0001
0011
1000
0101
,  // measure 11
0110
1010
1000
0101
,  // measure 12
0011
0110
1000
0101
,  // measure 13
0110
1010
1000
1100
,  // measure 14
0110
0101
1000
1100
,  // measure 15
0110
0001
0110
1000
,  // measure 16
0101
0110
1010
1100
,  // measure 17
1000
0100
0001
0100
0010
0001
0100
0010
,  // measure 18
1000
0001
0010
0100
1000
0001
0100
1000
,  // measure 19
0100
0010
1000
0100
0010
0001
0100
0010
,  // measure 20
1000
0100
0001
0000
0001
0100
1000
0000
,  // measure 21
0010
0100
0001
1000
,  // measure 22
0010
0100
0001
1000
0100
0001
0100
1000
,  // measure 23
0010
0100
0001
0100
1000
0100
0001
0010
,  // measure 24
1000
0010
0001
0100
0010
1000
0100
0010
,  // measure 25
0001
0100
1000
0000
1000
0100
0001
0000
,  // measure 26
0010
0100
1000
0010
,  // measure 27
0100
0001
0010
0001
0100
1000
0100
0010
,  // measure 28
1000
0001
0010
0100
1000
0010
0100
0001
,  // measure 29
1000
0100
0000
0000
0100
0010
0000
0000
0010
0001
0000
0000
0001
1000
0000
0000
,  // measure 30
1000
0100
0000
0000
1000
0100
0000
0000
1000
0010
0000
0000
1000
0010
0000
0000
,  // measure 31
0001
0001
0001
0001
,  // measure 32
0100
0010
0100
0010
1000
0100
1000
0100
,  // measure 33
0010
0000
0010
0000
0001
0100
0001
1000
,  // measure 34
0100
0000
0010
0000
0001
0100
1000
0100
,  // measure 35
0010
0000
1000
0000
0001
1000
0100
0010
,  // measure 36
0010
0000
0001
0000
0100
0010
0010
0100
,  // measure 37
1000
0001
1000
0001
0100
0010
0100
0010
,  // measure 38
1000
0000
0100
0010
0100
0000
1000
0000
0001
0000
0010
0000
0100
0000
0000
0000
,  // measure 39
0101
0110
1010
1100
,  // measure 40
0001
0000
1000
0100
1000
0000
0010
0000
0100
0000
0001
0000
0010
0000
0000
0000
,  // measure 41
1100
1010
0110
0101
,  // measure 42
1000
0000
0001
0010
0001
0000
0100
0000
0010
0000
1000
0000
0100
0000
0000
0000
,  // measure 43
0011
1001
1010
0110
,  // measure 44
0100
0000
0001
1000
0001
0000
0010
0000
0100
0000
1000
0000
0010
0000
0000
0000
,  // measure 45
0100
0001
0100
0001
2002
0000
3003
0000
,  // measure 46
0010
0100
0001
1000
0100
0010
0001
0100
,  // measure 47
0010
1000
0001
0010
1000
0010
0001
0000
,  // measure 48
0100
0010
1000
0100
0001
0100
0010
0001
,  // measure 49
0100
0010
1000
0001
0010
0100
1000
0000
,  // measure 50
0001
0001
0100
0010
1000
1000
0100
0010
,  // measure 51
1001
0000
1000
0010
0100
0001
0010
0100
,  // measure 52
1000
0010
0100
0001
1000
0100
0010
0001
,  // measure 53
0100
0100
0010
1000
0001
0001
0010
0100
,  // measure 54
1001
0000
0010
0100
0010
1000
0100
0010
,  // measure 55
0100
0001
0010
0100
1000
0010
0100
0000
,  // measure 56
1000
0001
0010
1000
0010
0001
0100
0010
,  // measure 57
1000
0100
0001
0100
0010
1000
0010
0000
,  // measure 58
0001
0100
0010
1000
0100
0001
0010
0000
,  // measure 59
0100
0001
1000
0100
0010
0001
0100
0000
,  // measure 60
1000
0100
1000
0100
0001
0010
0001
0010
,  // measure 61
0100
0000
1000
0010
1000
0000
0001
0000
0010
0000
0010
0000
0100
0000
0000
0000
,  // measure 62
1100
1010
0011
0101
,  // measure 63
0010
0000
1000
0100
1000
0000
0001
0000
0010
0000
1000
0000
0100
0000
0000
0000
,  // measure 64
0011
1001
1100
0110
,  // measure 65
0001
0000
0100
0010
0100
0000
1000
0000
0010
0000
0001
0000
0100
0000
0000
0000
,  // measure 66
1001
1100
0101
1001
,  // measure 67
1000
0000
0010
0100
0010
0000
0001
0000
0100
0000
1000
0000
0010
0000
0000
0000
,  // measure 68
1000
0100
0001
0100
1000
0100
0001
0100
,  // measure 69
0010
0000
0001
0100
0001
0000
0010
0000
0100
0000
1000
0000
0010
0000
0100
0000
,  // measure 70
0001
0000
1000
0100
1000
0000
0010
0000
0100
0000
0001
0000
1000
0000
0100
0000
,  // measure 71
0010
0000
0001
1000
0001
0000
1000
0000
0100
0000
0001
0000
0100
0000
0010
0000
,  // measure 72
0001
0000
1000
0010
1000
0000
0100
0000
0001
0000
0100
0000
0010
0000
1000
0000
,  // measure 73
0100
0000
0001
0010
0001
0000
0100
0000
0010
0000
1000
0000
0001
0000
0100
0000
,  // measure 74
0010
0000
1000
0100
1000
0000
0100
0000
0010
0000
0001
0000
0100
0000
0001
0000
,  // measure 75
2002
0000
0000
0000
,  // measure 76
0000
0000
0000
3003
;

//---------------dance-single - ----------------
#NOTES:
     dance-single:
     :
     Challenge:
     11:
     1.000,1.000,1.000,0.018,1.000,813.000,124.000,2.000,0.000,0.000:  // measure 1
1001
1000
1100
0000
0010
0001
0101
0000
,  // measure 2
1000
1000
1010
0000
0001
0001
1001
0000
,  // measure 3
0100
0100
0110
0000
0001
0001
0011
0000
,  // measure 4
1000
1000
1010
0000
0100
0000
0011
0010
,  // measure 5
0110
0100
1100
0000
0001
1000
1001
0000
,  // measure 6
0010
1000
1100
0000
1000
0010
0110
0100
,  // measure 7
0101
0001
0011
0000
0100
0100
0110
0000
,  // measure 8
0001
0001
1001
0000
1000
1000
1010
0010
,  // measure 9
0011
0001
0101
0000
1000
0010
0110
0000
,  // measure 10
0001
0001
0011
0000
1000
0001
0101
0100
,  // measure 11
0110
0010
1010
0000
1000
0001
0101
0100
,  // measure 12
0011
0010
0110
0000
1000
0000
0101
0100
,  // measure 13
0110
0010
1010
0000
1000
1000
1100
0100
,  // measure 14
0110
0010
0101
0000
1000
1000
1100
0000
,  // measure 15
0110
0110
1001
0000
0110
1001
1001
0000
,  // measure 16
0101
0100
0110
0010
1010
1000
1100
0100
,  // measure 17
0010
0001
0010
0001
0100
0010
0100
0010
1000
0001
1000
0001
1000
0001
0100
0001
,  // measure 18
0100
0001
0100
0001
0010
0001
0010
0100
1000
0100
1000
0100
1000
0010
1000
0010
,  // measure 19
1000
0010
1000
0010
0100
0001
0100
0001
0100
0001
0100
0010
1000
0100
0010
0001
,  // measure 20
1100
0010
1001
0100
0001
0100
1100
0010
,  // measure 21
1001
1000
0100
0010
0001
0100
1001
1000
,  // measure 22
0010
0100
0010
0100
0001
0010
0001
0010
0100
1000
0100
1000
0010
0100
0010
0100
,  // measure 23
0001
1000
0001
1000
0100
0010
0100
0010
0001
1000
0010
0100
0001
1000
0010
0100
,  // measure 24
0001
1000
0100
0010
0001
1000
0100
0010
0100
1000
0001
0100
0010
1000
0100
0010
,  // measure 25
1001
0100
1100
0010
0001
0100
0101
1000
,  // measure 26
0010
0001
0100
0010
1000
0100
0011
0001
,  // measure 27
1000
0010
1000
0001
0010
0001
0100
0010
0100
1000
0010
1000
0001
0010
0001
0100
,  // measure 28
0010
0100
0010
1000
0100
0010
0001
0100
0010
1000
0001
0010
0100
1000
0010
0100
,  // measure 29
0001
1000
0001
0000
0100
0010
0100
0000
0010
0001
0010
0000
0001
1000
0001
0000
,  // measure 30
1000
0100
0010
0000
1000
0100
0010
0000
1000
0010
0001
0000
1000
0010
0001
0000
,  // measure 31
0101
0011
1001
0101
,  // measure 32
0110
0000
1001
0000
0110
0000
1001
0000
0100
0010
0100
0010
0100
0010
0100
0010
,  // measure 33
0101
0001
0110
1000
0001
0100
0001
1000
,  // measure 34
1100
0100
0110
0010
0001
0100
1000
0100
,  // measure 35
0011
0001
1001
0100
0001
1000
0100
0010
,  // measure 36
0011
0001
1001
1000
0100
0010
0010
0100
,  // measure 37
1010
0000
0101
0000
1010
0000
0101
0000
1000
0010
1000
0100
1000
0010
1000
0100
,  // measure 38
1001
0000
0100
0010
0100
0010
0100
0010
0100
0000
0001
0000
0001
0000
0010
0000
,  // measure 39
0110
0001
1100
0010
0101
0001
1001
0100
,  // measure 40
0011
0000
1000
0100
1000
0100
1000
0100
1000
0000
0001
0000
0001
0000
0010
0000
,  // measure 41
1100
1000
1010
0010
0110
0100
0101
0001
,  // measure 42
1100
0000
0001
0010
0001
0010
0100
0010
0100
0000
1000
0000
1000
0000
0100
0000
,  // measure 43
0011
0010
1001
0100
1010
0001
0110
1000
,  // measure 44
1100
0000
0001
1000
0001
1000
0001
1000
0100
0000
0010
0000
0010
0000
0010
0000
,  // measure 45
1100
0000
0101
0000
1100
0000
0101
0000
1000
0010
1000
0010
1000
0010
1000
0010
,  // measure 46
0100
0001
0100
0001
0010
0100
0010
0001
1000
0010
0100
0010
1000
0001
0010
0100
,  // measure 47
1000
0010
0100
0001
1000
0100
0010
0001
0100
0010
1000
0100
0010
0100
0010
0001
,  // measure 48
0100
0001
1000
0100
1000
0010
0100
0010
1000
0001
0010
0100
0001
0100
1000
0010
,  // measure 49
0100
0001
1000
0100
0010
0001
0100
0010
1000
0001
0010
0100
1000
0001
0100
0010
,  // measure 50
1000
0100
0001
0100
1000
0010
0100
0001
0010
0100
1000
0010
0001
0100
0010
0100
,  // measure 51
1001
0000
0000
0001
1000
0100
0010
0001
0100
1000
0001
0100
0010
0001
0100
0010
,  // measure 52
1000
0100
0010
0001
0100
0010
0001
0100
1000
0010
0100
1000
0010
0100
0001
1000
,  // measure 53
0100
0010
0100
0010
0001
0100
1000
0100
0001
0010
0001
0010
0100
1000
0100
1000
,  // measure 54
0011
0000
0000
0001
0010
0100
1000
0100
0010
0001
1000
0010
0100
0001
0010
0100
,  // measure 55
1000
0010
0001
0100
0010
1000
0100
0010
0001
0100
0010
1000
0100
0001
0100
0010
,  // measure 56
1000
0100
0001
0100
0010
0100
1000
0001
0010
0100
0001
1000
0100
0001
0010
0100
,  // measure 57
1000
0010
0100
0001
0010
0100
1000
0100
0010
0001
1000
0100
0010
0001
0100
0010
,  // measure 58
1000
0001
0100
0010
0001
0100
1000
0010
0100
1000
0001
0100
0010
0001
1000
0010
,  // measure 59
0100
0010
0001
0100
1000
0010
0100
1000
0010
0100
0001
0010
0100
1000
0011
0000
,  // measure 60
1000
0010
0100
0010
1000
0010
0100
0010
0001
0100
0010
0100
0001
0100
0010
0100
,  // measure 61
1001
0000
1000
0010
1000
0100
0010
0100
0010
0000
0001
0000
0001
0000
0001
0000
,  // measure 62
1100
0001
1010
0100
0011
1000
0101
0100
,  // measure 63
0011
0000
1000
0100
1000
0100
1000
0001
0100
0000
0010
0000
1000
0000
1000
0000
,  // measure 64
0011
0100
1001
0010
1100
0001
0110
1000
,  // measure 65
0011
0000
0100
0010
0100
0010
1000
0100
0010
0000
0001
0000
0100
0000
0010
0000
,  // measure 66
1001
0001
1100
0010
0101
0100
1001
0100
,  // measure 67
1001
0000
0010
0100
0010
0100
0001
1000
0100
0000
0010
0000
0001
0000
0001
0000
,  // measure 68
1000
0010
0100
0010
0001
1000
0100
0010
1000
0010
0100
0010
0001
1000
0100
1000
,  // measure 69
0011
0000
0001
0100
0001
0100
0010
1000
0100
0000
1000
0000
1000
0000
0100
0000
,  // measure 70
0011
0000
1000
0100
1000
0100
0010
0001
0100
0000
0001
0000
1000
0000
0100
0000
,  // measure 71
0110
0000
0001
1000
0001
0100
1000
0010
0100
0000
0001
0000
0001
0000
0010
0000
,  // measure 72
0110
0000
1000
0010
1000
0001
0100
0010
0001
0000
0100
0000
0010
0000
1000
0000
,  // measure 73
1100
0000
0001
0010
0001
1000
0100
0010
0100
0000
1000
0000
0001
0000
0100
0000
,  // measure 74
0011
0000
1000
0100
1000
0010
0100
0001
0010
0000
0101
0000
0110
0000
1001
0000
,  // measure 75
2002
0000
0000
0000
,  // measure 76
0000
0000
0000
3003
;

//---------------dance-single - ----------------
#NOTES:
     dance-single:
     :
     Medium:
     8:
     0.568,0.554,0.575,0.201,0.000,350.000,63.000,22.000,0.000,0.000:  // measure 1
1000
1100
0001
0101
,  // measure 2
1000
1010
0001
1001
,  // measure 3
0100
0110
0001
0011
,  // measure 4
1000
1010
0100
0011
,  // measure 5
1000
1100
0001
1001
,  // measure 6
0010
1100
1000
0110
,  // measure 7
0001
0011
0100
0110
,  // measure 8
0001
1001
1000
1010
,  // measure 9
0001
0101
1000
0110
,  // measure 10
0001
0011
1000
0101
,  // measure 11
0100
1010
1000
0101
,  // measure 12
0010
0110
1000
0101
,  // measure 13
0010
1010
1000
1100
,  // measure 14
0100
0101
1000
1100
,  // measure 15
0110
0000
0110
0000
,  // measure 16
0101
0110
1010
1100
,  // measure 17
0001
0100
0010
0000
0010
1000
0100
0000
,  // measure 18
0100
0010
0001
0000
0001
1000
0010
0000
,  // measure 19
0010
0100
0100
0000
0001
1000
0100
0000
,  // measure 20
0010
0001
0001
1000
,  // measure 21
0010
0100
0001
1000
,  // measure 22
0001
0100
0010
0000
1000
0100
0010
0000
,  // measure 23
0001
0001
1000
0000
0010
0100
0001
0000
,  // measure 24
0010
0100
1000
0000
0100
0010
0001
0000
,  // measure 25
1000
1000
0001
0100
,  // measure 26
0010
0001
1000
0010
,  // measure 27
0100
0001
1000
0000
1000
0100
0010
0000
,  // measure 28
0001
0100
0010
0000
1000
0100
0100
0000
,  // measure 29
2000
3200
0320
0032
,  // measure 30
1003
1000
1000
1000
,  // measure 31
0001
0001
0001
0001
,  // measure 32
0100
0010
0100
0010
0220
0000
0330
0000
,  // measure 33
0010
0000
0010
0000
0001
0100
0001
0000
,  // measure 34
1000
0000
0100
0000
0001
0100
1000
0000
,  // measure 35
0010
0000
0100
0000
0001
1000
0100
0000
,  // measure 36
0010
0000
0001
0000
0100
0010
1000
0000
,  // measure 37
0100
0001
0010
0000
2002
0000
3003
0000
,  // measure 38
0220
0000
0000
0330
,  // measure 39
1000
1001
0010
1100
,  // measure 40
2002
0000
0000
3003
,  // measure 41
1000
1010
0100
0101
,  // measure 42
2020
0000
0000
3030
,  // measure 43
0001
1001
0010
0110
,  // measure 44
2002
0000
0000
3003
,  // measure 45
1000
0100
1000
0000
2002
0000
3003
0000
,  // measure 46
0010
0100
0001
0000
1000
0100
0010
0000
,  // measure 47
0001
1000
1000
0000
0100
0010
0001
0000
,  // measure 48
0100
1000
0010
0000
1000
0100
0001
0000
,  // measure 49
0001
0100
1000
0000
0010
0100
0001
0000
,  // measure 50
0001
1000
0010
0000
0010
0100
1000
0000
,  // measure 51
1001
1000
0100
0010
,  // measure 52
0001
0010
0100
0000
1000
0100
0010
0000
,  // measure 53
0001
0100
1000
0000
1000
0001
0010
0000
,  // measure 54
1001
0010
0100
1000
,  // measure 55
0100
0001
0010
0000
1000
0010
0100
0000
,  // measure 56
0001
0100
0010
0000
1000
0100
0010
0000
,  // measure 57
0001
0100
0100
0000
1000
0100
0100
0000
,  // measure 58
0001
0100
0010
0000
0100
0000
1001
0000
,  // measure 59
0100
0001
1000
0000
0010
0000
0101
0000
,  // measure 60
1100
1100
0011
0011
,  // measure 61
2002
0000
0000
3003
,  // measure 62
0100
1010
0001
0101
,  // measure 63
0100
0010
1000
0100
0010
0001
0001
0000
,  // measure 64
0010
1001
0100
0110
,  // measure 65
0001
0100
0010
1000
0100
0010
0010
0000
,  // measure 66
1000
1100
0001
1001
,  // measure 67
1000
0100
0001
0100
0010
0001
0001
0000
,  // measure 68
1000
1000
0010
0010
,  // measure 69
0100
0010
1000
0100
0010
0001
0001
0000
,  // measure 70
0010
0100
1000
0010
0100
0001
0001
0000
,  // measure 71
1000
0100
0001
0100
1000
0010
0010
0000
,  // measure 72
0001
0100
1000
0100
0001
0010
0010
0000
,  // measure 73
0100
1000
0010
0100
0001
1000
1000
0000
,  // measure 74
0100
0010
0001
0100
0010
1000
1000
0000
,  // measure 75
2002
0000
0000
0000
,  // measure 76
0000
0000
0000
3003
;

//---------------dance-single - ----------------
#NOTES:
     dance-single:
     :
     Easy:
     6:
     0.463,0.519,0.210,0.256,0.000,304.000,23.000,28.000,0.000,0.000:  // measure 1
1000
0100
0001
0100
,  // measure 2
1000
0010
0001
1000
,  // measure 3
0100
0010
0001
0010
,  // measure 4
1000
0010
0100
0001
,  // measure 5
1000
0100
0001
1000
,  // measure 6
0010
0100
1000
0010
,  // measure 7
0001
0010
0100
1000
,  // measure 8
0001
1000
0100
0010
,  // measure 9
0001
0100
1000
0010
,  // measure 10
0001
0010
1000
0001
,  // measure 11
0100
0010
1000
0100
,  // measure 12
0010
0001
1000
0100
,  // measure 13
0001
0010
1000
0100
,  // measure 14
0010
0001
1000
0100
,  // measure 15
0110
0000
0110
0000
,  // measure 16
0101
0110
1010
1100
,  // measure 17
0001
0100
0010
0000
1000
0000
0100
0000
,  // measure 18
0100
0010
0001
0000
1000
0000
0100
0000
,  // measure 19
0010
0010
0100
0100
,  // measure 20
0010
0001
0001
1000
,  // measure 21
0010
0100
0001
1000
,  // measure 22
0001
0100
0010
0000
1000
0000
0100
0000
,  // measure 23
0001
0001
1000
0000
0010
0000
0100
0000
,  // measure 24
0001
0001
0100
0010
,  // measure 25
1000
1000
0001
0100
,  // measure 26
0010
0001
1000
0010
,  // measure 27
0100
0001
1000
0000
0100
0000
0010
0000
,  // measure 28
0001
0100
0010
0000
1000
0000
0100
0000
,  // measure 29
2000
3200
0320
0032
,  // measure 30
1003
1000
1000
1000
,  // measure 31
0001
0001
0001
0001
,  // measure 32
0100
0100
0220
0330
,  // measure 33
0010
0000
0010
0000
0001
0100
0001
0000
,  // measure 34
1000
0000
0100
0000
1000
0100
1000
0000
,  // measure 35
0010
0000
0100
0000
0001
1000
0001
0000
,  // measure 36
0010
0000
0001
0000
0100
0010
0100
0000
,  // measure 37
0001
0001
2002
3003
,  // measure 38
0220
0000
0000
0330
,  // measure 39
1000
0100
0010
0001
,  // measure 40
2002
0000
0000
3003
,  // measure 41
1000
0010
0100
0001
,  // measure 42
2002
0000
0000
3003
,  // measure 43
0100
0001
0010
0100
,  // measure 44
2002
0000
0000
3003
,  // measure 45
0010
0100
2002
3003
,  // measure 46
0010
0100
0001
0000
1000
0000
0100
0000
,  // measure 47
0001
1000
1000
0000
0100
0000
0100
0000
,  // measure 48
0001
0001
0010
0000
0100
0000
1000
0000
,  // measure 49
0010
0100
0010
0000
1000
0000
0100
0000
,  // measure 50
0020
0031
0200
0310
,  // measure 51
1001
1000
0100
0010
,  // measure 52
0001
0010
0001
0000
1000
0000
0010
0000
,  // measure 53
2000
3100
0020
0130
,  // measure 54
1001
0010
0100
1000
,  // measure 55
0100
0001
0100
0000
0001
0000
0010
0000
,  // measure 56
0100
1000
0100
0000
1000
0000
0010
0000
,  // measure 57
0001
0100
0001
0000
1000
0000
0010
0000
,  // measure 58
0001
0010
0100
1001
,  // measure 59
0100
1000
0010
0101
,  // measure 60
1100
1100
0011
0011
,  // measure 61
2002
0000
0000
3003
,  // measure 62
0100
0010
0001
0001
,  // measure 63
0100
0010
1000
0000
0001
0000
0100
0000
,  // measure 64
0010
1000
0100
0010
,  // measure 65
0001
0100
0001
0000
0010
0000
0100
0000
,  // measure 66
1000
0100
0001
0100
,  // measure 67
1000
0100
0001
0000
0001
0000
0100
0000
,  // measure 68
0002
1003
0200
0310
,  // measure 69
0001
0001
0001
0000
0010
0000
0100
0000
,  // measure 70
1000
1000
1000
0000
0010
0000
0001
0000
,  // measure 71
0100
0100
0100
0000
0001
0000
1000
0000
,  // measure 72
0010
0010
0010
0000
0001
0000
0100
0000
,  // measure 73
1000
1000
1000
0000
0100
0000
0010
0000
,  // measure 74
0001
0010
0001
0000
0100
0000
0010
0000
,  // measure 75
2002
0000
0000
0000
,  // measure 76
0000
0000
0000
3003
;

//---------------dance-double - ----------------
#NOTES:
     dance-double:
     :
     Hard:
     9:
     0.672,0.625,0.548,0.155,0.000,438.000,60.000,17.000,0.000,5.000:  // measure 1
01000000
00110000
00010000
00001100
,  // measure 2
00000010
00001001
00000100
00011000
,  // measure 3
00100000
10010000
01000000
00110000
,  // measure 4
00010000
00001100
00000010
00001001
,  // measure 5
00000001
00001100
00010000
00011000
,  // measure 6
00100000
10010000
01000000
00110000
,  // measure 7
00001000
00000110
00000001
00001100
,  // measure 8
00010000
01100000
10000000
00110000
,  // measure 9
00001000
00011000
00000100
00000011
,  // measure 10
00000001
00001100
00000010
00011000
,  // measure 11
00100000
01100000
10000000
00110000
,  // measure 12
00001000
00001100
00000010
00001001
,  // measure 13
00000100
00011000
00100000
11000000
,  // measure 14
00010000
00110000
00001000
00011000
,  // measure 15
00000100
00000011
00001000
00010100
,  // measure 16
00000100
00011000
00100000
01100000
,  // measure 17
10000000
01000000
00100000
00001000
00010000
00000100
00000010
00000001
,  // measure 18
00000100
00001000
00000100
00000010
00010000
00001000
00100000
00010000
,  // measure 19
01000000
00100000
10000000
01000000
00010000
00001000
00000100
00000010
,  // measure 20
00000001
00000100
00001000
00010000
,  // measure 21
00100000
10000000
01000000
00010000
,  // measure 22
00001000
00000100
00000010
00001000
00010000
00100000
01000000
10000000
,  // measure 23
00100000
01000000
00001000
00010000
00001000
00100000
00010000
00001000
,  // measure 24
00000100
00000010
00000001
00000100
00001000
00010000
00100000
01000000
,  // measure 25
10000000
00010000
00100000
00001000
,  // measure 26
00010000
00000100
00000010
00000001
,  // measure 27
00000100
00001000
00010000
00100000
01000000
10000000
00100000
01000000
,  // measure 28
00001000
00010000
00000100
00000010
00000001
00000100
00001000
00010000
,  // measure 29
00110000
01100000
11000000
10010000
,  // measure 30
00110000
00101000
00011000
00010100
,  // measure 31
00000010
00000010
00000010
00000010
,  // measure 32
00001000
00000100
00001000
00000100
00010000
00001000
00010000
00001000
,  // measure 33
00100000
00000000
00100000
00000000
01000000
10000000
10010000
00000000
,  // measure 34
00100000
00000000
00010000
00000000
00001000
00000100
00000110
00000000
,  // measure 35
00000001
00000000
00000100
00000000
00001000
00010000
01010000
00000000
,  // measure 36
01000000
00000000
00100000
00000000
00010000
00001000
00001100
00000000
,  // measure 37
00000010
00000001
00000010
00000001
00001000
00000100
00001000
00000100
,  // measure 38
00022000
00000000
00100000
00033000
,  // measure 39
01000000
00100000
10000000
01000000
00100000
00010000
00001000
00000100
,  // measure 40
00020200
00000000
00001000
00030300
,  // measure 41
00001000
00000100
00000010
00000001
00000100
00001000
00010000
00100000
,  // measure 42
02200000
00000000
00001000
03300000
,  // measure 43
10000000
01000000
00100000
00010000
00001000
00000100
00000010
00001000
,  // measure 44
00002200
00000000
00010000
00003300
,  // measure 45
00000100
00010000
00001000
00100000
00010000
01000000
01100000
00000000
,  // measure 46
10000000
00100000
01000000
00001000
00010000
00000100
00000010
00000001
,  // measure 47
00000100
00001000
00010000
00100000
10000000
01000000
00100000
10000000
,  // measure 48
00010000
00100000
00001000
00010000
00000100
00000010
00000001
00000100
,  // measure 49
00001000
00010000
00100000
01000000
10000000
00010000
01000000
00001000
,  // measure 50
00010000
00000100
00001000
00000010
00000100
00000001
00000010
00000100
,  // measure 51
00002000
00000000
00003010
00010000
00001000
00100000
00010000
01000000
,  // measure 52
00100000
10000000
01000000
00010000
00001000
00000100
00000001
00000010
,  // measure 53
00000100
00001000
00000010
00010000
00000100
00010000
00001000
00100000
,  // measure 54
00020000
00000000
01030000
00100000
10000000
01000000
00010000
00001000
,  // measure 55
00000100
00000010
00001000
00010000
00100000
01000000
10000000
00100000
,  // measure 56
01000000
00001000
00010000
00000100
00001000
00000010
00000100
00000001
,  // measure 57
00000010
00001000
00000010
00000001
00000100
00001000
00010000
00100000
,  // measure 58
10000000
01000000
00100000
10000000
00100000
00010000
01000000
00001000
,  // measure 59
00010000
00000100
00000010
00000001
00001000
00000100
00010100
00000000
,  // measure 60
00001000
00000100
00001000
00000100
00010000
00001000
00010000
00001000
,  // measure 61
00202000
00000000
01000000
00303000
,  // measure 62
10000000
01000000
00100000
00010000
00001000
00000100
00000010
00000001
,  // measure 63
00001002
00000100
00000010
00000103
,  // measure 64
00001000
00000100
00010000
00001000
00100000
00010000
01000000
00100000
,  // measure 65
20010000
00100000
01000000
30100000
,  // measure 66
00010000
01000000
00001000
00010000
00000100
00001000
00000010
00000100
,  // measure 67
00000120
00001000
00010000
00001030
,  // measure 68
00000100
00010000
00001000
00100000
00010000
01000000
00100000
10000000
,  // measure 69
01000000
00100000
00010000
00001000
00000100
00000010
00000011
00000000
,  // measure 70
00000001
00001000
00000100
00010000
00001000
00100000
00110000
00000000
,  // measure 71
01000000
00010000
10000000
01000000
00100000
00001000
00011000
00000000
,  // measure 72
00010000
00000100
00000010
00000001
00000100
00001000
00011000
00000000
,  // measure 73
00100000
01000000
10000000
00010000
01000000
00001000
00011000
00000000
,  // measure 74
00010000
00000100
00000010
00000001
00001000
00000100
00010000
00001000
,  // measure 75
00220000
00000000
00000000
00000000
,  // measure 76
00000000
00000000
00000000
00000000
,  // measure 77
00330000
00000000
00000000
00000000
;

//---------------dance-double - ----------------
#NOTES:
     dance-double:
     :
     Challenge:
     11:
     0.866,0.972,0.603,0.064,0.283,591.000,66.000,7.000,0.000,0.000:  // measure 1
01000000
00010000
00110000
00000000
00010000
00000100
00001100
00000000
,  // measure 2
00000010
00000100
00001001
00000000
00000100
00010000
00011000
00000000
,  // measure 3
00100000
01000000
10010000
00000000
01000000
00010000
00110000
00000000
,  // measure 4
00010000
00000100
00001100
00000000
00000010
00000100
00001001
00000000
,  // measure 5
00000001
00000010
00001100
00000000
00010000
00001000
00011000
00000000
,  // measure 6
00100000
01000000
10010000
00000000
01000000
10000000
00110000
00000000
,  // measure 7
00001000
00000100
00000110
00000000
00000001
00000010
00001100
00000000
,  // measure 8
00010000
01000000
01100000
00000000
10000000
01000000
00110000
00000000
,  // measure 9
00001000
00010000
00011000
00000000
00000100
00001000
00000011
00000000
,  // measure 10
00000001
00000010
00001100
00000000
00000010
00000100
00011000
00000000
,  // measure 11
00100000
00010000
01100000
00000000
10000000
01000000
00110000
00000000
,  // measure 12
00001000
00010000
00001100
00000000
00000010
00000100
00001001
00000000
,  // measure 13
00000100
00000010
00011000
00000000
00100000
00010000
11000000
00000000
,  // measure 14
00010000
01000000
00110000
00000000
00001000
00100000
00011000
00000000
,  // measure 15
00000100
00001000
00000011
00000000
00001000
00000010
00010100
00000000
,  // measure 16
00000100
00010000
00011000
00000000
00100000
00010000
01100000
00000000
,  // measure 17
10010000
01000000
00100000
00001000
00010000
00000100
00000010
00000001
,  // measure 18
00000100
00001000
00000100
00000010
00010000
00001000
00100000
00010000
,  // measure 19
01000000
00100000
10000000
01000000
00010000
00001000
00000100
00000010
,  // measure 20
00000011
00000000
00000101
00000000
00001000
00000100
00010000
00000000
,  // measure 21
00101000
00000000
10100000
00000000
01000000
00100000
00011000
00000000
,  // measure 22
00001100
00000100
00000010
00001000
00010000
00100000
01000000
10000000
,  // measure 23
00100000
01000000
00001000
00010000
00001000
00100000
00010000
00001000
,  // measure 24
00000100
00000010
00000001
00000100
00001000
00010000
00100000
01000000
,  // measure 25
11000000
00000000
00010000
10000000
00100000
01000000
00001000
00000000
,  // measure 26
00011000
00000000
00000100
00001000
00000010
00000100
00000011
00000000
,  // measure 27
00000110
00001000
00010000
00100000
01000000
10000000
00100000
01000000
,  // measure 28
00001000
00010000
00000100
00000010
00000001
00000100
00001000
00010000
,  // measure 29
00100000
01000000
00000000
00000000
10000000
00010000
00000000
00000000
00100000
00001000
00000000
00000000
00010000
00000100
00000000
00000000
,  // measure 30
00001000
00000010
00000000
00000000
00000100
00000001
00000000
00000000
00000001
00000010
00000000
00000000
00000100
00001000
00000000
00000000
,  // measure 31
00000020
00000230
00000320
00000130
,  // measure 32
00001100
00000000
00000100
00000000
00001000
00000000
00000100
00000000
00010000
00001000
00010000
00001000
00010000
00000000
00011000
00000000
,  // measure 33
00101000
00000000
00010000
00100000
01000000
10000000
00010000
01000000
,  // measure 34
01001000
00000000
00010000
00001000
00000100
00000010
00000001
00001000
,  // measure 35
00001100
00000000
00000100
00010000
00001000
00100000
00010000
01000000
,  // measure 36
01100000
00000000
10000000
01000000
00100000
00010000
00001000
00000100
,  // measure 37
00000010
00000001
00000010
00000001
00001000
00000100
00001000
00000100
,  // measure 38
00010000
00000000
00001000
00100000
00001000
00100000
00001000
00100000
00001000
00000000
00010000
00000000
00010000
00000000
00010000
00000000
,  // measure 39
01000000
00100000
10000000
01000000
00100000
00010000
00001000
00000100
,  // measure 40
00000010
00000000
00000001
00001000
00000001
00001000
00000001
00001000
00000001
00000000
00000010
00000000
00000100
00000000
00000100
00000000
,  // measure 41
00001000
00000100
00000010
00000001
00000100
00001000
00010000
00100000
,  // measure 42
01000000
00000000
10000000
00010000
10000000
00010000
10000000
00010000
10000000
00000000
00100000
00000000
01000000
00000000
00010000
00000000
,  // measure 43
10000000
01000000
00100000
00010000
00001000
00000100
00000010
00000001
,  // measure 44
00000100
00000000
00000010
00001000
00000010
00001000
00000010
00001000
00000010
00000000
00010000
00000000
00001000
00000000
00010000
00000000
,  // measure 45
00000100
00000000
00010000
00000000
00001000
00000000
00100000
00000000
00010000
01000000
00010000
00000000
01000000
00100000
01000000
00000000
,  // measure 46
10010000
00100000
01000000
00001000
00010000
00000100
00000010
00000001
,  // measure 47
00000100
00001000
00010000
00100000
10000000
01000000
00100000
10000000
,  // measure 48
00010000
00100000
00001000
00010000
00000100
00000010
00000001
00000100
,  // measure 49
00001000
00010000
00100000
01000000
10000000
00010000
01000000
00001000
,  // measure 50
00010000
00000100
00001000
00000010
00000100
00000001
00000010
00000100
,  // measure 51
00002100
00000000
00003010
00010000
00001000
00100000
00010000
01000000
,  // measure 52
00100000
10000000
01000000
00010000
00001000
00000100
00000001
00000010
,  // measure 53
00000100
00001000
00000010
00010000
00000100
00010000
00001000
00100000
,  // measure 54
00120000
00000000
01030000
00100000
10000000
01000000
00010000
00001000
,  // measure 55
00000100
00000010
00001000
00010000
00100000
01000000
10000000
00100000
,  // measure 56
01000000
00001000
00010000
00000100
00001000
00000010
00000100
00000001
,  // measure 57
00000010
00001000
00000010
00000001
00000100
00001000
00010000
00100000
,  // measure 58
10000000
01000000
00100000
10000000
00100000
00010000
01000000
00001000
,  // measure 59
00010000
00000100
00000010
00000001
00001000
00000100
00010100
00000000
,  // measure 60
00001000
00000010
00001000
00000000
00001000
00000100
00010000
00000000
00010000
00001000
00010000
00000000
00010000
00001000
00100000
00000000
,  // measure 61
01100000
00000000
10000000
00010000
10000000
00010000
10000000
00010000
10000000
00000000
01000000
00000000
00100000
00000000
00010000
00000000
,  // measure 62
00010000
01000000
00100000
00010000
00001000
00000100
00000010
00000001
,  // measure 63
00001001
00000000
00000100
00000010
00000100
00000010
00000100
00000010
00000100
00000000
00001000
00000000
00000001
00000000
00000100
00000000
,  // measure 64
00001000
00000100
00010000
00001000
00100000
00010000
01000000
00100000
,  // measure 65
10010000
00000000
10000000
01000000
10000000
01000000
10000000
01000000
00100000
00000000
00010000
00000000
01000000
00000000
00100000
00000000
,  // measure 66
00010000
01000000
00001000
00010000
00000100
00001000
00000010
00000100
,  // measure 67
00001001
00000000
00001000
00000100
00001000
00000100
00001000
00000100
00010000
00000000
00000100
00000000
00001000
00000000
00010000
00000000
,  // measure 68
00001000
00010000
00000000
00000000
00010000
00100000
00000000
00000000
00100000
01000000
00000000
00000000
01000000
10000000
01000000
00000000
,  // measure 69
01100000
00000000
00010000
00001000
00010000
00001000
00010000
00001000
00010000
00000000
00000100
00000000
00000010
00000000
00000001
00000000
,  // measure 70
00001001
00000000
00001000
00000100
00001000
00000100
00001000
00000100
00010000
00000000
00001000
00000000
00100000
00000000
00010000
00000000
,  // measure 71
01010000
00000000
10000000
00100000
10000000
00100000
10000000
00100000
10000000
00000000
01000000
00000000
00100000
00000000
00010000
00000000
,  // measure 72
00011000
00000000
00001000
00000100
00001000
00000100
00001000
00000100
00000010
00000000
00000001
00000000
00000100
00000000
00000010
00000000
,  // measure 73
00011000
00000000
00001000
00100000
00001000
00100000
00001000
00100000
00010000
00000000
01000000
00000000
00100000
00000000
10000000
00000000
,  // measure 74
11000000
00000000
00100000
00010000
00100000
00010000
00100000
00010000
01000000
00000000
00001000
00000000
00011000
00000000
01010000
00000000
,  // measure 75
02200000
00000000
00000000
00000000
,  // measure 76
00000000
00000000
00000000
00000000
,  // measure 77
03300000
00000000
00000000
00000000
;
