#TITLE:Red Sign;
#SUBTITLE:;
#ARTIST:Kevin.o2SE;
#TITLETRANSLIT:;
#SUBTITLETRANSLIT:;
#ARTISTTRANSLIT:;
#CREDIT:;
#BANNER:Red Sign-BN.jpg;
#BACKGROUND:Red Sign-BG.jpg;
#LYRICSPATH:;
#CDTITLE:!cattitle.png;
#MUSIC:Red Sign.mp3;
#OFFSET:-3.010;
#SAMPLESTART:41.282;
#SAMPLELENGTH:12.000;
#SELECTABLE:YES;
#DISPLAYBPM:80.000:180.000;
#BPMS:0.000=80.000,32.000=150.000,268.000=180.000,336.000=150.000;
#STOPS:;
#BGCHANGES:;
// cache tags:
#FIRSTBEAT:0.000;
#LASTBEAT:420.000;
#SONGFILENAME:Songs/Community Keyboard Megapack - Volume 2/(Cat) Red Sign/Red Sign.sm;
#HASMUSIC:1;
#HASBANNER:1;
#MUSICLENGTH:178.625;
// end cache tags

//---------------dance-single - ----------------
#NOTES:
     dance-single:
     :
     Hard:
     11:
     1.000,1.000,0.526,0.929,1.000,1121.000,94.000,166.000,0.000,3.000:
0001
0100
0010
0000
1000
0000
0100
0000
0010
0000
2002
0000
0000
0000
3003
0000
,
0100
1000
0001
0000
0100
0000
0010
0000
1000
0000
0202
0000
0000
0000
0303
0010
,
0100
0010
1000
0000
0001
0000
0100
0000
0010
0000
0022
0000
0000
0000
0033
1000
,
0100
0010
0001
0000
0100
0000
0010
0000
1000
0000
0012
0000
1000
0000
0013
1000
,
0010
0100
0001
0000
1000
0000
0010
0000
0100
0000
2020
0000
0000
0000
3030
0000
,
0001
1000
0010
0000
0100
0000
0020
0000
1030
0000
2200
0000
0000
0000
3300
0001
,
0010
1000
0100
0000
0010
0000
0100
0000
0001
1000
0010
0000
0100
0000
0001
0000
,
0001
1000
0001
0000
1000
0000
0100
0000
0001
0000
2002
0000
0000
0000
0000
0000
,
3003
0000
0000
0000
0220
0000
0000
0330
,
0000
0000
0100
0010
0100
0000
0010
0000
0110
0000
1000
0000
0101
0000
1000
0000
,
0011
0000
0010
0000
0100
0000
1000
0000
0011
0000
0010
0000
0001
0010
0100
1000
,
0001
0100
0010
1000
0101
0000
0100
0000
0011
0000
0010
0000
0100
0000
0001
0000
,
0110
0000
1000
0000
0010
0000
0100
0000
0011
0000
1000
0000
0001
0100
0010
1000
,
0100
0010
2002
3003
2002
3003
0010
0000
1100
0000
0001
0000
0010
0000
0100
0000
,
0011
0010
0100
0010
1100
0001
1000
0100
,
0011
0000
1000
0000
0001
0010
0100
1000
0001
0010
0100
1000
0010
0100
0001
1000
,
0010
0100
0001
1000
2002
3003
1000
0001
0000
1000
0001
0000
0000
0010
0100
0001
,
0010
0100
0010
0010
1001
0000
0000
0000
0101
0000
0000
0000
0000
0000
0000
0000
,
1010
0000
0000
0000
1010
0000
2000
3000
,
0002
0000
0023
0000
0230
1300
0100
0010
0001
0010
0001
0010
0100
1000
0100
0010
,
0100
0001
1000
0100
2000
3010
0001
0010
0001
0100
0010
1000
0200
0301
0010
0100
,
2000
3100
0020
0130
0002
1003
0001
0010
0100
0010
0100
1000
0001
1000
0001
0100
,
1000
0100
1000
0001
0020
0031
0010
0001
0100
0010
0100
0001
0020
0130
0001
1000
,
0002
0013
0001
0010
0200
1300
0100
0010
0001
0100
0010
0001
0010
0100
1000
0010
,
0100
0001
0010
0100
2000
3010
0100
0010
0001
1000
0100
0010
0002
0013
0100
1000
,
0020
0130
0020
0130
1000
0100
0010
0001
0100
0010
1000
0100
0010
0001
0100
0010
,
1000
0010
0001
0100
2000
3100
0010
0001
0100
0010
0001
0010
0002
0013
0100
1000
,
0020
0031
0200
0310
2000
3100
1000
0010
0100
0010
0100
0001
0010
0001
0010
0100
,
0010
0100
0010
1000
0020
0130
0010
1000
0100
1000
0100
0001
0020
0031
0010
1000
,
0200
0310
0002
0013
2000
3100
1000
0100
0010
1000
0100
0010
0001
0010
0001
0100
,
0010
0100
0010
0100
2002
3103
1000
0010
0001
0010
0001
0100
2000
3100
1000
0100
,
0002
0013
0200
1300
0010
0100
0001
0100
0010
0100
1000
0010
0100
0001
0010
0100
,
1000
0001
2000
3100
0002
0013
0100
1000
0010
0100
0001
0010
2000
3100
0010
0001
,
0100
0010
1000
0010
0200
0301
0020
0000
0000
0000
0000
0000
0000
0000
0000
0000
,
0000
0000
0000
0000
0130
1000
0100
0000
0010
0100
0010
0000
0001
0100
0010
1000
,
0100
0010
0001
0000
2010
0000
0000
0000
0000
0000
0100
0000
3100
0000
0000
0000
,
1001
0000
0000
0000
0022
0000
0000
0033
0000
0000
1000
0000
2000
0000
3020
0000
,
0032
0003
2200
3300
0000
0001
0001
0000
,
2200
3300
0022
0033
0000
1000
1000
0011
,
1100
0000
0001
0010
2200
0000
3300
0000
0000
0000
1000
0000
1000
0000
0000
0000
,
1001
0000
2200
3300
0000
0010
0010
0002
,
0023
2030
3000
0000
0000
0100
0100
0000
,
1020
0030
0020
0000
0030
0000
0000
0000
0000
0000
0001
0000
0001
0000
0011
0000
,
2000
0010
3200
0000
0302
0000
0003
0000
1010
0000
0000
0000
1010
0000
0001
0000
,
2010
3100
0012
0003
0110
0000
1020
0031
,
0210
0301
0021
0030
1100
0000
0011
1000
,
0011
2000
3020
0130
0010
0100
0010
0100
,
0020
0230
2300
3000
0011
0000
1100
0001
,
0110
0100
0101
0020
1130
0000
2010
3100
,
0110
1000
0002
0013
0001
0010
0001
0010
,
0001
0000
0000
0000
2002
3003
0000
0100
0001
0100
0001
0100
0000
0001
0100
0001
,
0100
0001
1000
0100
0001
0000
0100
0000
0011
0000
0010
0000
0100
0000
0001
0000
,
1001
0000
0010
0000
0100
0000
1000
0000
0110
0000
1000
0000
0001
0010
0100
1000
,
0001
0100
0010
0100
0001
0000
1000
0000
0011
0000
0100
0000
0010
0000
0001
0000
,
0101
0000
0010
0000
0100
0000
0001
0000
1001
0000
0100
0000
1000
0010
0100
0001
,
0010
0100
2002
3003
2002
3003
0100
0000
1010
0000
0010
0000
1000
0000
0010
0000
,
0101
0001
0010
0001
0110
0001
0100
0001
,
1010
0000
0100
0000
1000
0100
0010
0001
1000
0100
0010
0001
0100
0010
1000
0001
,
0100
0010
1000
0001
2002
3003
0010
1000
0010
1000
0010
0000
1010
0000
1000
0010
,
1000
0010
1000
0010
0001
0000
0100
0000
1010
0000
0001
0000
0100
0000
0010
0000
,
0101
0000
1000
0000
0010
0000
0100
0000
0110
0000
0001
0000
1000
0010
0100
0001
,
0010
0100
1000
0100
0010
0000
1000
0000
0011
0000
0100
0000
0001
0000
0010
0000
,
1001
0000
0100
0000
0001
0000
0010
0000
1001
0000
0100
0000
0001
0010
0100
1000
,
0010
0100
0001
0010
0100
0000
0001
0000
0101
0000
0100
0000
1000
0000
0100
0000
,
0110
0001
0100
0001
0101
0100
1000
0010
,
1001
0000
0100
0000
1000
0010
0100
0001
1000
0010
0100
0001
0100
0010
0001
1000
,
0100
0010
0001
0010
2002
3003
0010
0000
0100
0000
0010
0000
0110
0000
0010
0100
,
0010
0100
0000
0010
0100
0000
0000
0000
0000
0000
0000
0000
0000
0000
0000
0000
,
0000
0000
0000
0000
,
0000
0000
0000
0000
2000
3100
0010
0001
1000
0100
0010
0001
1000
0100
0010
0001
,
1000
0100
0010
0001
1000
0100
0010
0001
1000
0100
0010
0001
1000
0100
0010
0001
,
1000
0100
0010
0100
0002
0013
0100
1000
0001
0010
0100
1000
0001
0010
0100
1000
,
0001
0010
0100
1000
0001
0010
0100
1000
0001
0010
0100
1000
0001
0010
0100
1000
,
0001
0010
0100
0010
2000
3010
0100
0001
1000
0010
0100
0001
1000
0010
0100
0001
,
1000
0010
0100
0001
1000
0010
0100
0001
1000
0010
0100
0001
1000
0010
0100
0001
,
1000
0100
0010
0100
0002
0103
0010
1000
0001
0100
0010
1000
0001
0100
0010
1000
,
0001
0100
0010
1000
0002
0013
0001
0010
0001
0010
0001
0010
0002
0103
0001
0100
,
0001
0100
0001
0100
0002
0103
0010
1000
0001
0100
0010
1000
0001
0100
0010
1000
,
0001
0100
0010
1000
0001
0100
0010
1000
0001
0100
0010
1000
0001
0100
0010
1000
,
0001
0100
0010
0100
0002
0013
0100
1000
0001
0010
0100
1000
0001
0010
0100
1000
,
0001
0010
0100
1000
0001
0010
0100
1000
0001
0010
0100
1000
0001
0010
0100
1000
,
0001
0010
0100
0010
2000
3010
0100
0001
1000
0010
0100
0001
1000
0010
0100
0001
,
1000
0010
0100
0001
2000
3100
0010
0001
1000
0100
0010
0100
0001
0010
0100
1000
,
0001
0010
0100
1000
2002
0000
0000
0000
0000
0000
0000
0000
0000
0000
0000
0000
,
0000
0000
0000
0000
,
0000
0000
0000
0000
0000
3003
0200
0300
,
0002
0000
0023
0000
2030
3100
0010
0001
0100
0010
1000
0010
0100
0001
0100
0010
,
1000
0010
0100
0001
2000
3100
1000
0100
0010
0001
0010
0001
0200
1000
0310
0001
,
2000
0010
3002
0010
0203
1300
0100
0010
0001
0010
0100
0010
0100
0010
0001
0010
,
0100
1000
0010
0100
2000
3100
0010
0001
0100
0010
0100
0010
0002
0010
0103
1000
,
0020
0001
0130
1000
0200
0310
0001
0010
0100
1000
0010
0100
0001
0100
0010
1000
,
0010
0100
0001
0100
2000
3100
0010
0001
0100
0010
1000
0100
2000
3100
0010
0100
,
0002
0103
0002
0010
0103
1000
0010
0100
0001
0100
0010
1000
0100
0010
0100
0010
,
0001
0010
0100
1000
0200
0310
0001
0010
0001
0100
0010
0001
2000
0100
3010
0100
,
0020
0001
0230
1000
0302
0013
0100
0010
1000
0100
1000
0100
0010
0100
0010
0100
,
0001
0010
0001
0010
2000
3100
1000
0100
0010
0001
0010
0100
2000
0100
3010
0100
,
0020
0001
0230
0001
2300
3010
0100
1000
0100
0010
0001
1000
0010
0100
0001
0100
,
0010
1000
0010
0100
2002
0000
3013
0100
1000
0100
1000
0100
0020
0001
1030
0100
,
0002
0010
0103
1000
0200
0310
0001
0100
0010
0001
0100
0010
0100
1000
0100
0010
,
1000
0100
2000
0010
3002
0013
0100
1000
0001
0010
0100
1000
0002
0010
0103
1000
,
0020
0100
1030
0001
0220
0000
0000
0000
0330
0000
0000
0000
2002
0000
0000
0000
,
3003
2002
3003
2002
,
3003
2002
0000
0000
,
0000
3003
2002
0000
0000
0000
0000
0000
,
0000
0000
0000
0000
,
3003
0000
0000
0000
;
