#TITLE:Second Heaven;
#SUBTITLE:(Risk Junk Remix);
#ARTIST:Ryu☆;
#TITLETRANSLIT:;
#SUBTITLETRANSLIT:;
#ARTISTTRANSLIT:;
#CREDIT:owenviau1;
#BANNER:../owenviau1 Simfiles 6 (Science X Owen).png;
#BACKGROUND:BG.PNG;
#LYRICSPATH:;
#CDTITLE:;
#MUSIC:Ryu_ - Second Heaven (Risk Junk Remix).mp3;
#OFFSET:-0.149;
#SAMPLESTART:80.142;
#SAMPLELENGTH:29.999;
#SELECTABLE:YES;
#DISPLAYBPM:183.000;
#BPMS:0.000=183.000;
#STOPS:;
#BGCHANGES:;
// cache tags:
#FIRSTBEAT:0.000;
#LASTBEAT:713.417;
#SONGFILENAME:Songs/owenviau1 Simfiles 6/Second Heaven (Risk Junk Remix) - [owenviau1] v1.0.2/Second Heaven.sm;
#HASMUSIC:1;
#HASBANNER:1;
#MUSICLENGTH:233.712;
// end cache tags

//---------------dance-single - 16+ (owenviau1)----------------
#NOTES:
     dance-single:
     16+ (owenviau1):
     Challenge:
     16:
     1.000,1.000,0.060,0.141,1.000,2711.000,14.000,33.000,4.000,0.000:

2000
0000
3020
0000
0130
0001
0100
0010
1000
0100
0010
0001
0010
0100
1000
0001
,
10M0
0100
0010
0001
1000
0010
1000
0100
0010
0001
0100
0010
1000
0001
0010
0001
,
0100
0010
1000
0100
1000
0001
0100
0001
1000
0010
0100
0001
1000
0100
0010
0001
,
0100
0010
1000
0010
0100
0001
1000
0010
0100
0001
1000
0100
0010
0001
0100
0010
,
0100
0001
1000
0010
0100
0010
1000
0001
1000
0010
0100
0001
1000
0100
0010
0001
,
0100
0010
1000
0100
1000
0001
0100
0010
1000
0001
0010
0001
0100
0010
1000
0100
,
1000
0001
0100
0001
1000
0100
1000
0010
0100
0010
1000
0001
0010
0001
0100
0010
,
1000
0100
0010
0001
0100
0010
1000
0010
0100
0001
1000
0100
0010
0001
1000
0010
,
1000
0001
0100
0001
1000
0100
0010
0001
0100
0010
1000
0001
0010
0001
0100
0010
,
100M
0100
0010
0001
1000
0010
1000
0100
0010
0001
0100
0010
1000
0001
0010
0001
,
0100
0010
1000
0100
1000
0001
0100
0001
1000
0010
0100
0001
1000
0100
0010
0001
,
0100
0010
1000
0010
0100
0001
1000
0010
0100
0001
1000
0100
0010
0001
0100
0010
,
0100
0001
1000
0010
0100
0010
1000
0001
1000
0010
0100
0001
1000
0100
0010
0001
,
0100
0010
1000
0100
1000
0001
0100
0010
1000
0001
0010
0001
0100
0010
1000
0100
,
1000
0001
0100
0001
1000
0100
1000
0010
0100
0010
1000
0001
0010
0001
0100
0010
,
1000
0100
0010
0001
0100
0010
1000
0010
0100
0001
1000
0100
0010
0001
1000
0010
,
1000
0000
0000
0001
0000
0000
0100
0000
0000
0001
0000
0000
1000
0000
0000
0100
0000
0000
0010
0000
0000
0001
0000
0000
0100
0000
0010
0000
0100
0000
0010
0000
0000
0000
1000
0000
0001
0000
1000
0000
0000
0000
0010
0000
0100
0000
0010
0000
,
0100
1000
0001
0100
0001
1000
0001
0100
0010
1000
0100
1000
0001
0100
0001
1000
,
0010
0100
0001
1000
0100
0010
0001
0100
0010
1000
0010
0100
0001
1000
0010
0100
,
0001
1000
0100
0010
0001
0100
0010
0100
0001
1000
0010
0100
0010
1000
0001
1000
,
0010
0100
0001
1000
0100
0010
0001
0100
0010
1000
0100
1000
0001
0100
0010
1000
,
0001
0010
0001
0100
0010
1000
0100
1000
0001
0100
0001
1000
0100
1000
0010
0100
,
0010
1000
0001
0010
0001
0100
0010
1000
0100
0010
0001
0100
0010
1000
0010
0100
,
0001
1000
0100
0010
0001
1000
0010
1000
0001
0100
0001
1000
0100
0010
0001
0100
,
0010
1000
0001
0010
0001
0100
0010
1000
0100
0010
0001
1000
0010
1000
0100
0010
,
0001
0100
0010
1000
0001
0010
0001
0100
0010
1000
0100
1000
0001
0100
0001
1000
,
0010
0100
0001
1000
0100
0010
0001
0100
0010
1000
0010
0100
0001
1000
0010
0100
,
0001
1000
0100
0010
0001
0100
0010
0100
0001
1000
0010
0100
0010
1000
0001
1000
,
0010
0100
0001
1000
0100
0010
0001
0100
0010
1000
0100
1000
0001
0100
0010
1000
,
0001
0010
0001
0100
0010
1000
0100
1000
0001
0100
0001
1000
0100
1000
0010
0100
,
0010
1000
0001
0010
0001
0100
0010
1000
0100
0010
0001
0100
0010
1000
0010
0100
,
0001
1000
0100
0010
0001
1000
0010
1000
0001
0100
0001
1000
0100
0010
0001
0100
,
0010
0000
0000
1000
0000
0000
0001
0000
0000
0100
0000
0000
0010
0000
0000
1000
0000
0000
0100
0000
0000
0010
0000
0000
0001
0000
1000
0000
0001
0000
1000
0000
0000
0000
0010
0000
0100
0000
0010
0000
0000
0000
1000
0000
0001
0000
1000
0000
,
0002
0000
0000
0000
0000
0000
0000
0000
2003
0000
0000
0000
0000
0000
0000
3000
,
0200
0320
0032
2003
,
3010
0100
0001
1000
0100
0010
0001
0100
0010
1000
0010
0100
0001
1000
0010
0100
,
0001
1000
0100
0010
0001
0100
0010
0100
0001
1000
0010
0100
0010
1000
0001
1000
,
0010
0100
0001
1000
0100
0010
0001
0100
0010
1000
0100
1000
0001
0100
0010
1000
,
0001
0010
0001
0100
0010
1000
0100
1000
0001
0100
0001
1000
0100
1000
0010
0100
,
0010
1000
0001
0010
0001
0100
0010
1000
0100
0010
0001
0100
0010
1000
0010
0100
,
0001
1000
0100
0010
0001
1000
0010
1000
0001
0100
0001
1000
0100
0010
0001
0100
,
0010
1000
0001
0010
0001
0100
0010
1000
0100
0010
0001
1000
0010
1000
0100
0010
,
0001
0100
0010
1000
0001
0010
0001
0100
0010
1000
0100
1000
0001
0100
0001
1000
,
0010
0100
0001
1000
0100
0010
0001
0100
0010
1000
0010
0100
0001
1000
0010
0100
,
0001
1000
0100
0010
0001
0100
0010
0100
0001
1000
0010
0100
0010
1000
0001
1000
,
0010
0100
0001
1000
0100
0010
0001
0100
0010
1000
0100
1000
0001
0100
0010
1000
,
0001
0010
0001
0100
0010
1000
0100
1000
0001
0100
0001
1000
0100
1000
0010
0100
,
0010
1000
0001
0010
0001
0100
0010
1000
0100
0010
0001
0100
0010
1000
0010
0100
,
0001
1000
0100
0010
0001
1000
0010
1000
0001
0100
0001
1000
0010
0100
0001
1000
,
0100
0010
0001
0100
0010
1000
0010
0100
0001
1000
0010
0100
0001
1000
0100
0010
,
0001
0100
0010
0100
0001
1000
0010
0100
0010
1000
0001
1000
0010
0100
0001
1000
,
0100
0010
0001
0100
0010
1000
0100
1000
0001
0100
0010
1000
0001
0010
0001
0100
,
0010
1000
0100
1000
0001
0100
0001
1000
0100
1000
0010
0100
0010
1000
0001
0010
,
0001
0100
0010
1000
0100
0010
0001
0100
0010
1000
0010
0100
0001
1000
0100
0010
,
0001
1000
0010
1000
0001
0100
0001
1000
0100
0010
0001
0100
0010
1000
0001
0010
,
0001
0100
0010
1000
0100
0010
0001
1000
0010
1000
0100
0010
0001
0100
0010
1000
,
0001
0010
0001
0100
0010
1000
0100
1000
0001
0100
0001
1000
0010
0100
0001
1000
,
0100
0000
0010
0000
0100
0000
0010
0000
0000
0001
0000
0000
0100
0000
0000
0010
0000
0000
1000
0000
0000
0001
0000
0000
1000
0000
0010
0000
1000
0000
0010
0000
0000
0100
0000
0000
0010
0000
0000
0001
0000
0000
1000
0000
0000
0010
0000
0000
,
0100
0000
0001
0000
0100
0000
0001
0000
0000
0010
0000
0000
0100
0000
1000
0000
0100
0000
1000
0000
0000
0001
0000
0000
1000
0000
0010
0000
1000
0000
0010
0000
0000
0100
0000
0000
1000
0000
0100
0000
0010
0000
0001
0000
1000
0000
0001
0000
,
0200
0300
0000
0000
0000
0000
0000
0000
,
0010
1000
0002
0000
0023
0000
0230
0000
,
1300
0100
0010
0001
1000
0010
1000
0100
0010
0001
0100
0010
1000
0001
0010
0001
,
0100
0010
1000
0100
1000
0001
0100
0001
1000
0010
0100
0001
1000
0100
0010
0001
,
0100
0010
1000
0010
0100
0001
1000
0010
0100
0001
1000
0100
0010
0001
0100
0010
,
0100
0001
1000
0010
0100
0010
1000
0001
1000
0010
0100
0001
1000
0100
0010
0001
,
0100
0010
1000
0100
1000
0001
0100
0010
1000
0001
0010
0001
0100
0010
1000
0100
,
1000
0001
0100
0001
1000
0100
1000
0010
0100
0010
1000
0001
0010
0001
0100
0010
,
1000
0100
0010
0001
0100
0010
1000
0010
0100
0001
1000
0100
0010
0001
1000
0010
,
1000
0001
0100
0001
1000
0100
0010
0001
0100
0010
1000
0001
0010
0001
0100
0010
,
100M
0100
0010
0001
1000
0010
1000
0100
0010
0001
0100
0010
1000
0001
0010
0001
,
0100
0010
1000
0100
1000
0001
0100
0001
1000
0010
0100
0001
1000
0100
0010
0001
,
0100
0010
1000
0010
0100
0001
1000
0010
0100
0001
1000
0100
0010
0001
0100
0010
,
0100
0001
1000
0010
0100
0010
1000
0001
1000
0010
0100
0001
1000
0100
0010
0001
,
0100
0010
1000
0100
1000
0001
0100
0010
1000
0001
0010
0001
0100
0010
1000
0100
,
1000
0001
0100
0001
1000
0100
1000
0010
0100
0010
1000
0001
0010
0001
0100
0010
,
0100
0000
1000
0000
0100
0000
1000
0000
0100
0000
1000
0000
0100
0000
0000
0010
0000
0000
0001
0000
0000
0100
0000
0000
0010
0000
1000
0000
0010
0000
1000
0000
0010
0000
1000
0000
0010
0000
0000
0100
0000
0000
0001
0000
0000
1000
0000
0000
,
0020
0000
0230
0000
2300
0000
3020
0000
0230
0000
0000
0000
0301
0010
0100
1000
,
0010
0100
0001
1000
0100
0010
0001
0100
0010
1000
0010
0100
0001
1000
0010
0100
,
0001
1000
0100
0010
0001
0100
0010
0100
0001
1000
0010
0100
0010
1000
0001
1000
,
0010
0100
0001
1000
0100
0010
0001
0100
0010
1000
0100
1000
0001
0100
0010
1000
,
0001
0010
0001
0100
0010
1000
0100
1000
0001
0100
0001
1000
0100
1000
0010
0100
,
0010
1000
0001
0010
0001
0100
0010
1000
0100
0010
0001
0100
0010
1000
0010
0100
,
0001
1000
0100
0010
0001
1000
0010
1000
0001
0100
0001
1000
0100
0010
0001
0100
,
0010
1000
0001
0010
0001
0100
0010
1000
0100
0010
0001
1000
0010
1000
0100
0010
,
0001
0100
0010
1000
0001
0010
0001
0100
0010
1000
0100
1000
0001
0100
0001
1000
,
0010
0100
0001
1000
0100
0010
0001
0100
0010
1000
0010
0100
0001
1000
0010
0100
,
0001
1000
0100
0010
0001
0100
0010
0100
0001
1000
0010
0100
0010
1000
0001
1000
,
0010
0100
0001
1000
0100
0010
0001
0100
0010
1000
0100
1000
0001
0100
0010
1000
,
0001
0010
0001
0100
0010
1000
0100
1000
0001
0100
0001
1000
0100
1000
0010
0100
,
0010
1000
0001
0010
0001
0100
0010
1000
0100
0010
0001
0100
0010
1000
0010
0100
,
0001
1000
0100
0010
0001
1000
0010
1000
0001
0100
0001
1000
0010
0100
0001
1000
,
0100
0010
0001
0100
0010
1000
0010
0100
0001
1000
0010
0100
0001
1000
0100
0010
,
0001
0000
0000
0100
0000
0000
0010
0000
0000
0100
0000
0000
0001
0000
0000
1000
0000
0000
0010
0000
0000
0100
0000
0000
0020
0000
0000
0000
0000
0000
0000
0000
0000
0000
0000
0000
1030
0000
0001
0000
1000
0000
0001
0000
1000
0000
0001
0000
,
1000
0001
0100
0010
1100
0001
1000
0001
,
0110
1000
0010
1000
0101
0100
1010
0001
,
0110
1000
0100
0010
0101
1000
0100
0010
,
1100
0001
0110
1000
0101
0010
1000
0001
,
1100
0001
1000
0001
0110
1000
0010
1000
,
0101
0010
0001
1000
0110
0100
1001
0010
,
1000
0100
0010
0001
1000
0010
0100
0001
1000
0100
1000
0010
0100
0001
1000
0100
0010
0001
0010
0100
1000
0010
0100
0010
,
1000
0100
0010
0001
1000
0010
0100
0001
,
1000
0100
0010
0001
1000
0010
1000
0100
0010
0001
0100
0010
1000
0001
0010
0001
,
0100
0010
1000
0100
1000
0001
0100
0001
1000
0010
0100
0001
1000
0100
0010
0001
,
0100
0010
1000
0010
0100
0001
1000
0010
0100
0001
1000
0100
0010
0001
0100
0010
,
0100
0001
1000
0010
0100
0010
1000
0001
1000
0010
0100
0001
1000
0100
0010
0001
,
0100
0010
1000
0100
1000
0001
0100
0010
1000
0001
0010
0001
0100
0010
1000
0100
,
1000
0001
0100
0001
1000
0100
1000
0010
0100
0010
1000
0001
0010
0001
0100
0010
,
1000
0100
0010
0001
0100
0010
1000
0010
0100
0001
1000
0100
0010
0001
1000
0010
,
1000
0001
0100
0001
1000
0100
0010
0001
0100
0010
1000
0001
0010
0001
0100
0010
,
1000
0100
0010
0001
1000
0010
1000
0100
0010
0001
0100
0010
1000
0001
0010
0001
,
0100
0010
1000
0100
1000
0001
0100
0001
1000
0010
0100
0001
1000
0100
0010
0001
,
0100
0000
0000
0000
,
0100
0010
0002
0000
0023
0000
0230
0000
,
1300
0010
0100
0001
1000
0010
1000
0100
0010
0001
0100
0010
1000
0001
0010
0001
,
0100
0010
1000
0100
1000
0001
0100
0001
1000
0010
0100
0001
1000
0100
0010
0001
,
0100
0010
1000
0010
0100
0001
1000
0010
0100
0001
1000
0100
0010
0001
0100
0010
,
0100
0001
1000
0010
0100
0010
1000
0001
1000
0010
0100
0001
1000
0100
0010
0001
,
0100
0010
1000
0100
1000
0001
0100
0010
1000
0001
0010
0001
0100
0010
1000
0100
,
1000
0001
0100
0001
1000
0100
1000
0010
0100
0010
1000
0001
0010
0001
0100
0010
,
1000
0100
0010
0001
0100
0010
1000
0010
0100
0001
1000
0100
0010
0001
1000
0010
,
1000
0001
0100
0001
1000
0100
0010
0001
0100
0010
1000
0001
0010
0001
0100
0010
,
100M
0100
0010
0001
1000
0010
1000
0100
0010
0001
0100
0010
1000
0001
0010
0001
,
0100
0010
1000
0100
1000
0001
0100
0001
1000
0010
0100
0001
1000
0100
0010
0001
,
0100
0010
1000
0010
0100
0001
1000
0010
0100
0001
1000
0100
0010
0001
0100
0010
,
0100
0001
1000
0010
0100
0010
1000
0001
1000
0010
0100
0001
1000
0100
0010
0001
,
0100
0010
1000
0100
1000
0001
0100
0010
1000
0001
0010
0001
0100
0010
1000
0100
,
1000
0001
0100
0001
0010
0100
1000
0001
0100
0010
0100
0001
1000
0100
0010
0001
,
1000
0000
0100
0000
0010
0000
0001
0000
1000
0000
0001
0000
0100
0000
0000
0010
0000
0000
1000
0000
0000
0100
0000
0000
0010
0000
0001
0000
1000
0000
0001
0000
0100
0000
0010
0000
1000
0000
0000
0100
0000
0000
0010
0000
0000
0001
0000
0000
,
2000
0000
3020
0000
0230
0000
0302
0000
2003
0000
0000
0000
3100
0010
0001
1000
,
0010
0100
0001
1000
0100
0010
0001
0100
0010
1000
0010
0100
0001
1000
0010
0100
,
0001
1000
0100
0010
0001
0100
0010
0100
0001
1000
0010
0100
0010
1000
0001
1000
,
0010
0100
0001
1000
0100
0010
0001
0100
0010
1000
0100
1000
0001
0100
0010
1000
,
0001
0010
0001
0100
0010
1000
0100
1000
0001
0100
0001
1000
0100
1000
0010
0100
,
0010
1000
0001
0010
0001
0100
0010
1000
0100
0010
0001
0100
0010
1000
0010
0100
,
0001
1000
0100
0010
0001
1000
0010
1000
0001
0100
0001
1000
0100
0010
0001
0100
,
0010
1000
0001
0010
0001
0100
0010
1000
0100
0010
0001
1000
0010
1000
0100
0010
,
0001
0100
0010
1000
0001
0010
0001
0100
0010
1000
0100
1000
0001
0100
0001
1000
,
0010
0100
0001
1000
0100
0010
0001
0100
0010
1000
0010
0100
0001
1000
0010
0100
,
0001
1000
0100
0010
0001
0100
0010
0100
0001
1000
0010
0100
0010
1000
0001
1000
,
0010
0100
0001
1000
0100
0010
0001
0100
0010
1000
0100
1000
0001
0100
0010
1000
,
0001
0010
0001
0100
0010
1000
0100
1000
0001
0100
0001
1000
0100
1000
0010
0100
,
0010
1000
0001
0010
0001
0100
0010
1000
0100
0010
0001
0100
0010
1000
0010
0100
,
0001
1000
0100
0010
0001
1000
0010
1000
0001
0100
0001
1000
0010
0100
0001
1000
,
0100
0010
0001
0100
0010
1000
0010
0100
0001
1000
0010
0100
0001
1000
0100
0010
,
0001
0000
0000
0100
0000
0000
0010
0000
0000
0100
0000
0000
0001
0000
0000
1000
0000
0000
0010
0000
0000
0100
0000
0000
0001
0000
1000
0000
0001
0000
1000
0000
0000
0000
0010
0000
0100
0000
0010
0000
0000
0000
1000
0000
0001
0000
1000
0000
,
0001
0100
0001
0100
0010
1000
0100
1000
0001
0100
0001
1000
0010
0100
0001
1000
,
0100
0010
0001
0100
0010
1000
0010
0100
0001
1000
0010
0100
0001
1000
0100
0010
,
0001
0100
0010
0100
0001
1000
0010
0100
0010
1000
0001
1000
0010
0100
0001
1000
,
0100
0010
0001
0100
0010
1000
0100
1000
0001
0100
0010
1000
0001
0010
0001
0100
,
0010
1000
0100
1000
0001
0100
0001
1000
0100
1000
0010
0100
0010
1000
0001
0010
,
0001
0100
0010
1000
0100
0010
0001
0100
0010
1000
0010
0100
0001
1000
0100
0010
,
0001
1000
0010
1000
0001
0100
0001
1000
0100
0010
0001
0100
0010
1000
0001
0010
,
0001
0100
0010
1000
0100
0010
0001
1000
0010
1000
0100
0010
0001
0100
0010
1000
,
0001
0010
0001
0100
0010
1000
0100
1000
0001
0100
0001
1000
0010
0100
0001
1000
,
0100
0010
0001
0100
0010
1000
0010
0100
0001
1000
0010
0100
0001
1000
0100
0010
,
0001
0100
0010
0100
0001
1000
0010
0100
0010
1000
0001
1000
0010
0100
0001
1000
,
0100
0010
0001
0100
0010
1000
0100
1000
0001
0100
0010
1000
0001
0010
0001
0100
,
0010
1000
0100
1000
0001
0100
0001
1000
0100
1000
0010
0100
0010
1000
0001
0010
,
0001
0100
0010
1000
0100
0010
0001
0100
0010
1000
0010
0100
0001
1000
0100
0010
,
0001
0000
1000
0000
0001
0000
1000
0000
0001
0000
1000
0000
0001
0000
0000
0010
0000
0000
0100
0000
0000
1000
0000
0000
0001
0000
0100
0000
0001
0000
0100
0000
0001
0000
0100
0000
0001
0000
0000
1000
0000
0000
0010
0000
0000
0100
0000
0000
,
0020
0000
2030
0000
3002
0000
0203
0000
0320
0000
0000
0000
0031
0010
0100
1000
,
0010
0100
0001
1000
0100
0010
0001
0100
0010
1000
0010
0100
0001
1000
0010
0100
,
0001
1000
0100
0010
0001
0100
0010
0100
0001
1000
0010
0100
0010
1000
0001
1000
,
0010
0100
0001
1000
0100
0010
0001
0100
0010
1000
0100
1000
0001
0100
0010
1000
,
0001
0010
0001
0100
0010
1000
0100
1000
0001
0100
0001
1000
0100
1000
0010
0100
,
0010
1000
0001
0010
0001
0100
0010
1000
0100
0010
0001
0100
0010
1000
0010
0100
,
0001
1000
0100
0010
0001
1000
0010
1000
0001
0100
0001
1000
0100
0010
0001
0100
,
0010
1000
0001
0010
0001
0100
0010
1000
0100
0010
0001
1000
0010
1000
0100
0010
,
0001
0100
0010
1000
0001
0010
0001
0100
0010
1000
0100
1000
0001
0100
0001
1000
,
0010
0100
0001
1000
0100
0010
0001
0100
0010
1000
0010
0100
0001
1000
0010
0100
,
0001
1000
0100
0010
0001
0100
0010
0100
0001
1000
0010
0100
0010
1000
0001
1000
,
0010
0100
0001
1000
0100
0010
0001
0100
0010
1000
0100
1000
0001
0100
0010
1000
,
0001
0010
0001
0100
0010
1000
0100
1000
0001
0100
0001
1000
0100
1000
0010
0100
,
0010
1000
0001
0010
0001
0100
0010
1000
0100
0010
0001
0100
0010
1000
0010
0100
,
0001
1000
0100
0010
0001
1000
0010
1000
0001
0100
0001
1000
0010
0100
0001
1000
,
0100
0010
0001
0100
0010
1000
0010
0100
0001
1000
0010
0100
0001
1000
0100
0010
,
0001
0000
0000
0100
0000
0000
0010
0000
0000
1000
0000
0000
0001
0000
0000
0010
0000
0000
0100
0000
0000
1000
0000
0000
0001
0000
0000
0100
0000
0000
0010
0000
0000
1000
0000
0000
0001
0000
0100
0000
0001
0000
0100
0000
0001
0000
0100
0000
,
0002
0000
0000
0000
0000
0000
0000
0000
0000
0000
0000
0000
2000
0003
0000
0000
,
0000
0000
0000
0000
0000
0000
0000
0000
0000
0000
0000
0000
0000
0000
0000
0000
0000
3000
0000
0000
0000
0000
0000
0000
0000
0000
0000
0000
0000
0000
0000
0000
0000
0000
0000
0000
0000
0000
0000
0000
0000
0000
0000
0000
0000
0000
0000
0000
;
