#TITLE:Dash Hopes;
#SUBTITLE:;
#ARTIST:Renard;
#TITLETRANSLIT:;
#SUBTITLETRANSLIT:;
#ARTISTTRANSLIT:;
#CREDIT:;
#BANNER:../bn.png;
#BACKGROUND:../veyron.png;
#LYRICSPATH:;
#CDTITLE:;
#MUSIC:dash.ogg;
#OFFSET:0.000;
#SAMPLESTART:13.887;
#SAMPLELENGTH:17.260;
#SELECTABLE:YES;
#BPMS:0.000=225.000;
#STOPS:;
#BGCHANGES:;
// cache tags:
#FIRSTBEAT:20.000;
#LASTBEAT:332.000;
#SONGFILENAME:Songs/Cirque du Veyron/Zaia - Dash Hopes/empty.sm;
#HASMUSIC:1;
#HASBANNER:1;
#MUSICLENGTH:89.536;
// end cache tags

//---------------dance-single - Zaia----------------
#NOTES:
     dance-single:
     Zaia:
     Challenge:
     16:
     1.000,1.000,0.246,0.413,1.000,792.000,22.000,37.000,0.000,3.000:
0000
0000
0000
0000
,
0000
0000
0000
0000
,
0000
0000
0000
0000
,
0000
0000
0000
0000
,
0000
0000
0000
0000
,
1000
1000
0001
0001
1000
0010
1010
0000
,
0001
0100
0010
0100
0101
0000
1001
0000
,
1000
0000
0000
0000
0002
0003
0000
0000
0020
0030
0000
0000
0002
0003
0000
0000
1000
0000
0000
0000
0010
0000
0000
0000
0100
0000
0001
0000
0100
0000
0010
0000
,
0100
0000
0001
1000
0100
0000
0010
0000
0200
0000
0000
0000
2300
0000
0000
0000
,
3001
0100
0101
0000
1001
0000
1100
0000
,
1000
0000
0001
0100
0000
0001
1000
0000
0001
0010
0000
0100
,
1000
0001
0010
0000
0100
0000
1000
0000
0100
0000
1000
0000
0001
0100
0010
0000
,
0200
0300
0002
0003
2000
3000
0200
0300
2000
3000
0001
1000
0100
1000
0002
0000
,
2000
0000
0000
0000
,
0110
0000
0000
0000
,
0000
0000
0000
0000
,
0000
0000
0000
0000
,
0000
0000
3003
0000
,
1000
0000
0001
0000
0100
0000
0010
0000
1000
0010
1000
0000
0010
0000
0100
0000
,
0001
0000
0010
0000
0100
0000
0010
0000
0100
1000
0001
1000
0100
0000
1000
0000
,
0001
0000
1000
0000
0010
0000
1000
0000
0001
1000
0001
0000
1000
0000
0100
0000
,
0010
0100
0020
0000
0032
0000
2003
0000
,
3001
0000
0100
0000
0001
0000
0100
0000
0010
0100
0010
0000
0100
0000
0001
0000
,
1000
0000
0100
0000
0010
0000
0100
0000
0010
0001
1000
0001
0010
0000
0001
0000
,
0100
0000
0010
0000
1000
0000
0100
0000
1000
0100
1000
0000
0100
0000
0010
0000
,
0002
2003
3020
2030
3200
0320
0032
0000
,
1003
0100
0010
0001
0010
0100
1000
0001
0010
0001
1000
0000
0001
0000
1000
0000
,
0001
0100
0010
1000
0010
0100
0001
1000
0010
0100
0001
0000
1000
0000
0001
0000
,
0010
0100
1000
0001
0010
0001
1000
0100
0010
0100
1000
0000
0010
0000
0100
0000
,
0010
0100
0001
1000
0100
0010
0100
1000
0001
0010
0001
0000
0100
0000
0001
0000
,
1000
0010
1000
0001
1000
0010
0100
0010
1000
0001
0100
0000
0001
0000
0010
0000
,
0100
1000
0001
0010
0001
1000
0100
0010
0100
1000
0001
0000
0100
0000
0010
0000
,
1000
0100
0010
0100
1000
0001
0100
0010
1000
0100
1000
0001
1000
0000
0001
0000
,
2000
0000
3010
0100
0020
0000
0230
0000
0302
0000
0103
0010
1000
0001
1000
0010
,
0100
0000
0001
0000
0001
0000
1000
0100
1000
0000
0010
0000
0100
0000
0100
0000
,
0100
0000
0001
0000
0001
0000
1000
0001
0100
0000
0001
0000
1001
0000
0100
0000
,
1001
0000
0001
0100
0001
0000
0100
0010
0100
0000
0010
0000
1000
0000
1000
0000
,
0002
0003
0002
0003
1000
0001
0010
0100
,
1000
0100
1000
0001
0100
0000
0010
1000
0010
0000
1000
0001
1000
0001
1000
0000
,
0001
0100
0010
0100
0001
0000
0010
0100
1000
0000
0001
0000
0200
0000
0302
0000
,
2003
0000
3100
0010
0100
0000
0010
0001
0010
0000
0001
0000
1000
0010
0100
0000
,
0101
1001
0101
0000
,
0001
0000
0100
0010
0100
0000
0010
0000
1000
0000
0100
0010
0100
0000
0010
0000
,
0001
0000
0100
0010
0100
0000
0010
0000
1000
0000
0100
0010
0100
0000
0010
0000
,
0001
0000
1000
0100
1000
0000
0001
0000
0100
0000
0010
1000
0010
0000
0100
0000
,
0001
0000
1000
0100
1000
0000
0001
0000
0100
0000
0010
1000
0010
0000
0100
0000
,
0001
0001
1000
1000
0001
0001
1000
1000
,
0100
0010
0100
0010
0001
0010
0100
1000
,
0001
0100
0010
1000
0010
0100
0001
1000
0100
0010
0100
1000
0001
0100
0010
1000
,
0100
1000
0001
0010
0100
1000
0001
1000
0100
0010
0001
1000
0100
1000
0001
1000
,
0200
0000
0000
0000
,
1300
0000
0001
0100
0001
0000
1000
0000
0100
0000
1000
0010
1000
0000
0001
0000
,
0100
0000
0010
0100
0010
0000
1000
0000
0012
0000
0000
0000
0213
0000
0000
0000
,
1300
0000
0100
1000
0100
0000
1000
0000
0001
0000
0100
0010
0100
0000
0010
0000
,
1000
0000
0001
0010
0001
0000
0100
0000
1002
0000
0000
0000
0213
0000
0000
0000
,
0310
0000
1000
0010
0100
0000
0001
0000
0100
0000
0001
0010
0100
0000
1000
0000
,
1001
0000
0010
0000
1001
0000
0001
0000
1000
0000
0010
0100
0001
0100
0010
0000
,
1000
0001
0100
0000
0001
0000
0100
0000
0001
0000
0100
0000
0001
0010
0100
0000
,
1000
0000
0010
0100
0001
0000
1000
0000
0100
0000
0010
0001
0010
0000
0001
0000
,
1000
0010
0100
0010
1000
0000
0001
0000
0010
0100
1000
0001
0010
0000
0001
0000
,
1000
0001
0100
0010
0100
0000
0001
0000
0010
0100
0010
0001
1000
0100
0010
0100
,
1000
0001
0010
0001
1000
0000
0100
0000
0010
0100
1000
0001
0100
0000
0010
0000
,
0100
0010
1000
0010
0100
0000
0001
0000
1000
0100
1000
0001
1000
0010
1000
0001
,
1000
0010
0100
0010
1000
0000
0001
0000
1000
0100
0010
0001
1000
0000
0010
0000
,
0100
0000
0100
0000
0010
0000
0010
0000
1000
0001
0010
0100
1000
0000
0001
0000
,
1000
0100
0010
0100
1000
0000
0001
0000
1000
0001
0010
0001
1000
0000
0001
0000
,
1001
1001
1001
0110
,
0001
0100
0010
1000
0001
0100
0010
0100
0001
1000
0010
1000
0001
1000
0001
0010
,
0001
1000
0100
1000
0001
0010
0100
0010
0001
1000
0100
1000
0001
1000
0001
1000
,
0010
0100
0001
1000
0010
1000
0001
0100
0010
1000
0001
1000
0010
1000
0001
1000
,
0001
0010
0100
1000
0001
1000
0100
0010
0001
1000
0100
1000
0001
1000
0001
1000
,
0010
0100
0001
1000
0010
0100
0010
0100
0001
1000
0010
0100
0001
1000
0001
1000
,
0100
0010
0100
1000
0001
0010
0001
1000
0100
1000
0001
0010
0100
1000
0001
1000
,
0001
0100
0010
1000
0001
0100
0010
0100
0001
1000
0010
1000
0001
0000
1000
0000
,
0001
0000
1000
0100
1000
0000
0001
0000
0100
0000
0001
0100
0010
0100
0001
0000
,
1000
0100
0010
0100
1000
0010
0100
0001
0010
0001
1000
0001
0100
0000
0010
0000
,
1000
0100
1000
0010
1000
0100
0010
0001
0100
0010
1000
0001
1000
0000
0001
0000
,
0010
0100
1000
0001
0010
0001
0100
0001
1000
0100
1000
0010
0100
0000
0010
0000
,
1000
0001
0100
0001
0010
0100
1000
0001
1000
0100
0010
0001
1000
0000
0010
0000
,
0100
0010
1000
0100
1000
0010
1000
0001
0010
0001
0100
0001
1000
0000
0001
0000
,
0010
0001
1000
0010
1000
0100
0010
0001
1000
0001
0100
0001
0010
0000
0001
0000
,
0100
0010
1000
0010
0100
0001
0010
0100
1000
0010
0100
0001
0010
0001
0100
0010
,
1000
0100
0010
0001
0100
0010
1000
0100
0020
0000
0000
0000
0000
0000
0000
0000
,
0030
0000
0000
0000
;
