#TITLE:Lost World;
#SUBTITLE:;
#ARTIST:MILK;
#TITLETRANSLIT:;
#SUBTITLETRANSLIT:;
#ARTISTTRANSLIT:;
#CREDIT:;
#BANNER:bn.png;
#BACKGROUND:bg.png;
#LYRICSPATH:;
#CDTITLE:cdtitle.png;
#MUSIC:Lost World.mp3;
#OFFSET:1.340;
#SAMPLESTART:46.000;
#SAMPLELENGTH:13.000;
#SELECTABLE:YES;
#BPMS:0.000=160.000,196.000=80.000,212.000=160.000;
#STOPS:;
#BGCHANGES:;
// cache tags:
#FIRSTBEAT:4.000;
#LASTBEAT:308.000;
#SONGFILENAME:Songs/toune 3/Lost World/lostworld.sm;
#HASMUSIC:1;
#HASBANNER:1;
#MUSICLENGTH:132.649;
// end cache tags

//---------------dance-single - ----------------
#NOTES:
     dance-single:
     :
     Hard:
     9:
     0.650,0.958,0.219,0.317,0.155,533.000,29.000,42.000,0.000,0.000:
0000
0000
0000
0000
,
2010
0001
0100
3001
,
0012
1000
0100
1003
,
0120
1000
0100
0031
,
0210
0001
0010
1300
,
2010
0100
0001
3100
,
0012
0100
1000
0103
,
1020
0001
1000
0130
,
1200
0001
1300
1001
,
1000
0100
0010
0100
0000
1000
0010
1000
,
0000
0100
1000
0100
0000
1000
0001
1000
,
0010
0100
0001
0100
0000
0010
1000
0010
,
0000
0100
0010
0100
0000
1000
0001
0000
,
0010
0100
1000
0010
1000
0100
0010
0001
,
0001
0100
0010
1000
0100
1000
0001
0100
,
0001
0010
1000
0010
0100
1000
0010
0100
,
0001
0010
0001
0000
1000
0010
1000
0000
0100
0010
0100
0000
1001
0000
0000
0000
,
0010
1000
1000
0000
0001
0010
0010
0000
,
0100
0001
0001
1000
1000
0010
0010
0000
,
1000
0000
0100
0000
0002
0000
0000
0000
0103
0000
1000
0000
0001
0000
0100
0010
,
1000
0100
0010
0100
0010
0001
1000
0100
,
0010
0001
0001
0000
1000
0010
0010
0000
,
0100
1000
1000
0001
0001
0010
0010
0000
,
0001
0000
0100
0000
2000
0000
0000
0000
3100
0000
0001
0000
1000
0000
0100
0010
,
0001
0100
0010
0100
0000
0100
0010
1000
,
0100
1000
1000
0000
0001
0100
0100
0000
,
0010
0001
0001
1000
1000
0100
0100
0000
,
1000
0010
0002
0000
0013
0000
0001
1000
,
0000
1000
0100
0000
0000
0100
0010
0001
,
0100
0100
0100
0000
0010
0010
0010
0000
,
1000
1000
1000
0001
0100
0100
0100
0000
,
0001
0010
0001
0100
0010
1000
0100
0010
,
0001
0100
0001
0000
1000
0100
1000
0000
0010
0100
0010
0000
1001
0000
0000
0000
,
1000
0001
0100
0010
0001
0100
0010
0100
,
0001
0001
0010
0010
0100
0100
1000
1000
,
0001
1000
0100
0010
1000
0100
0010
0100
,
1000
1000
0010
0010
0100
0100
0001
0001
,
1000
0001
0100
0010
0001
0100
0010
0100
,
0001
0001
0100
0100
1000
1000
0010
0010
,
0001
1000
0100
0010
1000
0100
0010
0100
,
1000
1000
0100
0100
0001
0001
0010
0000
,
0001
1000
0010
0100
1000
0010
0100
0010
,
1000
1000
0100
0100
0010
0010
0001
0001
,
1000
0001
0010
0100
0001
0010
0100
0010
,
0001
0001
0100
0100
0010
0010
1000
1000
,
0001
1000
0010
0100
1000
0010
0100
0010
,
1000
1000
0010
0010
0001
0001
0100
0100
,
0001
0010
0001
1000
0100
0010
0001
0100
,
0001
0010
0001
0000
1000
0001
1000
0000
0100
1000
0100
0000
0110
0000
0110
0000
,
2000
3200
2300
3020
0230
0320
2030
3002
,
0023
0230
0302
0203
2300
3020
0230
0302
,
0023
2030
3020
0032
0203
0320
2030
3200
,
2300
3020
0032
0203
0302
0023
0230
1300
,
0100
0010
0001
0100
0000
0001
0010
1000
,
0000
0010
0001
1000
0000
0100
1000
0010
,
0100
0001
1000
0010
0000
1000
0100
0001
,
0000
0100
1000
0001
0000
0010
0001
0100
,
0001
0010
0100
1000
0010
0001
0010
1000
,
0100
0001
0100
0010
0001
0100
0001
1000
,
0100
0100
1000
0001
0010
0010
0001
0100
,
0010
1000
0010
0000
0100
0001
0100
0000
0010
0100
0010
0000
1001
0000
0000
0000
,
0010
0000
0000
0100
0000
0000
1000
0000
0000
1000
0000
0000
0001
0000
0100
0000
,
0001
0000
0000
1000
0000
0000
0010
0000
0000
0010
0000
0000
0100
0000
0001
0000
,
0100
0000
0000
0010
0000
0000
1000
0000
0000
1000
0000
0000
0001
0000
0010
0000
,
0001
0000
0000
1000
0000
0000
0100
0000
0000
0100
0000
0000
0010
0000
0001
0000
,
0100
0000
0000
0010
0000
0000
0001
0000
0000
0001
0000
0000
1000
0000
0010
0000
,
1000
0000
0000
0001
0000
0000
0100
0000
0000
0100
0000
0000
0010
0000
1000
0000
,
0010
0000
0000
0100
0000
0000
0001
0000
0000
0001
0000
0000
1000
0000
0100
0000
,
1000
0000
0000
0001
0000
0000
0010
0000
0000
0010
0000
0000
0100
0000
1000
0000
,
0011
0000
0000
0011
0000
0000
1001
0000
0000
1000
0000
0000
0100
0000
0010
0000
,
1001
0000
0000
1100
0000
0000
1100
0000
0000
1000
0000
0000
0010
0000
0100
0000
,
1010
0000
0000
1010
0000
0000
1001
0000
0000
0001
0000
0000
0100
0000
0010
0000
,
1001
0000
0000
0101
0000
0000
0101
0000
0000
0001
0000
0000
0010
0000
0100
0000
,
0001
1000
0100
0001
0100
1000
0010
1000
,
0100
0001
0010
0100
0010
1000
0010
0001
,
0100
0010
0100
0001
0010
0100
1000
0010
,
1000
0100
1000
0000
0010
0100
0010
0000
0001
0010
0001
0000
1001
0000
1001
0000
,
1001
0000
0000
0000
;

//---------------dance-single - Copied from----------------
#NOTES:
     dance-single:
     Copied from:
     Medium:
     6:
     0.424,0.522,0.158,0.188,0.000,348.000,21.000,25.000,0.000,0.000:
0000
0000
0000
0000
,
0010
0001
0100
0001
,
0010
1000
0100
1000
,
0100
1000
0100
0001
,
0010
0001
0010
1000
,
0010
0100
0001
0100
,
0010
0100
1000
0100
,
1000
0001
1000
0100
,
1000
0001
1000
1001
,
1000
0100
0000
0100
0000
1000
0000
1000
,
0000
0100
0000
0100
0000
1000
0000
1000
,
0000
0100
0000
0100
0000
0010
0000
0010
,
0000
0100
0000
0100
0000
1000
0001
0000
,
0010
0100
1000
0000
1000
0100
0010
0000
,
0001
0100
0010
0000
0100
0001
1000
0000
,
0001
0010
1000
0000
0010
0001
0100
0000
,
0001
1000
0001
0100
0010
0100
0001
0000
,
0010
1000
0001
0010
,
0100
0001
1000
0010
,
1000
0000
0002
0000
0103
0000
0001
0100
,
1000
0000
0100
0010
1000
0000
1000
0100
,
0010
0001
1000
0010
,
0100
1000
0001
0010
,
0001
0000
2000
0000
3100
0000
1000
0100
,
0000
0010
0000
0100
0000
1000
0000
1000
,
0100
1000
0001
0100
,
0010
0001
1000
0100
,
1000
0000
0002
0000
0013
0000
0001
1000
,
0000
1000
0000
0010
0000
0100
0000
0001
,
0100
0100
0010
0010
,
1000
1000
0100
0100
,
1000
0010
0100
0000
0001
0010
0100
0000
,
1000
0001
1000
0001
0010
0100
1000
0000
,
1000
0100
0001
0010
,
0001
0010
0100
1100
,
0001
0100
1000
0010
,
1000
0010
0100
0101
,
1000
0100
0001
0010
,
0001
0100
1000
1010
,
0001
0100
1000
0010
,
1000
0100
0001
0011
,
0001
0010
1000
0100
,
1000
0100
0010
0101
,
1000
0010
0001
0100
,
0001
0100
0010
1100
,
0001
0010
1000
0100
,
1000
0010
0001
0110
,
0001
0010
0001
0000
0100
0010
1000
0000
,
0001
1000
0100
0010
0100
0010
0100
0000
,
2000
3000
2000
3000
0200
0300
2000
3000
,
0020
0030
0002
0003
2000
3000
0200
1300
,
0020
0030
0020
0030
0200
0300
2000
3000
,
2000
3000
0002
0003
0002
0003
0200
0310
,
0100
0001
1000
0010
,
1000
0001
0010
1000
,
0100
1000
0001
0100
,
0010
1000
0100
0001
,
0001
0100
0010
0010
,
0100
0100
0001
0001
,
0100
0000
1000
0000
0010
0000
0001
0100
,
0010
1000
0001
1000
0001
0000
1001
0000
,
2000
0000
3100
0000
0010
0001
0100
0000
,
0002
0000
0103
0000
0010
1000
0100
0000
,
0020
0031
1100
0101
,
0020
1030
0101
1100
,
0200
0301
1010
0011
,
0200
1300
0011
1010
,
0100
1010
0100
0011
,
0010
0101
0010
1100
,
0010
0001
1000
0000
0100
1000
0001
0000
,
0010
0001
0100
0000
0010
1000
0100
0000
,
0100
1000
0010
0000
0100
0001
0010
0000
,
1000
0100
0010
0000
0001
0100
0010
0000
,
1000
0000
0100
0000
0100
0000
0010
1000
,
0100
0000
0010
0100
0010
0000
0010
0000
,
0100
0100
0010
1000
,
1000
0000
0010
0000
0001
0000
1000
0001
,
1000
0000
0000
0000
;

//---------------dance-single - Copied from Copied f----------------
#NOTES:
     dance-single:
     Copied from Copied f:
     Easy:
     3:
     0.233,0.290,0.053,0.068,0.000,200.000,7.000,9.000,0.000,0.000:
0000
0000
0000
0000
,
0010
0001
0000
0001
,
0000
0001
0000
0001
,
0100
1000
0000
1000
,
0000
1000
0000
1000
,
0010
0100
0000
0100
,
0000
0100
0000
0100
,
0001
0010
0000
0010
,
0000
0010
0000
1001
,
0100
0100
0100
0000
,
1000
1000
1000
0000
,
0100
0100
0100
0000
,
0010
0010
0000
1001
,
0010
1000
0000
0010
,
0001
0010
0000
1000
,
0001
1000
0000
0100
,
0001
0000
0010
0000
,
0010
0000
0001
0000
,
0100
0000
1000
0000
,
0002
0000
0003
0001
,
1000
0000
0010
0000
,
0010
0000
1000
0000
,
0100
0000
0001
0000
,
2000
0000
3000
1000
,
0001
0000
0100
0000
,
0100
0000
0001
0000
,
0010
0000
1000
0000
,
0002
0000
0003
0001
,
1000
1000
0000
0100
,
0100
0100
0000
0001
,
0001
0001
0000
0100
,
0000
0100
0000
0100
,
0000
1000
0000
1000
,
1000
0000
0001
0000
,
0001
0000
0100
0000
,
0000
0100
0000
0100
,
0000
0001
0000
0001
,
0001
0000
1000
0000
,
1000
0000
0100
0000
,
0001
0100
1000
0000
,
1000
0100
0001
0000
,
0001
0010
1000
0000
,
1000
0100
0010
0000
,
1000
0010
0001
0000
,
0001
0100
0010
0000
,
0001
0010
1000
0000
,
1000
0010
0001
0000
,
0001
0001
0100
0010
,
1000
0100
0100
0100
,
0010
0010
1000
1000
,
0100
0100
0010
0110
,
0010
0010
0001
0001
,
0100
0100
0010
0110
,
0000
0001
0000
0010
,
0000
0010
0000
0010
,
0100
0000
0001
0000
,
0010
1000
0100
0000
,
0001
0000
0010
0010
,
0100
0100
0000
0001
,
0100
0000
0010
0001
,
0010
0000
0001
1001
,
2000
3000
0010
0000
,
0002
0003
0010
0000
,
0020
0030
0000
1001
,
0020
0030
0001
0000
,
0200
0300
1000
0000
,
0200
0300
0001
0000
,
0100
1000
0100
0000
,
0010
0000
0010
0100
,
0010
0000
0100
0000
,
0010
0100
0010
0000
,
0100
0000
0000
0000
,
1000
0100
0001
0000
,
1000
0000
0100
0000
,
0100
0010
0100
0010
,
1000
1000
0001
0001
,
1000
0000
0001
1000
,
1001
0000
0000
0000
;

//---------------dance-single - Copied from Copied f----------------
#NOTES:
     dance-single:
     Copied from Copied f:
     Beginner:
     1:
     0.110,0.145,0.023,0.000,0.000,99.000,3.000,0.000,0.000,0.000:
0000
0000
0000
0000
,
0010
0000
0000
0000
,
0001
0000
0000
0000
,
0100
0000
0000
0000
,
1000
0000
0000
0000
,
0010
0000
0000
0000
,
0100
0000
0000
0000
,
0001
0000
0000
0000
,
0010
0000
0000
1001
,
0000
0000
0000
0000
,
1000
0000
0000
0000
,
0100
0000
0000
0000
,
0010
0000
0000
0000
,
0010
0000
0000
0000
,
0001
0000
0000
0000
,
0001
0000
0000
0000
,
0001
0000
0000
0000
,
0010
0000
0000
0000
,
0100
0000
0000
0000
,
0001
0000
0000
0000
,
1000
0000
0000
0000
,
0010
0000
0000
0000
,
0100
0000
0000
0000
,
1000
0000
0000
0000
,
0001
0000
0000
0000
,
0100
0000
0000
0000
,
0010
0000
0000
0000
,
0001
0000
0000
0000
,
1000
0000
0000
0000
,
0100
0000
0000
0000
,
0001
0000
0000
0000
,
0100
0000
0000
0000
,
1000
0000
0000
0000
,
1000
0000
0000
0000
,
0001
0000
0000
0000
,
0100
0000
0000
0000
,
0001
0000
0000
0000
,
0001
0000
0000
0000
,
1000
0000
0000
0000
,
0001
0000
0001
0000
,
0001
0000
0001
0000
,
1000
0000
1000
0000
,
1000
0000
1000
0000
,
0010
0000
0010
0000
,
0010
0000
0010
0000
,
0100
0000
0100
0000
,
0100
0000
0100
0000
,
0001
0001
0000
0000
,
1000
1000
0000
0000
,
0010
0000
0010
0000
,
0100
0000
0100
0000
,
0010
0000
0010
0000
,
0100
0000
0100
0000
,
0000
0000
0000
0010
,
0000
0000
0000
0010
,
0000
0000
0000
0001
,
0000
0000
0000
0100
,
0000
0001
0000
0000
,
0000
0100
0000
0000
,
0000
0100
0000
0000
,
0000
1001
0000
0000
,
1000
0000
1000
0000
,
0010
0000
0010
0000
,
0100
0000
0100
0000
,
0001
0000
0001
0000
,
0100
0000
0000
0000
,
0100
0000
0000
0000
,
0010
0000
0000
0000
,
0010
0000
0000
0000
,
0001
0000
0000
0000
,
0001
0000
0000
0000
,
1000
0000
0000
0000
,
1000
0000
0000
0000
,
1000
0000
0100
0000
,
1000
0000
0100
0000
,
0001
0000
0100
0000
,
0001
0000
0100
0000
,
1001
0000
0000
0000
;
