#TITLE:To Luv Me I *** For U;
#SUBTITLE:;
#ARTIST:T+Pazolite;
#TITLETRANSLIT:;
#SUBTITLETRANSLIT:;
#ARTISTTRANSLIT:;
#CREDIT:Aoreo;
#BANNER:../speedcore rejects ban.png;
#BACKGROUND:../speedcore rejects bg.png;
#LYRICSPATH:;
#CDTITLE:;
#MUSIC:To Luv Me I  For U.ogg;
#OFFSET:0.284;
#SAMPLESTART:15.341;
#SAMPLELENGTH:19.200;
#SELECTABLE:YES;
#BPMS:0.000=220.000;
#STOPS:;
#BGCHANGES:;
// cache tags:
#FIRSTBEAT:16.000;
#LASTBEAT:594.000;
#SONGFILENAME:Songs/Speedcore Rejects/To Luv Me I For U - [Aoreo]/To Luv Me I For U.sm;
#HASMUSIC:1;
#HASBANNER:1;
#MUSICLENGTH:161.852;
// end cache tags

//---------------dance-single - J. Nero----------------
#NOTES:
     dance-single:
     J. Nero:
     Challenge:
     17:
     1.000,1.000,0.161,0.599,1.000,1743.000,26.000,97.000,0.000,0.000:
0000
0000
0000
0000
,
0000
0000
0000
0000
,
0000
0000
0000
0000
,
0000
0000
0000
0000
,
2000
0000
3002
0000
0023
0230
2300
3002
,
1003
0100
1000
0100
0010
0001
1000
0001
1000
0100
1000
0100
0010
0001
0100
0001
,
0100
0010
1000
0010
0100
0001
0100
0010
1000
0001
0100
0001
0100
0010
1000
0100
,
1000
0100
0010
0001
1000
0001
1000
0100
0010
0001
1000
0001
1000
0100
1000
0001
,
0010
0001
1000
0100
1000
0001
0010
0001
0010
0100
1000
0001
1000
0001
0100
0010
,
0100
0001
0100
0001
1000
0100
0010
0001
1000
0001
0100
0001
1000
0100
0010
0001
,
1000
0010
1000
0010
0100
0001
0100
0001
1000
0010
0100
0001
0100
0010
1000
0001
,
0100
0010
0100
0001
1000
0100
0010
0001
0100
0010
0100
0001
1000
0100
0010
0001
,
2000
0000
3002
0000
0203
0320
2030
3002
,
1003
0010
1000
0010
0100
0001
0100
0010
1000
0001
0010
0100
0010
0100
1000
0001
,
1000
0100
1000
0001
0010
0001
1000
0100
0010
0001
1000
0001
1000
0100
1000
0001
,
0100
0010
1000
0001
1000
0001
0100
0010
1000
0001
1000
0001
0100
0010
0100
0001
,
1000
0100
0010
0001
1000
0001
0010
0100
1000
0001
0100
0010
1000
0001
1000
0010
,
0100
0001
0100
0001
1000
0010
1000
0010
0100
0001
0100
0001
1000
0010
1000
0001
,
1000
0100
0010
0100
0010
0001
1000
0001
1000
0100
0010
0100
0010
0001
1000
0001
,
1000
0010
0100
0001
0100
0010
1000
0001
1000
0001
0010
0100
1000
0001
1000
0100
,
0010
0001
1000
0001
1000
0010
0100
0001
0100
0010
1000
0001
1000
0100
0010
0001
,
1000
0000
0001
0100
0001
0100
0010
0000
1000
0100
1000
0010
0100
0001
0010
0100
,
1000
0001
1000
0100
0010
0001
1000
0001
1000
0100
1000
0100
0010
0001
0100
0001
,
0100
0010
1000
0010
0100
0001
0100
0010
1000
0001
0100
0001
0100
0010
1000
0100
,
1000
0100
0010
0001
1000
0001
1000
0100
0010
0001
1000
0001
1000
0100
1000
0010
,
0100
0001
0010
0000
0001
0100
0010
0000
1000
0010
0100
0000
0004
0000
4003
0000
,
3010
0100
0010
1000
0001
0010
0100
1000
0001
1000
0010
1000
0001
0010
0100
1000
,
0001
0100
0001
0100
0010
1000
0010
1000
0001
0100
0010
1000
0010
0100
0001
1000
,
0010
0100
0010
1000
0001
0010
0100
1000
0010
0100
0010
1000
0001
0010
0100
1000
,
0001
0100
0001
0100
0020
0000
0000
0030
1000
0100
1000
0001
0010
0100
1000
0010
,
0100
0001
0100
0001
1000
0010
0100
0010
1000
0001
0010
0100
0010
0100
1000
0001
,
1000
0100
1000
0001
0010
0001
1000
0100
0010
0001
1000
0001
1000
0100
1000
0001
,
0100
0010
1000
0001
1000
0001
0100
0010
1000
0001
1000
0001
0100
0010
0100
0001
,
1000
0100
0010
0000
0001
0100
0010
0000
1000
0010
0200
0300
0001
0000
2000
3000
,
0010
1000
0010
1000
0001
0100
0001
0100
0010
1000
0010
1000
0001
0100
0001
1000
,
0001
0010
0100
0010
0100
1000
0001
1000
0001
0010
0100
0010
0100
1000
0001
1000
,
0001
0100
0010
1000
0010
0100
0001
1000
0001
1000
0100
0010
0001
1000
0001
0010
,
0100
0000
1000
0100
1000
0100
0020
0000
0031
1000
0100
1000
0010
0100
0001
0010
,
0002
0000
0000
0000
2003
0000
0000
0000
3001
0100
0001
1000
0010
0100
0001
1000
,
0010
0100
0010
1000
0100
1000
0001
0100
0010
0100
0001
1000
0010
0100
0001
1000
,
0001
0100
0010
1000
0001
0100
0010
1000
0001
1000
0001
0100
0010
0100
0001
1000
,
0001
1000
0100
0010
0100
0010
0001
1000
0001
1000
0100
0010
0002
0000
0000
0000
,
1003
0000
0010
0000
0200
0000
0000
0000
0301
1000
0001
1000
0100
0010
0100
0010
,
0001
1000
0100
1000
0001
0010
0100
0010
0100
1000
0001
1000
0001
0100
0010
0100
,
0001
1000
0001
1000
0010
0100
0001
0100
0010
1000
0001
1000
0100
0010
0001
1000
,
0001
0010
0100
0010
0100
1000
0001
1000
0020
0000
0030
0000
0200
0000
0000
0000
,
0301
0010
0100
1000
0010
0100
0001
0100
0001
1000
0100
1000
0001
0100
0010
0100
,
0001
1000
0001
0010
0100
0010
0100
1000
0001
1000
0100
0010
0100
0010
0001
1000
,
0001
0100
0001
1000
0100
1000
0001
0010
0100
1000
0001
1000
0100
0010
0001
1000
,
0001
1000
0010
0100
0001
0100
0010
1000
0002
0000
0000
0000
2003
0000
3200
0000
,
0320
0000
0030
0000
0200
0000
0000
0000
1300
0001
0100
0001
1000
0010
0100
0001
,
0100
0010
1000
0001
1000
0001
0010
0100
0010
0100
1000
0001
1000
0010
0100
0001
,
0100
0010
1000
0001
1000
0001
0010
0100
0010
0100
1000
0001
0010
0001
1000
0100
,
1000
0001
0100
0010
0100
0001
1000
0010
1000
0010
0100
0001
0100
0010
1000
0001
,
0100
0001
0010
0100
1000
0001
1000
0001
0200
0000
0000
0000
0300
0000
0000
0000
,
0000
0000
0000
0000
,
0000
0000
0000
0000
0000
0000
0101
0000
0000
0000
0000
0001
,
0010
0000
0000
0000
0000
0100
1000
0000
0001
0100
0000
0010
,
0100
0000
0000
0000
0000
0000
0110
0000
0000
0010
0000
1000
,
0100
0000
0000
1000
0000
0100
0010
0000
0001
1000
0000
0010
,
0100
0000
0000
0100
0000
0000
1001
0000
0000
0000
0000
0001
,
0100
0000
0000
0000
0000
0001
0010
0000
0100
1000
0000
0010
,
0100
0000
0000
0000
0000
0000
0101
0000
0000
0000
0000
0001
,
1000
0000
0000
0000
0000
0100
1000
0000
0010
0100
0000
0001
,
0010
0000
0000
0100
0000
0000
1100
0000
0000
0000
0000
1000
,
0010
0000
0000
0000
0000
0100
0001
0000
0010
0100
0000
1000
,
0010
0000
0000
0000
0000
0000
0110
0000
0000
0000
0000
0100
,
0001
0000
0000
0000
0000
0010
0100
0000
1000
0001
0000
0100
,
0010
0000
0000
0100
0000
0000
0101
0000
0000
0000
0000
0001
,
1000
0000
0000
0000
0000
0100
1000
0000
0010
0100
0000
0001
,
0010
0000
0000
0100
0000
0000
1100
0000
0000
0000
0000
1000
,
0001
0000
0000
0000
0000
0000
0000
0000
1000
0000
0001
0100
0001
0000
1000
0100
,
1000
0000
0001
0000
0100
0010
0100
0010
1000
0000
0001
0000
0100
0000
0001
0010
,
0100
0010
0100
0000
1000
0000
0001
0000
0100
0000
0010
0000
1000
0000
0001
1000
,
0100
1000
0001
0000
0010
0000
0100
0000
1000
0000
0001
0000
0100
0000
0010
0100
,
0010
1000
0001
0000
0010
0000
0100
0000
1000
0000
0001
0100
0010
0000
0100
0001
,
1000
0000
0001
0000
0010
0100
0010
0100
1000
0000
0001
0000
0100
0000
0010
0100
,
0001
1000
0001
0000
1000
0000
0100
0000
1000
0000
0010
0000
0100
0000
0001
0100
,
0001
1000
0100
1000
0001
0000
0010
0000
0100
0000
1000
0000
0001
0000
1000
0100
,
1000
0001
0100
0000
0010
0000
1000
0000
0001
0000
0100
0010
0100
0000
0001
0000
,
1000
0000
0100
0010
0001
1000
0001
0010
0100
0000
1000
0000
0001
0000
0100
0010
,
0100
0001
1000
0000
0001
0000
0010
0000
0100
0000
1000
0000
0001
0000
1000
0000
,
0010
0000
0100
0001
0100
0010
1000
0001
1000
0000
0100
0000
0010
0000
0001
0010
,
0100
1000
0010
0000
0100
0000
0001
0000
1000
0000
0001
0100
0010
0000
1000
0010
,
0100
0000
0001
0000
0010
0100
0010
0100
1000
0000
0001
0000
0100
0000
0010
0100
,
0001
1000
0001
0000
0010
0000
0100
0000
1000
0000
0001
0000
0100
0000
0010
1000
,
0001
0100
0001
0000
1000
0000
0001
0000
0200
0000
0302
0000
0023
0000
0230
0000
,
2300
3001
0100
0010
2000
3002
0023
0230
,
2300
0000
0000
0000
0000
0000
3020
0000
0000
0000
0000
0000
0230
0000
0000
0000
0000
0000
0302
0000
0000
0003
0000
0000
1001
0000
0000
0000
0000
0000
0000
0000
0000
0000
0000
0000
2000
3000
0000
0000
0000
0000
0000
0000
0000
0000
0000
0000
,
2000
0000
0000
0000
0000
0000
3000
0000
0000
0000
0000
0000
0000
0000
0000
0000
0000
0000
0000
0000
0000
0000
0000
0000
0000
0000
0000
0000
0000
0000
0000
0000
0000
0000
0000
0000
0000
0000
0000
0000
0000
0000
0000
0000
0000
0000
0000
0000
2000
0000
0000
0000
0000
0000
0000
0000
3000
0000
0000
0000
0000
0000
0000
0000
0000
0000
0000
0000
0000
0000
0000
0000
0000
0000
0000
0000
0000
0000
0000
0000
0000
0000
0000
0000
0000
0000
0000
0000
0000
0000
0000
0000
0000
0000
0000
0000
2000
0000
0000
0000
0000
0000
0000
0000
0000
0000
0000
0000
3000
0000
0000
0000
0000
0000
0000
0000
0000
0000
0000
0000
0000
0000
0000
0000
0000
0000
0000
0000
0000
0000
0000
0000
0000
0000
0000
0000
0000
0000
0000
0000
0000
0000
0000
0000
2000
0000
0000
0000
0000
0000
0000
0000
0000
0000
0000
0000
0000
0000
0000
0000
3000
0000
0000
0000
0000
0000
0000
0000
0000
0000
0000
0000
0000
0000
0000
0000
0000
0000
0000
0000
0000
0000
0000
0000
0000
0000
0000
0000
0000
0000
0000
0000
,
2000
0000
0000
0000
3000
0000
0000
0000
1001
0000
0000
0000
0000
0000
0000
0000
0101
0000
0000
0000
0000
0000
0000
0000
0002
0003
0000
0000
0000
0000
0000
0000
,
0002
0000
0003
0000
0000
0000
0000
0000
0000
0000
0000
0000
0002
0000
0000
0003
0000
0000
0000
0000
0000
0000
0000
0000
0002
0000
0000
0000
0003
0000
0000
0000
0000
0000
0000
0000
0002
0000
0000
0000
0000
0000
0003
0000
0000
0000
0000
0000
,
0002
0000
0000
0003
1001
0000
0000
0000
1000
0100
1000
0001
0100
0010
0100
0001
,
1000
0001
0010
0100
1000
0001
1000
0001
0100
0010
0100
0001
1000
0100
0010
0100
,
0010
0001
1000
0001
1000
0100
1000
0001
0100
0001
1000
0010
0100
0010
0100
0001
,
1000
0001
1000
0010
0100
0001
0100
0010
1000
0010
0100
0001
1000
0001
1000
0100
,
0010
0001
1000
0001
1000
0010
0100
0001
0100
0000
0001
0100
0001
0100
0010
1000
,
0001
0100
0010
1000
0100
1000
0010
0100
0001
0010
0001
0010
0100
1000
0001
1000
,
0001
0010
0001
0010
0100
1000
0010
1000
0010
0100
0001
0100
0010
1000
0010
0100
,
0001
1000
0010
1000
0010
0100
0001
0010
0001
0010
0100
1000
0001
1000
0001
0010
,
0100
1000
0001
1000
0001
0010
0001
1000
0100
1000
0001
0010
0001
1000
0100
1000
,
0100
0010
0001
1000
0001
1000
0010
0100
0010
1000
0010
1000
0001
0010
0100
1000
,
0001
1000
0010
1000
0001
0010
0100
1000
0001
0100
0001
0100
0010
1000
0010
1000
,
0001
0100
0010
1000
0010
0100
0001
1000
0010
0100
0010
1000
0001
0010
0100
1000
,
0010
0100
0010
1000
0001
0010
0100
1000
0002
0000
0000
0000
2003
0000
0000
0000
,
3020
0000
0230
0000
0302
0000
2003
0000
3001
0100
0001
0100
0010
1000
0010
0100
,
0001
1000
0100
0010
0100
0010
0001
1000
0001
0010
0001
1000
0100
1000
0001
0010
,
0100
1000
0001
1000
0001
0010
0001
1000
0010
0100
0001
1000
0001
1000
0010
0100
,
0001
1000
0001
1000
0010
0100
0010
1000
0001
0010
0100
1000
0001
1000
0100
0010
,
0001
1000
0010
0100
0001
1000
0001
0100
0010
1000
0010
1000
0001
0100
0001
0100
,
0010
1000
0010
1000
0001
0100
0001
1000
0001
0010
0100
0010
0100
1000
0001
1000
,
0001
0010
0100
0010
0100
1000
0001
1000
0001
0100
0010
1000
0010
0100
0001
1000
,
0001
1000
0100
0010
0001
1000
0001
0010
0100
1000
0001
1000
0001
0100
0010
1000
,
0010
0100
0001
1000
0001
0010
0100
1000
0001
0000
0100
0001
0100
0001
1000
0010
,
0100
0001
0010
0100
1000
0010
0100
0001
1000
0001
1000
0100
0010
0001
1000
0001
,
1000
0100
1000
0100
0010
0001
0100
0001
0100
0010
1000
0010
0100
0001
0100
0010
,
1000
0001
0100
0001
0100
0010
1000
0100
1000
0100
0010
0001
1000
0001
1000
0100
,
0010
0001
1000
0001
1000
0100
1000
0010
0100
0001
0010
0000
0001
0100
0010
0000
,
1000
0010
0100
0000
0004
0000
4003
0000
3010
0100
0010
1000
0001
0010
0100
1000
,
0001
1000
0010
1000
0001
0010
0100
1000
0001
0100
0001
0100
0010
1000
0010
1000
,
0001
0100
0010
1000
0010
0100
0001
1000
0010
0100
0010
1000
0001
0010
0100
1000
,
0010
0100
0010
1000
0001
0010
0100
1000
0001
0100
0001
0100
0020
0000
0000
0030
,
1000
0100
1000
0001
0010
0100
1000
0010
0100
0001
0100
0001
1000
0010
0100
0010
,
1000
0001
0010
0100
0010
0100
1000
0001
1000
0100
1000
0001
0010
0001
1000
0100
,
0010
0001
1000
0001
1000
0100
1000
0001
0100
0010
1000
0001
1000
0001
0100
0010
,
1000
0001
1000
0001
0100
0010
0100
0001
1000
0100
0010
0000
0001
0100
0010
0000
,
1000
0010
0200
0300
0001
0000
2000
3000
0010
1000
0010
1000
0001
0100
0001
0100
,
0010
1000
0010
1000
0001
0100
0001
1000
0001
0010
0100
0010
0100
1000
0001
1000
,
0001
0010
0100
0010
0100
1000
0001
1000
0001
0100
0010
1000
0010
0100
0001
1000
,
0001
1000
0100
0010
0001
1000
0001
0010
0100
0000
1000
0100
1000
0100
0020
0000
,
0031
1000
0100
1000
0010
0100
0001
0010
0200
0000
0300
0000
0000
0000
0000
0000
,
2200
3300
0000
0000
2002
3003
0202
0303
,
0220
0330
0000
0000
2020
3030
0000
0000
,
2002
3003
0000
0000
0202
0303
0002
0023
,
0230
0000
0300
0000
0000
0000
0000
0000
2200
0000
3300
0000
4000
3000
0000
0000
,
0202
0000
0303
0000
0004
0003
0000
0000
0020
0000
0430
0300
2000
0000
3004
0003
,
0200
0000
0300
0000
0002
0003
0000
0000
2002
0000
3003
0000
0000
0000
2000
3000
,
2020
0000
3030
0000
0000
0000
0010
0000
1001
0000
1000
0001
0010
0000
0100
1000
,
0001
0000
0100
0000
0010
0000
1000
0000
0001
0100
0001
0100
0010
1000
0001
1000
,
0001
0010
0100
1000
0001
1000
0001
0100
0010
0100
0001
1000
0001
1000
0010
0100
,
0010
0100
0001
1000
0001
0100
0010
0100
0001
1000
0100
0010
0100
0010
0001
1000
,
0001
0100
0010
0100
0001
1000
0001
1000
0010
0100
0001
0000
1000
0010
0100
0000
,
0001
1000
0200
0300
1000
0000
0002
0003
0100
0001
1000
0001
0010
0100
1000
0001
,
1000
0100
0010
0001
1000
0001
1000
0010
0100
0001
0100
0010
1000
0001
0010
0100
,
1000
0000
0000
0000
0000
0000
0000
0000
0000
0000
0000
0000
0001
0000
0000
0000
0000
0000
0000
0000
0000
0000
0000
0000
1000
0000
0000
0000
0000
0000
0000
0000
0000
0000
0000
0000
0100
0000
0000
0000
0000
0000
0000
0000
0000
0000
0000
0000
0010
0000
0000
0000
0000
0000
0000
0000
0000
0000
0000
0000
0001
0000
0000
0000
0000
0000
0000
0000
0000
0000
0000
0000
1000
0000
0000
0000
0000
0000
0000
0000
0000
0000
0000
0000
0001
0000
0000
0000
0000
0000
0000
0000
0000
0000
0000
0000
1000
0000
0000
0000
0000
0000
0000
0000
0000
0000
0100
0000
0000
0000
0000
0000
0000
0000
0000
0000
1000
0000
0000
0000
0000
0000
0000
0000
0000
0000
0100
0000
0000
0000
0000
0000
0000
0000
0000
0000
0010
0000
0000
0000
0000
0000
0000
0000
0000
0000
0001
0000
0000
0000
0000
0000
0000
0000
0000
0000
1000
0000
0000
0000
0000
0000
0000
0000
0000
0000
0100
0000
0000
0000
0000
0000
0000
0000
0000
0000
0010
0000
0000
0000
0000
0000
0000
0000
0000
0000
0001
0000
0000
0000
0000
0000
,
0000
0000
0000
0000
1000
0000
0000
0000
0000
0000
0000
0000
0000
0000
0100
0000
0000
0000
0000
0000
0000
0000
0000
0000
1000
0000
0000
0000
0000
0000
0000
0000
0000
0000
0001
0000
0000
0000
0000
0000
0000
0000
0000
0000
0010
0000
0000
0000
0000
0000
0000
0000
0000
0000
0100
0000
0000
0000
0000
0000
0000
0000
0000
0000
1000
0000
0000
0000
0000
0000
0000
0000
0000
0000
0001
0000
0000
0000
0000
0000
0000
0000
0000
0000
0010
0000
0000
0000
0000
0000
0000
0000
0000
0000
0001
0000
0000
0000
0000
0000
0000
0000
0000
0000
1000
0000
0000
0000
0000
0000
0000
0000
0000
0000
0100
0000
0000
0000
0000
0000
0000
0000
0000
0000
0010
0000
0000
0000
0000
0000
0000
0000
0000
0000
0100
0000
0000
0000
0000
0000
0000
0000
0000
0000
0010
0000
0000
0000
0000
0000
0000
0000
0000
0000
0001
0000
0000
0000
0000
0000
0000
0000
0000
0000
1000
0000
0000
0000
0000
0000
0000
0000
0000
0000
0100
0000
0000
0000
0000
0000
0000
0000
0000
0000
0010
0000
0000
0000
0000
0000
0000
0000
,
0000
0000
0001
0000
0000
0000
0000
0000
0000
0000
0000
0000
1000
0000
0000
0000
0000
0000
0000
0000
0000
0000
0001
0000
0000
0000
0000
0000
0000
0000
0000
0000
0010
0000
0000
0000
0000
0000
0000
0000
0000
0000
0100
0000
0000
0000
0000
0000
0000
0000
0000
0000
1000
0000
0000
0000
0000
0000
0000
0000
0000
0000
0001
0000
0000
0000
0000
0000
0000
0000
0000
0000
1000
0000
0000
0000
0000
0000
0000
0000
0000
0000
0001
0000
0000
0000
0000
0000
0000
0000
0000
0000
0000
0000
0000
0000
0200
0000
0000
0000
0000
0000
0000
0000
0000
0000
0000
0000
0000
0000
0000
0000
0000
0000
0000
0000
0000
0000
0000
0000
0000
0000
0000
0000
0000
0000
0000
0000
0000
0000
0000
0000
0000
0000
0000
0000
0000
0000
0000
0000
0000
0000
0000
0000
0000
0000
0000
0000
0000
0000
0000
0000
0000
0000
0000
0000
0000
0000
0000
0000
0000
0000
0000
0000
0000
0000
0000
0000
0000
0000
0000
0000
0000
0000
0000
0000
0000
0000
0000
0000
0000
0000
0000
0000
0000
0000
0000
0000
0000
0000
0000
0000
,
0000
0000
0000
0000
,
0000
0000
0300
0000
;
