#TITLE:NEBULA GRASPER;
#SUBTITLE:;
#ARTIST:L.E.D.;
#TITLETRANSLIT:;
#SUBTITLETRANSLIT:;
#ARTISTTRANSLIT:;
#CREDIT:;
#BANNER:nebula.png;
#BACKGROUND:nebulabg.png;
#LYRICSPATH:;
#CDTITLE:;
#MUSIC:NEBULA GRASPER.mp3;
#OFFSET:0.520;
#SAMPLESTART:80.976;
#SAMPLELENGTH:12.000;
#SELECTABLE:YES;
#BPMS:0.000=153.000,199.000=90.000,201.000=153.000;
#STOPS:44.000=1.180
,201.000=0.900
;
#BGCHANGES:;
// cache tags:
#FIRSTBEAT:12.000;
#LASTBEAT:304.000;
#SONGFILENAME:Songs/Ace Megapack/NEBULA GRASPER/nebula.sm;
#HASMUSIC:1;
#HASBANNER:1;
#MUSICLENGTH:121.661;
// end cache tags

//---------------dance-single - ----------------
#NOTES:
     dance-single:
     :
     Hard:
     11:
     1.000,1.000,0.518,0.403,1.000,748.000,63.000,49.000,0.000,0.000:  // measure 1
0000
0000
0000
0000
,  // measure 2
0000
0000
0000
0000
,  // measure 3
0000
0000
0000
0000
,  // measure 4
1000
0000
0100
0000
0010
0001
1000
0001
0010
0000
0100
0000
0010
1000
0001
1000
,  // measure 5
0010
0000
0100
0000
0001
1000
0100
1000
0001
0000
0100
0000
1000
0001
1000
0100
,  // measure 6
1000
0000
0010
0000
1000
0100
0010
0001
0010
0000
0011
0000
0001
0100
0010
1000
,  // measure 7
0010
0000
1001
0000
0010
1000
0100
0010
0001
0000
0110
0000
0000
0000
0010
0000
,  // measure 8
1001
1000
0100
1000
0100
0010
0001
0010
0001
0100
0010
0100
0010
1000
0001
1000
,  // measure 9
1001
0001
0010
0100
1000
0100
0010
0001
1000
0010
0100
0001
0100
0010
1010
0000
,  // measure 10
2200
0000
3300
0011
0202
0000
0303
1001
,  // measure 11
1100
1001
0011
0110
1001
1100
1001
0011
,  // measure 12
2002
3003
0000
0000
1100
0000
1001
0000
1000
0001
0100
0000
0101
0000
1001
0000
,  // measure 13
0001
1000
0100
0000
0110
0000
0011
0000
0001
0010
0100
0000
0110
0000
1100
0000
,  // measure 14
1000
0100
0010
0000
0011
0000
1100
0000
1000
0100
0010
0000
0011
0000
0101
0000
,  // measure 15
0001
0100
0010
0000
0110
0000
1001
0000
1000
0010
0100
0000
0110
0000
1001
0000
,  // measure 16
1000
0001
0010
0000
0110
0000
1001
0000
0100
0010
0001
0000
1100
0000
0011
0000
,  // measure 17
0001
0010
0100
0000
1100
0000
0011
0000
0001
0010
0100
0000
1001
0000
1001
0000
,  // measure 18
0001
1000
0001
0000
0110
0000
0110
0000
0010
0100
0010
0000
1001
0000
1001
0000
,  // measure 19
0001
1000
0001
0000
2000
0000
0000
0000
0000
0000
0000
0000
0000
0000
0000
0000
,  // measure 20
3200
0000
0000
0000
0300
1000
0100
1000
0100
0010
0001
0010
0001
0100
0010
0100
,  // measure 21
0010
1000
0001
1000
0001
0010
0100
0010
0100
1000
0100
1000
0100
0010
0001
0010
,  // measure 22
0001
1000
0001
1000
0001
0010
0001
0010
0001
1000
0100
1000
0100
0010
0100
0010
,  // measure 23
0100
0010
0001
0010
0001
1000
0100
1000
0100
0010
0001
0010
0001
0100
0010
0100
,  // measure 24
0010
1000
0001
1000
0001
0010
0100
0010
0100
1000
0100
1000
0100
0010
0001
0010
,  // measure 25
0001
0010
0100
0010
0100
1000
0100
1000
0100
0010
0001
0010
0001
0010
0100
0010
,  // measure 26
0100
1000
0100
1000
0100
0010
0001
0010
0001
0100
0010
0100
0010
1000
0001
1000
,  // measure 27
0001
1000
0100
1000
0200
0000
0000
0000
0000
0000
0000
0000
0000
0000
0000
0000
,  // measure 28
2300
0000
0000
0000
3000
0010
1000
0100
0010
0001
0100
0010
1000
0100
0010
0001
,  // measure 29
0100
0010
1000
0100
0010
0001
0010
0100
1000
0010
0100
0010
1000
0100
0010
0001
,  // measure 30
0100
0010
1000
0100
0010
0001
0010
0100
0010
0001
1000
0010
0100
0001
1000
0010
,  // measure 31
0100
0001
0100
0010
1000
0010
0100
0001
0100
0010
1000
0100
0010
0001
0100
0010
,  // measure 32
1000
0100
0010
0002
0000
0103
0010
1000
0010
0100
0001
0100
0000
0010
0000
1000
,  // measure 33
0010
0000
0010
2000
0000
3010
1000
0100
0010
0001
0100
0010
1000
0000
1000
0100
,  // measure 34
0000
0100
2000
3000
1100
1000
0100
0010
0001
0010
0100
1000
1100
1000
0100
0010
,  // measure 35
0001
0010
0100
1000
1100
0000
1001
0000
0011
0000
1001
0000
1100
0000
0110
0000
,  // measure 36
0011
2001
0000
0000
0000
0000
0000
0000
,  // measure 37
0000
0000
0000
0000
,  // measure 38
0000
0000
0002
0003
0000
0000
0000
0000
,  // measure 39
0000
0000
0000
0000
,  // measure 40
0000
0000
0002
0003
0000
0000
0000
0000
,  // measure 41
0000
0000
0002
3003
0000
0000
0000
0000
,  // measure 42
0000
0000
0000
0000
0020
0032
0023
0032
2003
3020
0230
0302
0023
0230
2300
3200
,  // measure 43
0320
0032
0023
0230
2300
3200
2300
3200
0320
0230
0320
0230
0320
0032
0023
0032
,  // measure 44
0003
2002
0000
0000
,  // measure 45
0000
0000
0000
0000
,  // measure 46
0000
0000
0000
0000
,  // measure 47
0000
0000
0000
0000
,  // measure 48
0000
0000
0000
0000
,  // measure 49
0000
0000
0000
0000
,  // measure 50
0000
0000
0000
0000
,  // measure 51
0000
0000
0000
0000
3003
0100
0010
0001
1000
0010
0100
0000
0100
0010
0000
0010
,  // measure 52
1000
0000
1000
0001
0000
1000
0010
0100
0001
0010
0100
0000
1000
0100
0000
0100
,  // measure 53
0010
0000
0010
0001
0000
0100
0010
1000
0100
0010
0001
0000
1000
0100
0000
0100
,  // measure 54
0010
0000
0010
0001
0000
1000
0001
0010
0100
1000
0001
0000
0001
0010
0000
0010
,  // measure 55
0100
0000
0000
0000
1000
0000
0001
0000
1000
0000
0001
0000
0000
0000
0000
1000
0000
0000
0100
0000
0000
0010
0000
0000
0001
0000
0000
0010
0000
0000
0100
0000
0000
0000
0000
0000
1000
0000
0000
0001
0000
0000
0000
0000
0000
0001
0000
0000
,  // measure 56
1000
0000
1000
0100
0000
1000
0100
0010
0001
1000
0100
0000
0001
0010
0000
0010
,  // measure 57
0100
0000
0100
1000
0000
0100
1000
0010
0100
0001
1000
0000
1000
0100
0000
0010
,  // measure 58
0001
0000
0100
0010
0000
0010
0100
0001
0010
0100
1000
0000
0010
0100
0000
0001
,  // measure 59
1000
0000
0100
0010
0000
1000
0100
1000
0100
1000
0100
0000
0010
0001
0000
0010
,  // measure 60
0001
0000
0010
0001
0000
0001
0100
0001
0100
0001
0100
0000
0010
1000
0000
0010
,  // measure 61
1000
0000
0010
1000
0000
0100
0010
0100
0010
0100
0010
0000
0100
0010
0000
0100
,  // measure 62
0010
0000
0100
0010
0000
0001
1000
0001
1000
0001
1000
0000
0001
1000
0000
0001
,  // measure 63
1000
0000
0000
0000
0000
0000
0000
0000
1000
0000
0001
0000
1000
0000
0001
0000
0000
0000
0000
0000
0000
1000
0000
0000
0100
0000
0000
0010
0000
0000
0001
0000
0000
0010
0000
0000
0100
0000
0000
1000
0000
0000
0100
0000
0000
0010
0000
0000
,  // measure 64
0001
0010
0100
1000
0001
0100
0010
1000
0001
0100
0010
1000
0001
0100
0010
1000
,  // measure 65
0100
1000
0100
0010
0001
0010
0001
0100
0010
0100
0010
1000
0001
1000
0001
0010
,  // measure 66
0100
0010
0100
1000
0001
1000
0001
0010
0100
0010
0100
1000
0100
1000
0100
0010
,  // measure 67
0100
1000
0010
0100
0001
0000
0000
1000
0100
1000
0100
0010
0001
0010
0001
0100
,  // measure 68
0010
0100
0010
1000
0010
1000
0001
1000
0010
1000
0100
0010
0001
1000
0001
0010
,  // measure 69
0001
0100
0001
0100
0010
1000
0100
0010
0001
0100
0010
1000
0100
0010
0001
0010
,  // measure 70
0100
1000
0100
0010
0100
0010
0001
0010
0100
1000
0100
0010
0001
0100
0010
1000
,  // measure 71
0001
0100
0010
1000
0100
1001
0000
1000
0001
0010
0100
0010
0100
1000
0010
0100
,  // measure 72
0001
0100
0010
1000
0100
1001
0000
0100
0010
1000
0100
0010
0001
0010
0100
0010
,  // measure 73
0001
1000
0010
0100
0001
1001
0000
0100
0001
0010
0100
1000
0100
1001
0000
1000
,  // measure 74
0100
0010
0001
0010
0100
1000
0100
0010
0001
1000
0001
1000
0001
0010
0100
0010
,  // measure 75
0100
1000
0001
2002
0000
0000
0000
0000
0000
0000
0000
0000
0000
0000
0000
0000
,  // measure 76
0000
0000
0000
0000
,  // measure 77
3003
0000
0000
0000
;
