#TITLE:Pick Me Up & Tango;
#SUBTITLE:;
#ARTIST:Nina;
#TITLETRANSLIT:;
#SUBTITLETRANSLIT:;
#ARTISTTRANSLIT:;
#CREDIT:;
#BANNER:Pick Me Up & Tango-banner.png;
#BACKGROUND:Pick Me Up & Tango-bg.png;
#LYRICSPATH:;
#CDTITLE:;
#MUSIC:Pick Me Up & Tango.ogg;
#OFFSET:-0.550;
#SAMPLESTART:29.380;
#SAMPLELENGTH:9.980;
#SELECTABLE:YES;
#BPMS:0.000=133.000;
#STOPS:;
#BGCHANGES:-10000.000=songbackground=1.000=0=0=1,
0.000=Pick Me Up & Tango-bg.png=1.000=0=0=1,
32.000=In The Groove 2/629_JumpBack.mpg=1.000=0=0=1,
64.000=In The Groove 2/955_JumpBack.mpg=1.000=0=0=1,
102.000=In The Groove 2/761_JumpBack.mpg=1.000=0=0=1,
162.000=In The Groove 2/955_JumpBack.mpg=1.000=0=0=1,
170.000=In The Groove 2/934_JumpBack.mpg=1.000=0=0=1,
200.000=In The Groove 2/938_JumpBack.mpg=1.000=0=0=1,
236.000=Pick Me Up & Tango-bg.png=1.000=0=0=1,
99999=-nosongbg-=1.000=0=0=0 // don't automatically add -songbackground-
;
// cache tags:
#FIRSTBEAT:15.000;
#LASTBEAT:236.000;
#SONGFILENAME:Songs/In The Groove 2 (Official)/Pick Me Up & Tango/Pick Me Up & Tango.sm;
#HASMUSIC:0;
#HASBANNER:1;
#MUSICLENGTH:100.000;
// end cache tags

//---------------dance-single - K. Ward----------------
#NOTES:
     dance-single:
     K. Ward:
     Hard:
     8:
     0.463,0.502,0.290,0.000,0.035,295.000,29.000,0.000,18.000,0.000:







0000
0000
0000
0000
,
0000
0000
0000
0000
,
0000
0000
0000
0000
,
0000
0000
0000
0000
0000
0000
1000
0010
,
0001
0000
1000
0010
0001
0000
0010
0100
,
0001
0010
0001
1000
0000
0000
0000
0000
,
1100
0000
0000
0011
0000
0110
0000
1001
,
0000
1001
0000
0000
M00M
0000
0000
0000
,
0001
0100
1000
0000
0100
0001
0010
0000
,
0010
0100
0010
0001
0000
1000
1000
1000
,
0010
0000
0100
0001
0010
0000
0100
0000
,
0010
0001
0100
1000
0000
0100
0100
0100
,
0010
0000
0010
0100
0001
0000
0001
1000
,
0100
0010
0100
1000
0000
0001
0001
0001
,
0100
0000
0010
1000
0100
0000
0010
0000
,
0011
0000
0000
0000
0000
0000
1100
0000
0000
0000
0110
0000
0000
1001
0000
0000
,
0100
0000
0100
0010
0100
0000
0100
0001
,
0010
0000
0010
0100
1000
0001
0010
0001
,
1000
0000
1000
0100
0010
0000
0010
0100
,
1000
0000
0010
0100
0001
0010
0001
0001
,
0100
0000
0100
1000
0100
0000
0010
1000
,
0010
0000
0100
0001
0010
0001
0010
0000
,
0100
1000
0010
0001
,
1000
0001
1000
0001
1000
0000
0000
0000
,
0000
0000
0000
0100
,
0100
0000
0000
0000
1000
0100
0001
0100
,
1000
0100
0001
0100
0010
0100
0010
1000
,
0010
0100
0010
0100
0001
0100
1000
0100
,
0001
0100
1000
0100
0010
0001
0010
0100
,
0010
0001
0010
0100
0001
1000
0100
0010
,
0001
0010
0100
0010
0100
1000
0001
0100
,
0010
1000
0010
0100
0001
1000
0100
0010
,
0001
0100
0010
1000
0001
0000
0000
1100
,
0000
0000
0011
0000
0000
0110
0000
0000
0000
0000
0001
0000
0001
0000
0000
0000
,
0000
0MM0
0MM0
0000
0000
1000
1000
0000
,
0000
0MM0
0MM0
0000
0100
0100
0100
0000
,
0000
0MM0
0MM0
0000
0010
0010
0010
0000
,
0000
0MM0
0MM0
0000
1001
0000
1001
0000
,
0110
0110
1001
0000
,
0000
0000
0000
0000
0100
0100
0100
0000
,
0001
0001
0001
0000
1000
0000
0000
0000
,
0000
0000
0000
0000
0000
0000
0000
0000
1000
0000
0000
0010
0000
0000
0100
0000
,
0000
0000
0000
0110
0000
0000
1001
0000
0000
0000
0000
0000
0100
0000
0000
0000
0000
0100
0010
0000
0000
0000
0000
0000
,
1000
0001
0010
0000
0001
0000
0001
0000
,
1000
0000
0000
0100
0000
0000
0010
0000
0000
0100
0000
0000
1000
0000
0000
0000
0000
0010
0100
0000
0000
0000
0000
0000
,
0001
0000
0001
0000
1000
0000
1000
0010
,
0100
0000
0000
0001
0000
0000
0010
0000
0000
0001
0000
0000
1000
0000
0000
0000
0000
1000
0100
0000
0000
0000
0000
0000
,
0010
0000
0100
1001
0000
0000
0000
0010
,
0100
0010
1000
0001
0010
0000
0001
0000
,
0100
1000
1001
0110
,
1000
0100
0001
0100
1000
0010
0001
0010
,
0100
0001
0110
0110
,
1000
0001
0100
1000
0100
0001
0010
0001
,
0000
1000
0000
0000
0110
0000
0110
0000
,
0001
0100
1000
0100
0001
0010
0100
0010
,
0001
1000
0110
0110
,
1000
0001
1000
0000
0100
1000
0100
0000
,
0001
0000
0010
0000
0100
0000
0010
0000
0001
0000
0000
0000
0000
0000
1000
0100
,
1000
0010
0100
0001
0010
0000
0000
0000
,
1100
0000
0000
0000
;

//---------------dance-single - K. Ward----------------
#NOTES:
     dance-single:
     K. Ward:
     Medium:
     6:
     0.337,0.354,0.270,0.150,0.000,194.000,27.000,15.000,0.000,0.000:
















0000
0000
0000
0000
,
0000
0000
0000
0000
,
0000
0000
0000
0000
,
0000
0000
0000
2000
,
3001
0020
0031
1000
,
0010
0100
0010
0100
0000
0000
0000
0000
,
1001
0000
0000
1100
0000
1100
0000
0220
,
0000
0330
0000
0000
0000
0000
0000
0000
,
0001
1000
0001
1000
,
0010
0100
0010
0100
0000
0000
0000
0000
,
0001
0001
1000
1000
,
0010
0000
0000
1001
0000
0000
0000
0000
,
0100
0100
0010
0010
,
1000
0001
1000
0001
0000
0000
0000
0000
,
1000
0100
1000
0000
0001
0010
0001
0000
,
0100
0000
0000
0110
0000
0000
0000
0000
,
1000
0000
1000
0001
1000
0000
1000
0000
,
0010
0110
0001
0001
,
1000
0000
0100
0010
0000
0001
0000
0100
,
0000
1001
0000
0000
0000
0000
0000
0000
,
0100
0000
0100
0000
0010
0100
0001
0000
,
0010
0011
0000
0000
,
1000
1100
0001
0011
,
0100
0010
1001
0000
,
0000
0000
0000
0010
,
0010
0000
0001
0001
,
1000
1000
0010
0110
,
1001
0000
0010
0010
,
0001
0000
0001
0000
1000
0100
1000
0100
,
0000
0000
0010
0001
,
0100
0000
1000
0000
0001
1000
0001
1000
,
0000
0000
1100
1100
,
0011
0000
0011
0000
0110
0000
0000
1001
,
0000
0000
0002
0000
,
1003
0000
2000
0000
,
0010
3001
0020
0000
,
0032
0000
2003
0000
,
0010
3001
0001
0100
,
0010
1000
1000
0010
,
0100
0001
0020
0000
,
0130
0100
2000
0000
,
0000
0000
0001
0010
,
3001
0000
0000
0000
1000
0100
1000
0000
,
1100
0000
0000
0000
0001
0010
0001
0000
,
0011
0000
0000
0000
1000
0001
1000
0000
,
1001
0000
0000
0000
0010
0100
0010
0000
,
0110
0000
0001
0001
,
1000
1000
0010
0110
,
0000
0000
0000
0000
0001
1000
0001
0000
,
1000
0001
1000
0000
0010
0000
0110
0000
,
1000
0000
1000
0100
1000
0000
0002
0000
,
0010
0013
0000
0000
,
1000
0000
1000
0001
1000
0000
0020
0000
,
0100
0130
0000
0000
,
0001
0000
0001
1000
0001
0000
0200
0000
,
0010
0310
0000
0000
,
0100
0010
0100
0000
0001
0010
0001
0000
,
1000
0001
1000
0001
2000
0000
0000
0000
,
0001
0010
3100
0000
,
0011
0000
0000
0000
;

//---------------dance-single - K. Ward----------------
#NOTES:
     dance-single:
     K. Ward:
     Easy:
     3:
     0.250,0.236,0.170,0.090,0.000,149.000,17.000,9.000,0.000,0.000:








0000
0000
0000
0000
,
0000
0000
0000
0000
,
0000
0000
0000
0000
,
0000
0000
0000
0000
,
1000
0001
1000
0010
,
0100
0100
0100
0000
,
0001
0000
0000
1000
0000
0001
0000
1000
,
0000
0000
0000
0000
,
1000
0001
0010
0001
,
1000
1000
1000
0000
,
0010
0100
0010
0100
,
0001
0001
0001
0000
,
1000
0010
0100
0010
,
1000
1000
1000
0000
,
0010
0100
0010
0100
,
1001
0000
0000
0000
,
0010
0010
0010
0010
,
0020
0000
0000
0030
,
0100
0100
0100
0100
,
0200
0000
0000
0300
,
0001
0001
0001
0001
,
0002
0000
0000
0003
,
1000
0001
0100
0001
,
1000
1000
1001
0000
,
0000
0000
0000
0000
,
0000
0000
1001
0000
,
0001
1000
0100
0100
,
0100
0000
1000
0000
,
0001
0000
0100
0100
,
0100
0000
0001
0001
,
1000
0000
1000
0000
0001
0000
0000
1000
,
0000
0000
0010
0100
,
0001
0000
0010
0000
0100
0000
0000
0100
,
0000
0000
0110
0110
,
0000
0000
1001
1001
,
0000
0000
0110
0110
,
0000
0000
1001
1001
,
0000
0000
0010
0010
,
0010
0000
0100
0100
,
0100
0000
0010
0001
,
0100
1000
1001
0000
,
0000
0000
0100
0000
,
0000
0000
1001
0001
,
0001
0001
0002
0000
,
0003
0000
1001
1000
,
1000
1000
2000
0000
,
3000
0000
0010
0100
,
0010
0100
0001
0002
,
0000
0003
0100
1000
,
0010
0001
1000
0001
,
1001
0000
0110
0000
,
0001
0002
0000
0003
,
1000
0010
0100
0001
,
0010
0020
0000
0030
,
0001
1000
0001
0010
,
0100
0200
0000
0300
,
1000
0000
0001
0000
,
0100
0010
1000
0000
,
0001
0010
0100
0000
,
1001
0000
0000
0000
;

//---------------dance-single - K. Ward----------------
#NOTES:
     dance-single:
     K. Ward:
     Beginner:
     1:
     0.083,0.148,0.080,0.000,0.000,50.000,8.000,0.000,0.000,0.000:





0000
0000
0000
0000
,
0000
0000
0000
0000
,
0000
0000
0000
0000
,
0000
0000
0000
0000
,
1000
0000
0000
0000
,
0001
0000
0000
0000
,
0100
0000
0100
0000
,
0100
0000
0000
0000
,
0010
0000
0000
0000
,
1000
0000
0000
0000
,
0001
0000
0000
0000
,
1000
0000
0000
0000
,
0010
0000
0100
0000
,
0010
0000
0000
0000
,
1001
0000
0000
0000
,
1001
0000
0000
0000
,
1000
0000
0000
0000
,
0000
0000
0000
0000
,
0001
0000
0000
0000
,
0000
0000
0000
0000
,
1000
0000
0000
0000
,
0000
0000
0000
0000
,
0001
0000
1000
0000
,
0001
0000
0000
0000
,
0000
0000
0000
0000
,
0000
0000
0110
0000
,
0000
0000
0000
0000
,
0000
0000
1001
0000
,
0000
0000
0000
0000
,
0000
0000
0100
0000
,
0100
0000
0100
0000
,
0000
0000
0010
0000
,
0010
0000
0010
0000
,
0000
0000
1000
0000
,
0000
0000
0100
0000
,
0000
0000
0010
0000
,
0000
0000
0001
0000
,
0000
0000
0001
0000
,
0000
0000
0010
0000
,
0000
0000
0100
0000
,
0000
0000
1000
0000
,
0000
0000
0000
0000
,
0000
0000
1001
0000
,
0000
0000
0000
0000
,
0000
0000
1001
0000
,
0000
0000
0000
0000
,
0000
0000
0110
0000
,
0000
0000
0000
0000
,
0000
0000
0100
0000
,
0010
0000
0100
0000
,
0001
0000
0000
0000
,
0000
0000
0000
0000
,
1000
0000
0000
0000
,
0000
0000
0000
0000
,
0001
0000
0000
0000
,
0000
0000
0000
0000
,
1000
0000
1000
0000
,
0001
0000
0001
0000
,
0000
0000
0000
0000
,
1001
0000
0000
0000
;

//---------------dance-double - M. Emirzian----------------
#NOTES:
     dance-double:
     M. Emirzian:
     Hard:
     8:
     0.449,0.413,0.080,0.000,0.020,306.000,8.000,0.000,0.000,0.000:








00000000
00000000
00000000
00000000
,
00000000
00000000
00000000
00000000
,
00000000
00000000
00000000
00000000
,
00000000
00000000
00000000
00000000
,
00010000
00000000
10000000
01000000
00010000
00000000
01000000
10000000
,
00100000
00000000
00010000
00001000
00000000
00000000
00010000
00001000
,
00000100
00000000
00000001
00000010
00000000
00000100
00000000
00001000
,
00000000
00000001
00000000
00000000
00000000
00000000
00000000
00000000
,
00000100
00000000
00000010
00001000
00000100
00000000
00000001
00000100
,
00001000
00000000
00000010
00010000
00000000
00000000
00100000
00010000
,
00001000
00000000
00010000
01000000
10000000
00000000
00100000
10000000
,
01000000
00000000
00010000
00001000
00000000
00000000
00000100
00001000
,
00010000
00000000
00000001
00000010
00001000
00000000
00000001
00000100
,
00010000
00000000
00001000
00000100
00000000
00000000
00001000
00010000
,
00100000
00000000
10000000
01000000
00010000
00000000
00001000
00000000
,
00011000
00000000
00000000
00000000
00000000
00000000
00101000
00000000
00000000
00000000
00011000
00000000
00000000
00010010
00000000
00000000
,
00001000
00000000
00000010
00001000
00000100
00000000
00000001
00000100
,
00010000
00000000
00100000
00010000
00001000
00010000
01000000
00000000
,
00100000
00000000
00010000
01000000
10000000
00000000
01000000
00010000
,
00100000
00000000
01000000
00010000
00001000
00000100
00001000
00010000
,
00100000
00000000
00010000
00001000
00000010
00000000
00000001
00000100
,
00001000
00000000
00010000
01000000
00010000
00001000
01000000
00000000
,
00100000
00000000
00010000
00001000
00100000
00000000
01000000
10000000
,
00100000
00000000
00010000
00001000
00000010
00000000
00000000
00000000
,
00000001
00000000
00001000
00000100
,
00001000
00000000
00000100
00000010
00000001
00000000
00000100
00001000
,
00010000
00000000
10000000
01000000
00010000
00000000
00100000
01000000
,
00000000
00000000
00100000
00001000
00010000
00000000
00100000
00010000
,
00001000
00000000
00000001
00000100
00001000
00000000
00000001
00000100
,
00000000
00000000
00001000
00010000
00100000
00000000
10000000
00010000
,
01000000
00000000
10000000
00100000
00010000
00000000
10000000
01000000
,
00000000
00000000
00100000
00010000
01000000
00000000
10000000
01000000
,
00001000
00000000
00010000
00000100
00000001
00000000
00000010
00000100
,
00000000
00000000
00001100
00000000
00000000
00001001
00000000
00000000
00000100
00000000
00001000
00000000
00010000
00000000
00000000
00000000
,
00000010
00010000
00001000
00000100
00001000
00000000
01000000
10000000
,
01000000
00001000
00010000
00000000
01000000
10000000
00100000
00000000
,
00010000
00001000
00000010
00001000
00010000
00000000
00100000
00010000
,
00001000
00000100
00000001
00000000
00000010
00000100
00000010
00000000
,
00000001
00000100
00000010
00000001
00000010
00000000
00010000
00001000
,
01000000
00001000
00010000
00000000
01000000
10000000
00100000
00000000
,
01000000
00000000
00001000
00000000
00010000
00000000
01000000
00000000
00010000
00000000
00000000
00001000
00000000
00000000
00010000
00000000
,
00000000
00000000
00100000
00000000
00010000
00000000
00000000
00000000
00001000
00000000
00000000
00000100
00000000
00000000
00001000
00000000
,
00000000
00010000
00000100
00000010
00000001
00000000
00001000
00000010
,
00000001
00000010
00001000
00000000
00000100
00010000
00001000
01000000
,
00100000
01000000
10000000
00000000
01000000
00000000
00001000
00010000
,
01000000
00000000
00010000
00001000
00000010
00001000
00010000
00100000
,
00010000
00001000
00000010
00000000
00000001
00000000
00000100
00001000
,
00010000
00000000
00001000
00000100
00000001
00000010
00000001
00000000
,
00000010
00000100
00001000
00000100
00000010
00000000
00001000
00010000
,
00100000
00000000
00010000
00001000
00000100
00000000
00001000
00000000
,
00010000
00000000
00100000
10000000
01000000
00000000
00010000
01000000
,
10000000
00000000
01000000
00100000
00010000
01000000
00001000
00000000
,
00010000
00000000
00100000
00010000
00001000
00000000
00000100
00001000
,
00010000
00000000
00000010
00001000
00000100
00000001
00000100
00000000
,
00010000
00000000
00000010
00000100
00001000
00000000
00100000
01000000
,
00010000
00000000
00001000
00000100
00000010
00010000
00001000
00000000
,
01000000
00000000
00100000
10000000
01000000
00000000
00100000
00010000
,
01000000
00001000
00011000
00000000
,
00000000
00000000
00000000
00000000
,
00000110
00000000
00000000
00000000
;

//---------------dance-double - M. Emirzian----------------
#NOTES:
     dance-double:
     M. Emirzian:
     Easy:
     3:
     0.193,0.207,0.050,0.020,0.000,128.000,5.000,2.000,0.000,0.000:








00000000
00000000
00000000
00000000
,
00000000
00000000
00000000
00000000
,
00000000
00000000
00000000
00000000
,
00000000
00000000
00000000
00000000
,
00010000
00000000
00000000
00000000
,
10000000
00000000
00000000
00000000
,
00001000
00000000
00000000
00000000
,
00000000
00000000
00000000
00000000
,
00001000
00000000
00000001
00000000
,
00000100
00001000
00010000
00000000
,
00100000
00000000
00010000
00000000
,
00001000
00010000
01000000
00000000
,
10000000
00000000
00010000
00000000
,
10000000
00100000
00010000
00000000
,
00001000
00000000
00010000
00000000
,
02002000
00000000
00000000
03003000
,
00010000
00001000
00000100
00000000
,
00001000
00000000
00100000
00010000
,
00001000
00000000
00000010
00000000
,
00001000
00010000
00100000
00000000
,
00010000
00000000
00001000
00000100
,
00000001
00000000
00000100
00000000
,
00000001
00000100
00001000
00010000
,
01000000
10000000
00100000
00000000
,
00000000
00000000
00000000
00000000
,
10000000
00000000
00010000
00000000
,
10000000
01000000
00010000
00000000
,
00001000
00000000
00000100
00000000
,
00001000
00010000
00100000
00000000
,
00010000
00000000
00010000
00000000
,
00000010
00001000
00010000
00000000
,
00000100
00000000
00000010
00000000
,
00000001
00000100
00000010
00000000
,
00001000
00000000
00000100
00000000
,
00010000
00000000
00001000
00000000
,
10000000
00100000
00010000
00000000
,
00001000
00000000
00010000
00000000
,
00000001
00000010
00001000
00000000
,
00010000
00000000
00000100
00000000
,
00010000
00001000
00000100
00000000
,
00001000
00000000
00010000
00100000
,
10000000
00000000
01000000
00000000
,
00100000
00000000
00100000
00010000
,
10000000
00000000
11000000
00000000
,
00000000
00000000
00100000
00010000
,
00001000
00000000
00001100
00000000
,
00000000
00000000
00000001
00000010
,
00001000
00000000
00011000
00000000
,
00000000
00000000
00000100
00000000
,
00010000
00000000
00001000
00000100
,
00001000
00000000
00010000
00000000
,
00100000
00010000
00100000
00000000
,
10000000
00000000
10000000
01000000
,
00010000
00000000
00001000
00000000
,
00000100
00001000
00010000
00000000
,
00100000
00000000
00010000
00001000
,
00000010
00000000
00001000
00000000
,
00010000
00000100
00001000
00000000
,
00000001
00000100
00001000
00000000
,
00011000
00000000
00000000
00000000
;

//---------------dance-double - M. Emirzian----------------
#NOTES:
     dance-double:
     M. Emirzian:
     Medium:
     6:
     0.336,0.354,0.030,0.000,0.010,232.000,3.000,0.000,0.000,0.000:








00000000
00000000
00000000
00000000
,
00000000
00000000
00000000
00000000
,
00000000
00000000
00000000
00000000
,
00000000
00000000
00000000
00000000
,
00010000
00000000
10000000
00000000
,
01000000
00000000
00000000
10000000
00000000
00000000
00000000
00000000
,
00010000
00000000
00000000
01000000
00000000
00000000
00000000
00001000
,
00000000
00010000
00000000
00000000
00000000
00000000
00000000
00000000
,
00010000
00000000
00000100
00001000
00010000
00000000
00100000
00000000
,
00010000
00001000
00000100
00000000
,
00000001
00000000
00000010
00000100
00001000
00000000
00000001
00000000
,
00000100
00001000
00010000
00000000
,
00100000
00000000
00010000
00001000
01000000
00000000
00010000
00000000
,
00100000
01000000
10000000
00000000
,
01000000
00000000
00100000
00010000
01000000
00000000
10000000
00000000
,
01000000
00000000
00000000
00000000
00000000
00000000
00010000
00000000
00000000
00000000
10000000
00000000
00000000
01000000
00000000
00000000
,
00100000
00000000
00010000
10000000
01000000
00000000
00010000
00001000
,
00000100
00000000
00001000
00010000
00100000
00000000
00010000
00000000
,
00001000
00000000
00000010
00001000
00010000
00000000
01000000
00010000
,
00001000
00000000
00000010
00000100
00001000
00000000
00000001
00000000
,
00000100
00000000
00001000
00010000
00100000
00000000
10000000
01000000
,
00010000
00000000
00001000
00000100
00000001
00000000
00000010
00000000
,
00000100
00001000
00000001
00000100
,
00000010
00001000
00000100
00000000
00001001
00000000
00000000
00000000
,
00000000
00000000
00000010
00001000
,
00000010
00000000
00001000
00000000
00000100
00000000
00010000
00001000
,
00000100
00000000
00001000
00010000
00100000
00000000
10000000
01000000
,
00000000
00000000
00100000
00000000
00010000
00000000
10000000
01000000
,
00010000
00000000
01000000
10000000
00100000
00000000
00010000
00001000
,
00000000
00000000
00000010
00000000
00000100
00000000
00001000
00000001
,
00000100
00000000
00000010
00001000
00000100
00000000
00010000
00001000
,
00000000
00000000
00000100
00000000
00001000
00000000
00010000
00001000
,
01000000
00000000
00100000
00010000
00001000
00000000
00100000
01000000
,
00000000
00000000
10000000
00000000
00000000
00010000
00000000
00000000
10000000
00000000
00000000
00000000
01000000
00000000
00000000
00000000
,
00100000
00010000
01000000
00100000
,
10000000
00000000
01000000
00010000
00001000
00000000
00000010
00000000
,
00001000
00010000
00001000
00000100
,
00000001
00000000
00000010
00000100
00000010
00000000
00000001
00000000
,
00000100
00001000
00010000
00000100
,
00010000
00000000
00100000
00010000
00001000
00000000
00000100
00000000
,
00001000
00100000
01000000
00010000
,
00000100
00010000
00001000
00000100
,
00001000
00010000
01000000
10000000
00100000
00000000
10000000
00000000
,
00010000
00000000
00100000
00001000
,
00000100
00000000
00000010
00010000
,
00100000
00000000
01000000
00001000
,
00000100
00000000
00000001
00010000
,
00001000
00000000
10000000
00001000
,
00010000
00000000
00000010
00000000
,
00000100
00000000
00000001
00001000
,
00000100
00000000
00010000
00001000
00000100
00000000
00001000
00010000
,
00100000
00000000
00010000
00001000
00000010
00000000
00001000
00000000
,
00010000
00000000
00000100
00000010
00000001
00000000
00000100
00001000
,
00010000
00000000
01000000
00010000
00001000
00000000
01000000
00000000
,
00100000
00000000
00010000
00001000
00100000
00000000
01000000
10000000
,
00100000
00000000
10000000
01000000
00010000
00000000
01000000
00000000
,
10000000
01000000
00010000
00001000
,
00000100
00000001
00000010
00000000
00001001
00000000
00000000
00000000
,
00000000
00000000
00000000
00000000
,
01100000
00000000
00000000
00000000
;

//---------------dance-double - M. Emirzian----------------
#NOTES:
     dance-double:
     M. Emirzian:
     Challenge:
     9:
     0.649,0.620,0.180,0.070,0.325,429.000,18.000,7.000,27.000,0.000:
00000000
00000000
00000000
00000000
,
00000000
00000000
00000000
00000000
,
00000000
00000000
00000000
00000000
,
00000000
00000000
00000000
00000000
00000000
00000000
00100000
00010000
,
00000010
00000000
00100000
00001000
00000100
00000000
00001000
00010000
,
01000000
00010000
00001000
00000100
00000000
00000000
00000001
00000010
,
00000100
00000000
00001000
00001010
00000000
00010100
00000000
01000100
,
00000000
00000000
01010000
00000000
00000000
00000000
00100000
00000000
10000000
00000000
01000000
00000000
00010000
00000000
01000000
00100000
,
00010000
00000000
10000000
00000000
00100000
00000000
00010000
00000000
00001000
00000000
00100000
00000000
01000000
00000000
00100000
00010000
,
01000000
00000000
00001000
00000000
00010000
00000000
00000100
00000000
00000010
00000000
00000100
00001000
00000000
00001000
00000010
00000000
,
00000100
00000000
00000001
00000000
00000010
00000000
00001000
00000000
00000010
00000000
00000001
00000000
00000100
00000000
00000010
00001000
,
00000100
00000000
00000010
00000000
00000100
00000000
00010000
00000000
00001000
00000000
01000000
00100000
00000000
00100000
10000000
00000000
,
00010000
00000000
00100000
00000000
10000000
00000000
00100000
00000000
01000000
00000000
10000000
00000000
00010000
00000000
01000000
00001000
,
00010000
00000000
00100000
00000000
00010000
00000000
00001000
00000000
00000010
00000000
00001000
00010000
00000000
00010000
00000010
00000000
,
00000100
00000000
00001000
00000000
00000100
00000000
00000001
00000000
00000010
00000000
00001000
00000000
00000010
00000000
00000001
00001000
,
00000100
00000000
00000000
00000000
00000000
00000000
00001001
00000000
00000000
00000000
00010010
00000000
00000000
00100010
00000000
00000000
,
00010000
00000000
00001000
01000000
00001000
00000000
00010000
00000000
00100000
00000000
10000000
01000000
00000000
01000000
00010000
00000000
,
01000000
00100000
00000000
00100000
00001000
00000000
00010000
00001000
00010000
00000000
00000100
00000000
00010000
00000000
00001000
00000000
,
00000100
00000000
00000001
00001000
00000001
00000000
00000010
00000000
00001000
00000000
00000010
00000001
00000000
00000001
00000100
00000000
,
00000010
00010000
00000000
00010000
00001000
00000000
00000100
00001000
00010000
00000000
00000100
00000000
00010000
00000000
00100000
00000000
,
00010000
00000000
00001000
01000000
00100000
00000000
00010000
00000000
00100000
00000000
10000000
01000000
00000000
01000000
00100000
00000000
,
00001000
00010000
00000000
00010000
01000000
00000000
00010000
00001000
01000000
00000000
00001000
00000000
00000100
00000000
00000001
00000000
,
00001000
00000000
00000100
00010000
00100000
00000000
01000000
00001000
,
00000010
00000000
00000100
00000000
00010000
00000000
00001000
00000000
00000100
00000000
00000000
00000000
00000000
00000000
00000001
00001000
,
00000100
00000010
00000001
00000200
00000010
000000M0
00000010
000000M0
,
00000010
00000000
000000M0
00000000
00000310
00000000
00001000
00000100
00000010
00000000
00000100
00000000
00010000
00000000
00001000
00000000
,
01000000
00000000
00001000
00010000
00000000
00010000
00100000
00000000
10000000
00000000
00100000
00000000
00010000
00000000
00100000
00000000
,
01000000
00000000
00001000
00000000
00010000
00000000
01000000
00100000
00010000
00000000
00100000
00000000
01000000
00000000
00010000
00000000
,
00001000
00000000
00000010
00000100
00000000
00000100
00001000
00000000
00000001
00000000
00000100
00000000
00001000
00000000
00000100
00000000
,
00000010
00000000
00010000
00000000
00000100
00000000
00001000
00000100
00010000
00000000
00001000
00000000
01000000
00000000
00001000
00000000
,
00010000
00000000
00100000
10000000
00000000
10000000
00010000
00000000
00100000
00000000
10000000
00000000
00100000
00000000
00001000
00000000
,
01000000
00000000
00001000
00000000
00010000
00000000
00000100
00010000
00001000
00000000
00000010
00000000
00000001
00000000
00000100
00000000
,
00000010
00000000
00001000
00000100
00000000
00000100
00000010
00000000
00001001
00000000
00000000
00000000
00000000
00000000
01000100
00000000
,
00000000
00000000
00011000
00000000
00000000
00100010
00000000
00000000
00010000
00000000
00001000
00000000
01000000
00000000
00100000
00000000
,
00010000
00100000
10000000
00010000
00100000
00001000
00000100
00001000
,
00100000
01000000
00010000
00000100
00000010
00001000
00000010
00000001
,
00000100
00000010
00010000
00000001
00000010
00001000
00010000
00100000
,
01000000
00000100
00010000
00000100
00100000
00010000
01000000
10000000
,
01000000
00100000
00010000
00000100
00000001
00000100
00000010
00000001
,
00000100
00000010
00000100
00001000
00000010
00001000
00010000
00100000
,
10000000
00000000
01000000
00000000
00010000
00000000
01000000
00000000
00100000
00000000
00000000
00101000
00000000
00000000
00011000
00000000
,
00000000
00000000
00000010
00000000
00010010
00000000
00000000
00000000
00001100
00000000
00000000
00010100
00000000
00000000
01000100
00000000
,
00000000
00010000
00001000
00000020
00000001
0000000M
00000001
0000000M
,
00000001
00000000
0000000M
00000030
00000100
00000000
000200M0
00000000
00100000
00000000
00M00000
00000000
00100000
00000000
00M00000
00000000
,
00100000
00000000
00M00000
00030000
00001000
00000000
002M0000
00000000
01000000
00000000
0M000000
00000000
01000000
00000000
0M000000
00000000
,
01000000
00000000
0M000000
00300000
00010000
00000000
02M00000
00000000
10000000
00000000
M0000000
00000000
10000000
00000000
M0000000
00000000
,
10000000
00000000
M0000000
03000000
00000100
00000000
0M000020
00000000
00001000
00000000
0000M000
00000000
00001000
00000000
0000M000
00000000
,
00001000
00000000
0000M000
00000030
00000100
00000000
000200M0
00000000
00100000
00000000
00M00000
00000000
00100000
00000000
00M00000
00000000
,
00100000
00000000
00M00000
00030000
00001000
00000000
010M0000
00000000
10000000
00000000
00000000
00000000
00010000
00000000
00000100
00000000
,
00000001
00000000
00000100
00001000
00000010
00000001
00000010
00010000
,
00001000
00000000
00010000
00000100
00010000
00000000
00001000
00000000
01000000
00000000
00100000
10000000
00000000
10000000
01000000
00000000
,
00100000
01000000
00000000
01000000
10000000
00000000
01000000
00100000
00010000
00000000
01000000
00000000
00001000
00000000
00010000
00000000
,
00000100
00000000
00001000
00000100
00001000
00000000
00000001
00000000
00000100
00000000
00000010
00001000
00000000
00001000
00000100
00000000
,
00000010
00000100
00000000
00000100
00010000
00000000
00000100
00010000
00001000
00000000
00000100
00000000
00001000
00000000
00010000
00000000
,
00100000
00000000
01000000
00010000
10000000
00000000
01000000
00000000
00100000
00000000
00010000
01000000
00000000
01000000
00001000
00000000
,
00010000
01000000
00000000
01000000
00010000
00000000
00001000
00010000
00000100
00000000
00000010
00000000
00000100
00000000
00001000
00000000
,
00000001
00000000
00000100
00001000
00100000
00000000
01000000
00010000
,
00000100
00000000
00000010
00000000
00001000
00000000
00000010
00000000
00000001
00000000
00000000
00000000
00000000
00000000
00001000
00000100
,
00010000
00001000
01000000
00100000
10000000
00000000
00000000
00000000
,
01001000
00000000
00000000
00000000
;
