#TITLE:[2-2] The Magnificent Meat Shower;
#SUBTITLE:;
#ARTIST:Coda;
#TITLETRANSLIT:;
#SUBTITLETRANSLIT:;
#ARTISTTRANSLIT:;
#CREDIT:;
#BANNER:../Beast 4 - bn.png;
#BACKGROUND:../Beast 4 - bg.png;
#LYRICSPATH:;
#CDTITLE:;
#MUSIC:The Magnificent Meat Shower.ogg;
#OFFSET:0.555;
#SAMPLESTART:24.480;
#SAMPLELENGTH:12.000;
#SELECTABLE:YES;
#BPMS:0.000=220.060;
#STOPS:;
#BGCHANGES:;
// cache tags:
#FIRSTBEAT:12.000;
#LASTBEAT:478.000;
#SONGFILENAME:Songs/Beast Aoreo BEAST! 4/The Magnificent Meat Shower - [Aoreo]/Magnificent Meat.sm;
#HASMUSIC:1;
#HASBANNER:1;
#MUSICLENGTH:132.509;
// end cache tags

//---------------dance-single - J. Nero----------------
#NOTES:
     dance-single:
     J. Nero:
     Challenge:
     15:
     1.000,1.000,0.023,0.181,0.917,990.000,3.000,24.000,2.000,0.000:
0000
0000
0000
0000
,
0000
0000
0000
0000
,
0000
0000
0000
0000
,
1000
0100
1000
0001
0000
0100
0010
0100
,
0001
0010
0000
0100
0000
1000
0001
0000
,
0100
0010
0000
0100
0000
0001
1000
0100
,
0010
0100
0000
1000
0000
0001
0100
0000
,
0001
1000
0001
0010
0000
0100
1000
0010
,
0100
0010
0000
1000
0000
0001
0100
0000
,
0001
0010
0000
0001
0000
0010
0100
1000
,
0001
0100
0000
0010
0000
1000
0001
0000
,
1000
0100
1000
0010
0100
0001
0010
0100
,
1000
0001
0000
0100
0000
0010
0100
0000
,
0001
1000
0000
0100
0000
1000
0010
0100
,
0001
0010
0000
0100
0000
1000
0001
0000
,
0100
0001
0000
0100
0000
0010
1000
0001
,
1000
0100
0000
0010
0000
0001
0200
0000
,
0000
0000
0301
1000
0000
0001
1000
0010
,
0100
0000
0000
0000
0000
0000
0010
0000
0100
0000
0001
0000
1000
0000
0000
0100
0000
0000
1000
0000
0000
0001
0000
0000
,
0010
0000
0010
0000
0100
0000
1000
0000
1000
0000
0001
0000
1000
0000
0001
0100
,
0001
0000
0100
0000
0010
1000
0010
0000
0100
0000
0001
1000
0001
0000
1000
0000
,
0010
0010
0100
0001
1000
1000
0001
0040
,
0000
0030
0010
0000
0100
0000
1000
0000
0001
1000
0001
0000
1000
0000
0100
0000
,
1000
0000
1000
0000
0010
0000
0100
0000
0100
0000
0001
0000
1000
0000
0001
0100
,
0001
0000
1000
0000
0010
1000
0010
0000
0100
0000
0001
0100
0010
0000
1000
0000
,
0001
0001
0010
0100
0100
1000
0001
4000
,
0000
3000
1000
0000
0001
0000
1000
0000
0010
0100
0001
0000
1000
0000
0100
0000
,
1000
0100
1000
0001
0100
0010
0100
0001
1000
0001
0010
0100
1000
0001
1000
0100
,
0010
0001
1000
0001
0100
0010
0100
0001
1000
0100
1000
0001
0100
0010
0100
0001
,
1000
0001
0010
0100
1000
0001
1000
0100
0010
0001
1000
0010
0100
0010
1000
0001
,
0010
0100
1000
0001
1000
0010
0100
0001
0100
0010
1000
0010
0100
0001
1000
0100
,
0010
0100
1000
0001
0100
0001
1000
0010
0100
0001
1000
0100
1000
0001
0010
0100
,
1000
0001
0100
0010
1000
0001
1000
0100
0010
0001
1000
0100
1000
0001
0100
0001
,
1000
0010
0100
0001
1000
0100
0010
0100
1000
0001
0100
0010
0100
0001
1000
0100
,
0010
0001
1000
0001
0100
0010
0100
0001
1000
0001
0010
0100
1000
0001
1000
0001
,
0100
0010
0100
0001
1000
0100
1000
0001
0100
0010
0100
0001
1000
0001
0010
0100
,
1000
0000
1000
0000
0001
0000
0100
0000
0100
0000
0010
0000
0100
0000
0001
1000
,
0001
0000
0100
0000
0010
1000
0010
0000
0100
0000
0001
0010
0001
0000
1000
0000
,
0100
0100
1000
0001
0001
0100
0010
0400
,
0000
0300
0100
0000
0001
0000
1000
0000
0010
1000
0001
0000
0010
0000
0100
0000
,
1000
0000
1000
0000
0001
0000
0010
0000
0010
0000
0100
0000
1000
0000
0001
0100
,
0001
0000
1000
0000
0100
0010
0001
0000
1000
0000
0010
0100
0010
0000
0100
0000
,
0001
0001
0010
0100
0100
1000
0001
0400
,
0000
0300
0100
0000
0010
0000
1000
0000
0001
0100
0010
0000
1000
0000
0001
0000
,
1000
0100
0010
0100
0100
1000
0001
0001
,
0100
0010
0100
0001
0001
0010
0100
0100
,
1000
0010
0100
0001
0001
0010
0100
0100
,
1000
0000
0001
0000
0100
0000
0010
0000
0010
0000
1000
0000
0100
1000
0100
0000
,
0020
0030
0001
0000
0100
0000
0010
0000
0010
0000
1000
0000
0001
0000
0001
0000
,
0010
0100
1000
0001
0001
0100
0010
0010
,
1000
0010
0100
0001
0010
0100
1000
0001
1000
0100
0010
0100
,
1000
0001
0100
0100
0001
1000
1000
0000
,
1001
0000
0001
0000
0010
0000
0100
0000
0100
0000
1000
0000
0001
0000
0100
0010
,
0100
0000
0001
0000
0010
0100
0010
0000
0100
0000
1000
0001
1000
0000
0001
0000
,
0010
0010
0100
1000
1000
0001
0100
0040
,
0000
0030
0010
0000
0100
0000
0001
0000
0010
0100
1000
0000
0001
0000
0100
0000
,
0001
0000
0001
0000
1000
0000
0100
0000
0100
0000
0010
0000
0001
0000
1000
0010
,
1000
0000
0010
0000
0100
0001
0100
0000
0010
0000
1000
0001
1000
0000
0001
0000
,
0010
0010
0100
1000
1000
0001
0100
0004
,
0000
0003
0001
0000
1000
0000
0100
0000
1000
0100
1000
0001
0010
0100
1000
0010
,
0100
0001
0100
0001
1000
0010
1000
0001
0100
0010
0100
0001
1000
0001
0010
0100
,
1000
0001
0100
0010
0100
0001
1000
0100
0010
0001
1000
0100
1000
0001
0100
0010
,
0100
0001
1000
0100
0010
0001
1000
0001
0100
0010
0100
0001
1000
0001
0010
0100
,
1000
0001
0100
0001
1000
0010
0100
0010
1000
0001
1000
0100
1000
0001
0100
0010
,
0100
0001
1000
0001
0010
0100
0010
0001
1000
0001
0100
0010
0100
0001
1000
0001
,
0010
0100
1000
0001
0100
0010
0100
0001
1000
0100
0010
0001
1000
0010
1000
0001
,
0100
0010
0100
0001
1000
0100
1000
0001
0100
0010
0100
0001
1000
0001
0010
0100
,
1000
0001
0010
0100
0010
0001
1000
0010
0100
0010
1000
0001
0010
0100
1000
0001
,
1000
0100
1000
0001
0100
0010
0100
0001
1000
0001
0010
0100
1000
0001
0100
0010
,
0100
0000
0001
0000
0010
0000
0100
0000
1000
0000
0010
0000
,
0100
0000
0001
0000
0010
0000
0100
0000
1000
0000
0010
0000
,
0100
0000
0001
0000
1000
0000
0100
0000
0010
0000
0001
0000
,
0100
0000
0010
0000
1000
0000
0100
0000
0010
0000
0001
0000
,
1000
0000
0001
0000
0100
0000
0010
0000
1000
0000
0100
0000
,
0010
0000
0001
0000
0100
0000
0010
0000
1000
0000
0100
0000
,
0010
0000
0001
0000
0100
0000
0010
0000
1000
0000
0010
0000
,
0100
0000
0001
0000
0010
0000
0100
0000
1000
0000
0010
0000
,
0100
0000
0001
0000
0010
0000
0100
0000
1000
0000
0001
0000
,
0100
0000
0000
0000
0001
0000
M000
0000
0000
00M0
0000
0000
0100
0000
0000
0001
0000
0000
0010
0000
0000
0100
0000
0000
,
1000
0001
0000
0001
1000
0100
0000
1000
,
0001
0000
0100
0001
0010
0100
1000
0001
,
1000
0010
0000
0010
0100
0001
0000
1000
,
0100
0010
0100
0000
1000
0000
0010
0000
0100
0000
0001
0000
0001
0000
1000
0000
,
0100
1000
0000
1000
0001
0100
0000
0100
,
0001
0000
0010
0100
1000
0001
0100
0010
,
0100
0001
0000
0001
0010
0100
0000
1000
,
0001
1000
0001
0000
1000
0000
0100
0000
1000
0000
0010
0000
0010
0000
0100
0000
,
0001
0010
0000
0010
0001
0100
0001
1000
,
0020
0000
0000
0000
0000
0000
0000
0000
0000
0000
0000
0000
0000
0000
0000
0000
0000
0000
0130
0000
0000
0001
0000
0000
0100
0000
0000
0000
0001
0000
0000
0000
1000
0000
0000
0000
0100
0000
0000
0000
0000
0000
1000
0000
0000
0000
0000
0000
,
0002
0000
0000
0003
1000
0100
0000
1000
,
0001
0100
0001
0000
0100
0000
0010
0000
1000
0000
0100
0000
0100
0000
0010
0000
,
0001
0200
0000
0000
0310
1000
0000
0010
,
0100
0000
0001
0010
0100
0010
0010
0001
,
0010
0100
0000
0100
1000
0001
0000
1000
,
0001
0100
0001
0000
1000
0000
1000
0000
0100
0000
0010
0000
0010
0000
0001
0000
,
1000
0000
0010
0100
0010
0000
1000
0000
0100
0010
0100
0000
0010
0000
0001
1000
,
0001
1000
0100
0100
0010
0001
0001
1000
,
0010
0000
0400
0000
0000
0300
0100
0000
0010
0000
1000
0000
0100
0010
0001
0000
,
1000
0010
1000
1000
0001
0010
0010
0100
,
1000
0000
0001
0100
0001
0000
0100
0000
0010
1000
0010
0000
0100
0000
0001
1000
,
0001
1000
0100
0100
0010
0001
0001
1000
,
0010
0000
4000
0000
0000
3000
1000
0000
0001
0000
0010
0000
0001
0010
0100
0000
,
1000
0000
0001
0000
2002
3003
0000
0000
1000
0000
0010
0000
1000
0000
0001
0000
,
0010
0200
0300
0000
1000
0100
1000
0010
,
0100
0002
0003
0000
0010
0100
1000
0001
,
0100
0020
0030
0000
1000
0001
1000
0100
,
0100
0010
0002
0003
1000
0100
1000
0010
,
0100
0002
0003
0000
0010
0100
1000
0001
,
0100
0020
0030
0000
0100
0010
1000
0001
,
1000
0200
0300
0000
1000
0100
1000
0010
,
0010
0100
0002
0003
0010
0100
1000
0001
,
1000
0020
0030
0000
0100
0001
0010
0100
,
1000
0002
0003
0000
1000
0100
0010
0001
,
0100
0002
0003
0000
1000
0100
0010
0100
,
0100
1000
0020
0030
0100
0001
1000
0001
,
0010
0200
0300
0000
1000
0100
1000
0001
,
0100
0020
0030
0000
0100
0001
0010
0100
,
1000
0000
0020
0000
0030
0000
0000
0000
0100
0000
0001
0000
1000
0000
0000
0010
,
0000
0100
0000
0000
2002
0000
0000
0000
,
0000
0000
3003
0000
;
