#TITLE:Oh My Goddess!;
#SUBTITLE:- My Heart Your Heart [Para Para Mix];
#ARTIST:石田燿子;
#TITLETRANSLIT:;
#SUBTITLETRANSLIT:;
#ARTISTTRANSLIT:Yoko Ishida;
#CREDIT:;
#BANNER:AmgLogo.png;
#BACKGROUND:AmgBG.png;
#LYRICSPATH:;
#CDTITLE:;
#MUSIC:AMG OP.mp3;
#OFFSET:1.085;
#SAMPLESTART:43.930;
#SAMPLELENGTH:12.000;
#SELECTABLE:ROULETTE;
#BPMS:0.000=153.800;
#STOPS:;
#BGCHANGES:;
// cache tags:
#FIRSTBEAT:5.500;
#LASTBEAT:219.500;
#SONGFILENAME:Songs/Anime Songs/OhMyGoddessIntro/AMG OP.sm;
#HASMUSIC:1;
#HASBANNER:1;
#MUSICLENGTH:89.733;
// end cache tags

//---------------dance-single - Challenge----------------
#NOTES:
     dance-single:
     Challenge:
     Challenge:
     9:
     0.619,0.581,0.635,0.546,0.106,283.000,57.000,49.000,0.000,0.000:

0000
0000
0000
0000
,
0000
0000
0000
1000
0100
0010
0001
0010
,
0100
0000
1000
0000
0001
0000
1000
0000
0000
0010
0000
0020
0000
0000
0030
0000
,
1000
0000
1001
0000
0100
0020
0000
0030
,
0001
0100
0101
0000
1000
1100
0000
0000
,
1001
0000
0000
0000
0000
1000
0000
0000
0000
0100
0000
0202
0000
0303
0000
0000
,
2000
0000
0000
0000
3200
0300
0000
0000
0100
0000
0010
0000
1100
0000
0000
0000
,
0002
0000
0000
0000
0203
0300
0000
0000
0100
0000
0010
0000
0101
0000
0000
0000
,
1000
0000
0100
0000
0020
0000
0000
0000
0030
0001
0000
0200
0000
0000
0000
0000
,
0300
0100
0000
0000
0000
0101
0000
0000
0100
0000
0010
0000
1000
0000
0010
0000
,
1000
0100
0010
0001
0100
0001
0100
0010
,
1000
0100
1000
0100
0010
0001
0010
0001
,
0001
0000
1100
0010
0101
0010
1100
0010
,
0101
0000
1001
0000
1000
0100
2000
0000
,
0000
0000
3000
0001
0100
0001
0000
0000
0000
0000
0100
0000
0020
0000
0000
0000
,
0000
0000
0030
0000
0002
0003
0000
0000
0201
0300
0000
0000
2100
3000
0000
0000
,
1000
0000
0000
0100
1000
0100
0000
0000
0000
0000
0100
0000
0020
0000
0000
0000
,
0030
0011
0110
1100
,
1010
0000
0202
0000
0303
1100
0101
0000
,
1000
0100
0010
0000
0011
0000
0202
0000
,
0303
0000
0000
1000
0100
1000
0000
0000
0000
0000
0010
0000
0100
0000
0000
0000
,
0100
1001
1100
0202
,
0000
0000
0303
1000
0100
0010
0000
0000
0000
0000
0001
0000
0200
0000
0000
0000
,
0300
0000
0000
0000
2000
0000
0000
0000
3200
0300
0000
0000
0102
0003
0000
0000
,
0001
0000
0000
0100
0001
0100
0000
0000
0000
0000
0100
0000
0020
0000
0000
0000
,
0030
1010
0110
0101
,
0011
0000
2200
0000
3300
0101
1100
0000
,
0001
0100
0110
0000
0010
0000
1000
0110
,
0000
0001
0220
0000
0000
0000
0000
0330
,
0000
0010
0202
0000
0000
0303
0000
0010
,
0000
0001
0020
0000
0030
0100
0010
0000
,
0010
0000
2200
0000
0000
3300
0000
1000
,
0010
0100
0020
0000
0030
1000
0010
0000
,
0000
0011
2020
0000
0000
3030
0000
0001
,
0100
0010
1000
0000
1001
0000
1100
0000
,
0101
0000
0001
0000
0001
0202
0000
0000
,
0000
0303
1000
0000
1000
2200
0000
0000
,
0000
3300
0001
0000
1000
2002
0000
0000
,
0000
3003
1001
0000
1100
0000
0110
0000
,
0101
0000
0010
1000
0001
0100
0001
1000
,
0001
1000
0100
1000
0100
0010
0100
0010
,
1000
0100
0010
0001
1000
0100
0010
0001
,
1000
0010
0100
0001
1000
0010
0100
0001
,
1000
0010
1000
0001
0100
0001
1000
0010
,
1000
0001
0100
0001
0010
0001
0010
0100
,
1000
0100
1000
0001
1000
0010
0100
0001
,
1001
2002
0000
0000
0000
0000
3003
0000
,
0000
0000
0001
0010
0100
1000
0100
1000
,
0010
1000
0010
1000
0001
0100
0001
1000
,
0001
1000
0100
1000
0010
0100
0010
0100
,
0001
0010
1000
0100
0001
0010
1001
0000
,
0000
0100
1000
0001
0100
0001
1000
0010
,
1000
0001
0010
0001
1000
0100
0001
0100
,
1000
0001
0100
1000
0100
0001
0100
0000
,
1001
2002
0000
0000
0000
0000
0000
3003;
