#TITLE:Beat of the War;
#SUBTITLE:;
#ARTIST:Banya;
#TITLETRANSLIT:;
#SUBTITLETRANSLIT:;
#ARTISTTRANSLIT:;
#CREDIT:;
#BANNER:Beat of the War.png;
#BACKGROUND:Beat of the War-bg.PNG;
#LYRICSPATH:;
#CDTITLE:!fusioncdtitle.gif;
#MUSIC:Beat of the war(186,140,202) (master).mp3;
#OFFSET:-6.485;
#SAMPLESTART:23.257;
#SAMPLELENGTH:20.000;
#SELECTABLE:YES;
#BPMS:0.000=186.000,108.000=140.000,148.000=202.000;
#STOPS:;
#BGCHANGES:;
// cache tags:
#FIRSTBEAT:0.000;
#LASTBEAT:257.500;
#SONGFILENAME:Songs/Essential Sim Collection/(Fusion) Beat of the War/Beat of the War.sm;
#HASMUSIC:1;
#HASBANNER:1;
#MUSICLENGTH:93.343;
// end cache tags

//---------------dance-single - ----------------
#NOTES:
     dance-single:
     :
     Hard:
     12:
     1.000,1.000,1.000,0.664,0.380,518.000,285.000,62.000,0.000,0.000:  // measure 1
1001
0000
0000
1000
0100
0000
1000
0000
0010
1000
0000
1000
0100
0000
1000
0000
,  // measure 2
1001
0000
0000
0010
0100
0000
0001
0000
0100
1000
0000
0010
0100
0000
0001
0000
,  // measure 3
1001
0000
0000
0010
0100
0000
1000
0000
0110
0000
0001
0010
1100
0000
0011
0000
,  // measure 4
1001
0100
0010
0001
1000
0100
0010
0000
0001
1000
0100
0010
1001
0000
0110
0000
,  // measure 5
0110
0001
0010
0100
1000
0001
0010
0000
1000
0100
0010
0100
0011
0000
1100
0000
,  // measure 6
1100
0010
0100
0001
1000
0100
0010
0000
1000
0100
0010
0001
1010
0000
0101
0000
,  // measure 7
0101
1001
0101
0011
0101
1001
0202
0303
,  // measure 8
0011
0100
1000
0010
0100
0001
0010
0000
0100
1000
0100
1000
0101
0000
1010
0000
,  // measure 9
1010
0100
0010
0100
1000
0001
0100
0000
0010
0001
0010
0001
0110
0000
0011
0000
,  // measure 10
0011
0100
1000
0100
0010
0001
0010
0000
0100
0010
0100
0010
0101
0000
2020
0000
,  // measure 11
0000
3030
0000
0022
0000
0033
0001
0000
,  // measure 12
1001
0000
0000
0000
0001
0010
0100
1000
0001
0010
0100
1000
0001
0010
0100
1000
,  // measure 13
1001
0000
0000
0110
,  // measure 14
1100
0110
0011
0110
1100
0011
0110
1100
,  // measure 15
0011
0110
1100
0011
0110
1100
1001
0000
,  // measure 16
1001
0000
0100
0010
0100
0010
1001
0000
0010
0100
0010
0100
1001
0000
0001
0010
,  // measure 17
0200
0000
2300
0000
3200
0000
0320
0000
0032
0000
0023
0000
0230
0000
0302
0003
,  // measure 18
1100
0110
0011
0110
1100
0011
0110
1100
,  // measure 19
0011
0110
1100
0011
0110
1100
0011
0110
,  // measure 20
0011
0000
0100
0010
0100
1000
0011
0000
0100
0001
0010
0100
0011
0000
0100
0010
,  // measure 21
0002
0000
2003
0000
3002
0000
0203
0000
0320
0000
0230
0000
2300
0000
3002
0003
,  // measure 22
1100
0110
0011
0110
1100
0011
0110
1100
,  // measure 23
0011
0110
1100
0011
0110
1100
0110
1001
,  // measure 24
0110
0000
0001
0010
0100
1000
0110
0000
0001
0010
0100
1000
0110
0000
1000
0100
,  // measure 25
0020
0000
0230
0000
0302
0000
2003
0000
3020
0000
0032
0000
2003
0000
3002
0003
,  // measure 26
1100
0110
0011
1100
0011
0110
1100
0011
,  // measure 27
0110
1100
0011
0110
1100
0011
0110
1100
,  // measure 28
2002
0000
0000
0000
,  // measure 29
0000
0000
0000
0000
0000
0000
0000
0000
0000
0000
0000
0000
0000
0000
0000
3003
,  // measure 30
1001
1010
1100
1010
1001
1010
1001
0110
,  // measure 31
0011
0101
1001
0101
0011
0101
2002
3003
,  // measure 32
0110
1010
0011
0110
1010
0011
0220
0330
,  // measure 33
1100
0101
0110
1100
0101
0110
2200
3300
,  // measure 34
1100
0011
1100
0011
1100
0011
1100
0011
,  // measure 35
0110
1001
0110
1001
0110
1001
0220
0330
,  // measure 36
0101
1010
0101
1010
0101
1010
0101
1010
,  // measure 37
1100
0110
0011
0110
1100
0110
0022
0033
,  // measure 38
2002
3003
1000
1000
1000
1000
1000
1000
,  // measure 39
1000
1000
1000
1000
1000
1000
1000
1000
,  // measure 40
0101
1000
0101
1000
0101
1000
0101
1000
,  // measure 41
0101
1000
0101
1000
0101
1000
0101
1000
,  // measure 42
2002
3003
0001
0001
0001
0001
0001
0001
,  // measure 43
0001
0001
0001
0001
0001
0001
0001
0001
,  // measure 44
1010
0001
1010
0001
1010
0001
1010
0001
,  // measure 45
1010
0001
1010
0001
1010
0001
1010
0001
,  // measure 46
1001
0000
0110
0000
1100
0000
1001
0000
0110
0000
0001
0010
1001
0000
1001
0000
,  // measure 47
0110
0000
1100
0000
0011
0000
0110
0000
1100
0000
0001
1000
0110
0000
1001
0000
,  // measure 48
1001
0000
0110
0000
0110
0000
1001
0000
0110
0000
0001
0010
1100
0000
0011
0000
,  // measure 49
0020
0230
0302
2003
3002
0023
2030
3000
,  // measure 50
0011
0000
1100
0000
0110
0000
0011
0000
1100
0000
0100
1000
0110
0000
0110
0000
,  // measure 51
0011
0000
0110
0000
1100
0000
0011
0000
0110
0000
0001
0010
1100
0000
0011
0000
,  // measure 52
0110
0000
1100
0000
1001
0000
0110
0000
0011
0000
0010
1000
0110
0000
0011
0000
,  // measure 53
2000
3200
2300
3020
0230
0302
2003
3000
,  // measure 54
1001
1001
1001
1001
,  // measure 55
0110
0001
0001
0001
,  // measure 56
0110
0000
1100
0000
0011
0000
0110
0000
1100
0000
0010
0100
1001
0000
0110
0000
,  // measure 57
0101
1010
1100
1010
0101
0110
1001
0000
,  // measure 58
0110
0110
0110
0110
,  // measure 59
1001
1001
1001
1001
,  // measure 60
1001
0000
0110
0000
1100
0000
0011
0000
0110
0000
0001
0010
1100
0000
1100
0000
,  // measure 61
0110
0000
0011
0000
1001
0000
0110
0000
1100
0000
0100
1000
0101
0000
1010
0000
,  // measure 62
1010
0000
0101
0000
0110
0000
0101
0000
1100
0000
0001
0100
1010
0000
0101
0000
,  // measure 63
1001
0110
0110
1001
0011
0110
0101
1010
,  // measure 64
1001
0000
0010
0100
0010
0100
2002
0000
0000
0000
0000
0000
0000
0000
0000
0000
,  // measure 65
0000
0000
0000
3003
0000
0000
0000
0000
;
