#TITLE:Monochrome Dreams;
#SUBTITLE:;
#ARTIST:Unknown artist;
#TITLETRANSLIT:;
#SUBTITLETRANSLIT:;
#ARTISTTRANSLIT:;
#CREDIT:;
#BANNER:;
#BACKGROUND:Monochrome Dreams-bg.jpg;
#LYRICSPATH:;
#CDTITLE:;
#MUSIC:Monochrome Dreams.mp3;
#OFFSET:0.000;
#SAMPLESTART:30.500;
#SAMPLELENGTH:12.000;
#SELECTABLE:YES;
#BPMS:0.000=45.000,1.500=60.000;
#STOPS:;
#BGCHANGES:;
// cache tags:
#FIRSTBEAT:0.250;
#LASTBEAT:62.000;
#SONGFILENAME:Songs/new cedric/Monochrome Dreams/Monochrome Dreams.sm;
#HASMUSIC:1;
#HASBANNER:0;
#MUSICLENGTH:64.888;
// end cache tags

//---------------dance-single - ----------------
#NOTES:
     dance-single:
     :
     Medium:
     1:
     0.467,0.454,0.801,0.015,0.570,157.000,52.000,1.000,0.000,2.000:
0000
0000
0100
0000
0000
0000
0100
0000
0000
0000
0000
0100
1000
0000
0100
0001
,
0010
0000
0100
1000
0100
0000
0010
0001
0000
0100
1000
0100
0100
0000
0100
0100
,
0000
0010
0001
0100
0000
1000
0100
0001
0000
0010
0010
0000
0010
0100
1000
0000
,
0001
1001
1001
0000
1001
1001
0101
0000
0000
0101
0000
0000
1100
0010
0000
0110
,
0000
0000
0101
0000
0101
0000
0000
1000
0100
0000
0011
0000
0101
0000
0000
1101
,
0000
0000
0001
0100
1000
0000
0000
0100
0000
0000
0100
0000
0000
0010
0001
0100
,
0000
1000
0001
0000
0100
1000
0001
0000
1001
1001
1001
0000
0000
0001
1001
1000
,
1001
0001
1001
0000
0100
0010
0000
0100
1000
0100
1000
0100
0001
0100
0000
1000
,
0010
0000
0000
0100
0000
0000
1000
0000
0100
0001
0010
0010
0000
0000
0100
0000
,
0000
1000
0000
0100
0000
0000
0001
0000
0000
0100
1000
0000
0100
0010
0011
0000
,
0011
1101
1100
0000
0101
0011
0000
0010
0010
0010
0000
0010
0010
0000
0000
1100
,
0100
1001
0100
0100
1100
0000
0010
0010
0000
0001
1000
0100
1010
0000
0100
0110
,
0000
0010
0011
0000
1100
1100
0101
0010
0000
0110
0110
1100
0000
0110
0000
0001
,
0010
0010
0010
0010
0010
0100
1100
0000
0200
0300
0001
0100
0101
0001
0101
0100
,
0001
0100
0100
0000
0011
0101
0000
0000
0101
0000
0000
1100
1100
1100
0000
0000
,
0110
0000
0000
0110
0000
0000
0110
0110
0110
0000
0000
0000
0000
0000
0000
0000
;

//---------------dance-single - ----------------
#NOTES:
     dance-single:
     :
     Easy:
     1:
     0.269,0.220,0.216,0.015,0.416,106.000,14.000,1.000,0.000,1.000:
0000
0100
0000
0000
0100
0000
0100
0000
0010
0000
0000
0100
0000
0000
1000
0000
,
0001
0000
0000
1101
0000
0000
0001
0000
0000
0100
0000
1000
0000
0000
0010
0000
,
0000
0001
0000
0000
0100
0000
1000
0000
0000
0001
0000
0000
0100
0000
0000
0010
,
0000
0100
0000
0000
1000
0000
0000
0001
0000
0101
0000
0000
0101
0000
0000
0011
,
0000
0000
1100
0000
1001
0000
0000
0100
0000
0000
0010
0000
0100
0000
0000
0010
,
0000
0000
1000
0000
0000
0001
0100
1000
0000
0000
0100
0000
0000
0001
1000
0010
,
0000
0010
0100
0000
0000
0001
0000
0000
0100
0000
0010
0000
0000
1000
0000
0001
,
0100
1000
0000
0010
0010
0010
0000
0010
0001
0000
0000
1000
0000
0100
0000
0001
,
0010
0000
0000
0100
0000
0000
1000
0000
0001
0000
1001
1001
0000
0000
0001
0000
,
0000
1000
0000
0010
0100
0000
0010
0000
0000
0200
0000
0000
0000
0000
0000
0000
,
0000
0000
0300
0100
0010
0000
0100
0000
0000
0100
0000
1000
0001
0000
0000
0001
,
0000
0011
0000
0000
0101
1100
0000
0100
0010
0000
0100
0000
0010
0000
0000
0011
,
0000
0000
0011
0000
1100
0000
0000
0100
0000
0001
0010
0100
0000
0100
0000
1000
,
0000
0000
0100
0000
0000
0010
0000
0000
0100
0000
0010
0000
0000
0100
0000
0000
,
0010
0000
0100
0000
0000
0001
1000
0000
0001
1000
0000
0001
1000
0001
0000
1000
,
0001
0000
0000
0000
;
