#TITLE:MAX 150;
#SUBTITLE:(DDR Edit);
#ARTIST:Ω remixed by HAMMER;
#TITLETRANSLIT:;
#SUBTITLETRANSLIT:;
#ARTISTTRANSLIT:;
#CREDIT:;
#BANNER:;
#BACKGROUND:;
#LYRICSPATH:;
#CDTITLE:Udder&MJ CD Title.png;
#MUSIC:MAX 150 (DDR Edit).mp3;
#OFFSET:-3.239;
#SAMPLESTART:28.853;
#SAMPLELENGTH:11.920;
#SELECTABLE:YES;
#DISPLAYBPM:150.000;
#BPMS:0.000=150.000,159.000=100.000,159.250=90.000,159.500=75.000,159.750=65.000,160.000=50.000,160.250=35.000,160.500=25.000,160.750=150.000;
#STOPS:62.000=0.100
,62.250=0.100
,62.500=0.100
,62.750=0.100
,160.750=1.005
;
#BGCHANGES:;
// cache tags:
#FIRSTBEAT:4.000;
#LASTBEAT:229.000;
#SONGFILENAME:Songs/dragon force/MAX 150 (DDR Edit)/MAX 150 (DDR Edit).sm;
#HASMUSIC:1;
#HASBANNER:0;
#MUSICLENGTH:102.590;
// end cache tags

//---------------dance-single - ----------------
#NOTES:
     dance-single:
     :
     Easy:
     6:
     0.404,0.446,0.283,0.068,0.000,254.000,29.000,7.000,0.000,0.000:  // measure 1
0000
0000
0000
0000
,  // measure 2
1000
1000
0001
0001
,  // measure 3
1000
1000
0100
0100
,  // measure 4
0010
0010
0001
0001
,  // measure 5
0100
0010
1000
0001
,  // measure 6
0100
0010
0010
1001
,  // measure 7
0110
1000
0001
0100
,  // measure 8
0010
0000
1001
0000
1000
0100
0010
0001
,  // measure 9
0100
0010
1000
0001
,  // measure 10
0010
0000
0100
0000
1000
0001
1000
0000
,  // measure 11
0010
0100
0001
0010
,  // measure 12
0100
0000
1000
0000
0001
0100
0001
0000
,  // measure 13
0010
0100
1000
0001
,  // measure 14
0100
0000
0010
0000
1000
0100
1000
0000
,  // measure 15
0001
0101
0010
1010
,  // measure 16
1000
1001
0020
1030
,  // measure 17
0100
0010
0001
1000
,  // measure 18
0010
0000
0100
0001
0100
0000
0010
0000
,  // measure 19
1000
0001
0010
0100
,  // measure 20
1000
0000
0010
0100
0010
0000
1000
0000
,  // measure 21
0001
0010
0100
1000
,  // measure 22
0010
0000
0100
0001
0100
0000
0010
0000
,  // measure 23
1010
0100
0010
0022
,  // measure 24
0000
0000
0000
0000
0033
0000
0100
0010
,  // measure 25
0000
0000
1000
0100
0000
0000
0010
0001
,  // measure 26
0000
0000
0100
0010
0100
0000
0001
1000
,  // measure 27
0000
0000
0100
0010
0000
0000
0001
1000
,  // measure 28
0000
0000
0100
0010
0100
0000
1000
0001
,  // measure 29
0000
0000
0100
0010
0000
0000
0100
0001
,  // measure 30
0000
0000
1000
0100
1000
0000
0010
0100
,  // measure 31
0000
0000
0001
1000
0000
0000
0100
0010
,  // measure 32
0000
0100
1000
0000
1001
0000
0010
0000
,  // measure 33
0100
1000
0010
0100
,  // measure 34
0001
0110
0100
0010
,  // measure 35
1100
0010
0001
1100
,  // measure 36
0010
0100
1010
0001
,  // measure 37
0100
1010
0100
0010
,  // measure 38
0101
0010
1000
0101
,  // measure 39
0010
0000
1000
0000
0101
0000
0100
0010
,  // measure 40
1000
0001
0010
0100
1000
0001
2002
0000
,  // measure 41
0000
0000
0000
3003
0010
0000
0000
0000
1000
0000
0000
0000
0100
0000
0000
0000
,  // measure 42
0010
0000
0001
0000
0100
0000
0010
1000
,  // measure 43
0010
0100
0001
0010
,  // measure 44
0100
0000
1000
0000
0001
0100
0010
1000
,  // measure 45
0001
0010
0100
1000
,  // measure 46
0001
0000
0100
0000
0010
1000
0001
0100
,  // measure 47
0010
1000
0001
0010
,  // measure 48
0100
0000
1000
0000
0001
1000
0100
0010
,  // measure 49
0001
0011
0100
1010
,  // measure 50
0001
0110
1001
1100
,  // measure 51
0011
0000
0100
0000
1010
0000
1000
0010
,  // measure 52
1000
0000
0001
0000
0110
0000
0100
1000
,  // measure 53
0100
0000
0010
0001
0100
0000
0010
1000
,  // measure 54
0100
0000
0011
0000
1001
0000
0100
0010
,  // measure 55
1000
0000
0010
0100
0001
0010
0100
1000
,  // measure 56
0100
0010
0001
1000
0010
0100
0001
0010
,  // measure 57
0100
1000
2002
0000
0000
0000
0000
0000
,  // measure 58
0000
3003
0000
0000
;

//---------------dance-single - ----------------
#NOTES:
     dance-single:
     :
     Medium:
     9:
     0.581,0.698,0.253,0.068,0.151,384.000,26.000,7.000,0.000,0.000:  // measure 1
0000
0000
0000
0000
,  // measure 2
1000
0001
0100
0000
0010
1000
0100
0000
,  // measure 3
0010
0001
0100
0000
0001
0010
0100
0000
,  // measure 4
1000
0010
0100
0000
0010
1000
0100
0000
,  // measure 5
0010
0001
0101
1001
,  // measure 6
1000
0000
0100
0000
0010
0001
0100
0000
,  // measure 7
0010
0000
1000
0000
0001
0100
0010
1000
,  // measure 8
0101
0000
0000
1010
0000
0000
1001
0000
0001
0100
0010
1000
0100
0010
0001
0100
,  // measure 9
0010
0100
0000
0001
0100
0100
0000
1000
,  // measure 10
0100
0100
0000
0001
1000
0010
0100
0001
,  // measure 11
0010
0100
0000
1000
0010
0010
0000
0001
,  // measure 12
0010
0010
0000
1000
0001
0010
0100
1000
,  // measure 13
0010
0100
0000
0001
0010
0010
0000
0001
,  // measure 14
0100
0100
0000
0010
1000
0100
0010
0001
,  // measure 15
1000
0010
1001
0000
0010
0001
1001
0000
,  // measure 16
1010
0000
0000
1001
0000
0000
0101
0000
1000
0100
0010
0001
1000
0000
0100
0000
,  // measure 17
0000
1000
0010
0010
0000
0001
0010
0010
,  // measure 18
0000
1000
0001
0100
0010
1000
0100
0010
,  // measure 19
0000
0001
0100
0100
0000
1000
0100
0100
,  // measure 20
0000
0001
0010
0100
1000
0010
0100
0001
,  // measure 21
0000
0010
1000
1000
0000
0010
0001
0001
,  // measure 22
0000
0100
0010
1000
0001
0010
0100
1000
,  // measure 23
1001
0000
0010
0001
1001
0000
0022
0000
,  // measure 24
0000
0000
0000
0000
0033
0000
0010
0100
,  // measure 25
1000
0000
0001
0100
0010
0000
1000
0001
,  // measure 26
0100
0010
1000
0100
0010
0000
0001
0100
,  // measure 27
0010
0000
1000
0100
0010
0000
0001
0100
,  // measure 28
0010
1000
0001
0100
0010
0000
1000
0001
,  // measure 29
0100
0000
0010
1000
0100
0000
0010
0001
,  // measure 30
1000
0010
0100
0001
0010
0000
0100
1000
,  // measure 31
0010
0000
0100
0001
0010
0000
1100
0000
,  // measure 32
0011
0000
0110
0001
0100
0010
1000
0000
,  // measure 33
1000
0000
0100
0000
0001
0100
1000
0000
,  // measure 34
0010
0000
0010
0000
0001
0010
1000
0000
,  // measure 35
0100
0000
0100
0000
0001
0100
1000
0000
,  // measure 36
0001
0100
0010
1000
0100
0010
0100
0000
,  // measure 37
1000
0000
1000
0000
0001
0100
1000
0000
,  // measure 38
0100
0000
0100
0000
0001
0010
0200
0000
,  // measure 39
1000
0000
0000
0000
0000
0000
0000
0000
0010
0000
0300
0000
0001
0100
0001
0000
,  // measure 40
1000
0010
1000
0000
0100
0010
0100
1000
0001
0010
0100
0000
2002
0000
0000
0000
,  // measure 41
0000
0000
0000
3003
1000
0000
0100
0000
0010
0000
0001
0000
1000
0000
0010
0000
,  // measure 42
0100
0001
1000
0010
0100
0001
0010
0100
,  // measure 43
1000
0100
0001
0100
1000
0100
0010
0001
,  // measure 44
0100
0010
1000
0001
0010
0100
1000
0100
,  // measure 45
0010
0001
0100
0010
1000
0001
0100
0010
,  // measure 46
1000
0010
0001
0010
1000
0010
0100
0001
,  // measure 47
0010
0100
1000
0010
0110
0000
0001
0010
,  // measure 48
0110
0000
0000
0000
1100
0000
0000
0011
0000
0000
1001
0000
0010
0001
1000
0010
,  // measure 49
0100
0001
0010
0100
1000
0000
0010
0000
0100
0000
0001
0000
0100
0000
1000
0000
,  // measure 50
0100
0001
0100
0010
1000
0001
0100
0010
,  // measure 51
1000
0000
0100
0010
0001
0100
0010
1000
,  // measure 52
0100
0010
0001
1000
0010
0100
0001
0010
,  // measure 53
0100
0000
1001
0000
1000
0100
1000
0000
0001
0000
1000
0010
1000
0000
0001
0000
,  // measure 54
0010
0001
0010
0000
0100
0000
1000
0001
1000
0000
0010
0000
0100
0001
1000
0001
,  // measure 55
0100
0000
0010
0000
1000
0010
1000
0000
0001
0000
1000
0001
1000
0000
0100
0000
,  // measure 56
0010
0001
0010
0000
1001
0000
1100
0000
0010
0000
0100
0001
0010
0100
1000
0010
,  // measure 57
0100
0001
0010
0000
2002
0000
0000
0000
0000
0000
0000
0000
0000
0000
0000
0000
,  // measure 58
0000
3003
0000
0000
;

//---------------dance-single - ----------------
#NOTES:
     dance-single:
     :
     Hard:
     10:
     0.682,0.774,0.712,0.058,0.468,411.000,73.000,6.000,0.000,0.000:  // measure 1
0000
0000
0000
0000
,  // measure 2
0000
0000
0000
0000
,  // measure 3
1100
0100
0011
1000
,  // measure 4
0101
0000
0001
0000
1010
0000
0110
1000
,  // measure 5
0110
0001
0101
0010
,  // measure 6
1100
1000
1010
0001
,  // measure 7
0011
0000
0100
0000
0101
0000
1001
1000
,  // measure 8
0100
0000
0010
0001
0000
0100
0000
0010
1000
0010
1000
0001
0010
0100
1000
0010
,  // measure 9
0100
1001
0010
0110
,  // measure 10
1000
0000
1001
0001
0100
1000
0100
0001
,  // measure 11
1000
1100
0010
0011
,  // measure 12
1000
0000
1010
0100
0001
0010
0100
1000
,  // measure 13
0010
0101
0010
1100
,  // measure 14
1000
0000
1001
1000
0010
0001
0010
1000
,  // measure 15
0100
0011
0100
1010
,  // measure 16
0101
0000
0000
1100
0000
0000
0011
0000
1001
1010
0101
0011
1100
0000
1000
0000
,  // measure 17
1010
0000
0011
0001
0101
0000
1001
1000
,  // measure 18
0100
0001
0010
1000
0001
0010
0110
1000
,  // measure 19
1001
0000
0110
0001
1001
0000
0110
1000
,  // measure 20
0100
0010
0001
0100
0010
1000
0011
0100
,  // measure 21
1100
0000
1010
0100
0101
0000
1001
1000
,  // measure 22
0100
0001
0100
1000
0010
0100
0101
1000
,  // measure 23
0110
0000
1100
0001
0110
0000
2002
0000
,  // measure 24
0000
0000
0000
0000
3003
0000
1000
0100
,  // measure 25
0000
0010
0000
0000
0001
0000
0100
0000
0000
0010
0000
0000
1000
0000
0001
0000
,  // measure 26
0000
0010
0000
0100
1000
0000
0010
0000
0110
0000
0000
0000
0001
0000
0010
0000
,  // measure 27
0000
0100
0000
0000
1000
0000
0010
0000
0000
0100
0000
0000
0001
0000
1000
0000
,  // measure 28
0000
0100
0000
0010
0001
0000
0100
0000
0110
0000
0000
0000
1000
0000
0001
0000
,  // measure 29
0000
0010
0000
0000
0100
0000
1000
0000
0000
0010
0000
0000
0100
0000
0001
0000
,  // measure 30
0000
0010
0000
0100
1000
0000
0001
0000
0110
0000
0000
0000
0001
0000
1000
0000
,  // measure 31
0000
0100
0000
0000
0010
0000
0001
0000
0000
0100
0000
0000
0010
0000
1000
0000
,  // measure 32
0000
0100
0000
0010
0001
0000
0100
0000
0010
0000
1000
0000
1100
0000
0000
0000
,  // measure 33
0011
0100
1010
1000
,  // measure 34
0101
0000
1010
1000
0001
0010
0100
0000
,  // measure 35
1100
1010
0101
1000
,  // measure 36
1001
0000
1001
1000
0100
0001
0010
0000
,  // measure 37
1001
1000
0010
0000
1001
0100
1010
0000
,  // measure 38
1100
0011
0101
2002
,  // measure 39
0000
0000
0000
0000
0000
0000
0000
0000
3003
0000
0000
0000
1000
0010
0100
0001
,  // measure 40
1000
0100
0010
0001
0100
0010
1000
0001
0010
0100
1000
0020
0000
0000
0000
0000
,  // measure 41
0030
0000
0000
0000
0100
0001
0100
0000
0001
1000
0001
0000
1000
0100
1000
0000
,  // measure 42
0001
0010
0001
0000
1000
0000
0010
0000
0100
0000
0001
0000
0010
0000
0100
1000
,  // measure 43
0100
0000
0010
0000
0001
0100
0001
0000
1000
0010
1000
0000
0001
0010
0001
0000
,  // measure 44
1000
0100
1000
0000
0001
0000
0100
0000
0010
0000
1000
0000
0100
0000
0010
0001
,  // measure 45
0010
0000
0100
0000
1000
0001
1000
0000
0010
0100
0010
0000
1000
0100
1000
0000
,  // measure 46
0001
0010
0001
0000
1000
0000
0010
0000
0100
0000
0001
0000
1000
0000
0100
0010
,  // measure 47
0100
0000
1000
0000
0001
1000
0001
0000
0100
0010
0100
0000
0001
0010
0001
0000
,  // measure 48
1000
0100
1000
0000
1001
0000
0000
0101
0000
0000
1010
0000
1000
0100
0010
0001
,  // measure 49
0100
0010
1000
0001
0010
0000
0100
0000
1000
0010
0000
0100
0001
0000
0010
0000
,  // measure 50
0100
1000
0000
0001
0100
0000
0010
0000
1000
0100
0000
0010
0001
0000
0100
0000
,  // measure 51
0010
1000
0000
0001
0010
0000
0100
0000
1000
0010
0000
0100
0001
0000
1000
0000
,  // measure 52
0100
0010
0000
0001
0100
0000
0010
0000
1000
0000
0001
0000
0010
0100
1000
0010
,  // measure 53
0100
0001
0010
0000
0100
1000
0001
0100
0001
0000
0010
0100
1000
0010
0100
0000
,  // measure 54
0001
1000
0001
1000
0001
0000
1000
0010
0100
0001
0010
0000
0100
1000
0010
0100
,  // measure 55
0001
0000
1000
0100
1000
0001
0100
0000
0010
1000
0001
0010
0001
0000
0100
0010
,  // measure 56
1000
0100
0010
0000
0001
0100
0010
1000
0010
0000
1000
0100
0010
0001
0100
0010
,  // measure 57
1000
0100
0010
0001
0200
0000
0000
0000
0000
0000
0000
0300
0000
0000
0000
0000
;

//---------------dance-single - ----------------
#NOTES:
     dance-single:
     :
     Challenge:
     10:
     0.888,0.865,0.712,0.068,0.941,558.000,73.000,7.000,0.000,0.000:  // measure 1
0000
0000
0000
0000
,  // measure 2
0010
0001
0010
0000
0100
0000
1000
0000
0010
0100
0010
0000
1000
0000
0001
0000
,  // measure 3
0010
0100
0010
0000
0001
0000
0100
0000
0010
1000
0010
0000
0100
0000
0001
0000
,  // measure 4
0100
0010
0100
0000
0001
0000
0010
0000
0100
1000
0100
0000
0010
0000
0001
0000
,  // measure 5
0100
0000
1000
0000
0100
0000
0001
0000
0010
0000
0100
0000
1000
0010
0100
0000
,  // measure 6
0001
0000
0010
0000
1000
0000
0010
0000
0001
0000
0100
0000
0010
1000
0100
0000
,  // measure 7
0010
0001
0100
0000
1001
0000
0010
0000
0100
0001
1000
0000
0100
0000
0011
0000
,  // measure 8
1001
0000
0000
1010
0000
0000
0101
0000
0010
0100
1000
0010
0100
0001
0010
0100
,  // measure 9
1000
0000
0010
0000
0000
0100
0000
0001
0010
0000
0100
0000
0000
1000
0000
0001
,  // measure 10
0100
0000
1000
0000
0000
0100
0000
0001
0010
0000
1100
0000
0010
0100
0001
0000
,  // measure 11
0010
0000
0100
0000
0000
1000
0000
0010
0100
0000
0001
0000
0000
0100
0000
0010
,  // measure 12
1000
0000
0100
0000
0000
0010
0000
0001
0100
0000
1010
0000
0100
0010
0001
0000
,  // measure 13
0100
0000
0010
0000
0000
0100
0000
0001
0010
0000
0100
0000
0000
1000
0000
0010
,  // measure 14
0100
0000
0001
0000
0000
0010
0000
0100
1000
0000
0101
0000
1001
0000
1010
0000
,  // measure 15
1000
0100
0001
0000
1100
0000
1001
0000
0100
0010
1000
0000
0101
0000
0011
0000
,  // measure 16
1001
0000
0000
1010
0000
0000
0101
0000
1010
1001
0101
0110
1000
0000
0100
0000
,  // measure 17
0000
0011
0000
0001
0100
0000
0010
0000
0000
1001
0000
0001
0100
0000
0010
0000
,  // measure 18
0000
1010
0000
0100
0010
0000
0011
0000
0100
0010
1000
0000
0001
0000
0100
0000
,  // measure 19
0000
1010
0000
1000
0100
0000
0010
0000
0000
0101
0000
0100
0010
0000
1000
0000
,  // measure 20
0000
0101
0000
0100
0010
0000
1010
0000
0100
0001
0010
0000
0100
0000
1000
0000
,  // measure 21
0000
0101
0000
0100
0010
0000
1000
0000
0000
0101
0000
0010
0100
0000
1000
0000
,  // measure 22
0000
0101
0000
0100
0010
0000
1001
0000
0010
0100
1000
0000
0001
0100
0010
1000
,  // measure 23
0100
0000
0010
0001
0100
0010
1000
0000
0100
0010
0001
1000
0022
0000
0000
0000
,  // measure 24
0000
0000
0000
0000
0033
0000
0010
0001
,  // measure 25
0100
0010
0000
1000
0100
0000
0010
0000
0001
0100
0000
1000
0100
0000
0001
0000
,  // measure 26
1000
0100
0000
0010
0001
0100
0010
1000
0100
0000
0011
0000
0100
1000
0010
0100
,  // measure 27
0001
0000
1010
0000
0100
0001
0010
0100
1000
0000
0011
0000
0100
0000
1000
0000
,  // measure 28
0010
0100
0000
0001
0010
0000
0100
1000
0000
0001
0100
1000
0100
0000
0001
0000
,  // measure 29
0100
1000
0000
0100
0001
0000
0100
0010
0000
1000
0100
0000
0010
0001
0000
0100
,  // measure 30
0010
0000
1000
0100
0000
0010
0001
0100
0010
0000
1010
0000
1000
0100
0010
0001
,  // measure 31
1000
0000
0101
0000
0010
1000
0100
0010
0001
0000
0110
0000
1000
0000
0010
1000
,  // measure 32
0100
0000
0010
0001
0100
0000
1010
0000
1001
0000
0011
0000
0100
0000
1000
0010
,  // measure 33
0100
0000
0001
0000
0100
0010
1000
0000
0110
0000
0101
0000
0010
0000
1000
0100
,  // measure 34
0010
0000
0001
0000
0100
0010
1000
0000
0001
0100
0010
1000
0100
0000
0010
0001
,  // measure 35
0100
0000
1100
0000
0100
0000
0001
0100
1000
0000
0100
0000
0001
0100
0010
1000
,  // measure 36
0100
0000
0101
0000
0100
1000
0001
0100
0010
0000
1010
0000
1000
0000
0010
0100
,  // measure 37
0001
0000
0100
0000
0010
1000
0100
0000
0011
0000
0101
0000
0010
0000
0100
0001
,  // measure 38
0010
0000
0100
0000
1000
0001
0100
0000
1001
0000
0100
0000
0002
0000
0000
0000
,  // measure 39
1000
0000
0000
0000
0000
0000
0000
0000
0010
0000
0003
0000
0100
1000
0010
0100
,  // measure 40
0001
0100
0010
1000
0100
0010
0001
0100
0010
1000
0001
0010
2002
0000
0000
0000
,  // measure 41
0000
0000
0000
3003
0001
0100
1000
0000
0000
0100
0000
0001
0100
0000
0010
0000
,  // measure 42
0000
1000
0000
0001
0010
1000
0010
0000
0000
0001
0000
0010
1000
0010
0001
0000
,  // measure 43
0100
0010
1000
0000
0100
0010
0001
0000
0000
1001
0000
0010
1000
0100
1000
0000
,  // measure 44
0000
0010
0000
1000
0100
1000
0010
0000
0000
0101
0000
1000
0100
0001
0100
0000
,  // measure 45
1000
0100
0001
0000
0010
0100
1000
0000
0110
0000
0100
0000
0001
0010
0100
0000
,  // measure 46
1001
0000
0001
0000
0100
0010
1000
0000
0001
0010
0100
1000
0010
0000
0101
0000
,  // measure 47
1001
0000
1010
0000
0100
0001
0010
0100
1000
0000
0010
0100
0001
0010
0100
0000
,  // measure 48
1000
0100
0001
0000
1100
0000
0000
0011
0000
0000
1100
0000
0010
0001
0100
0010
,  // measure 49
1000
0001
0100
1000
0100
0000
0101
0000
0100
0010
1000
0000
0001
0000
0010
0000
,  // measure 50
1000
0010
0001
0000
0010
0100
1000
0000
0001
0100
0010
1000
0100
0000
0011
0000
,  // measure 51
1000
0100
0001
0000
0100
0000
1100
0000
0100
0001
0100
0000
1000
0000
0110
0000
,  // measure 52
0100
0001
0010
0000
0001
0100
0010
0000
0100
0001
1000
0100
0001
0000
0100
0000
,  // measure 53
1001
0000
1100
0000
0010
0001
0100
0010
1000
0000
0001
0100
1000
0100
0001
0000
,  // measure 54
1000
0010
1000
0100
0010
0000
0011
0000
1001
0000
1100
0000
0010
0100
0001
0010
,  // measure 55
0100
0000
1100
0000
0010
0001
0100
0010
1000
0100
0001
0100
1000
0001
1000
0100
,  // measure 56
0010
0001
0100
0000
0010
1000
0100
0010
0001
0100
1000
0100
0010
1000
0100
0010
,  // measure 57
0001
0100
0010
1000
2002
0000
0000
0000
0000
0000
0000
0000
0000
0000
0000
0000
,  // measure 58
0000
3003
0000
0000
;

//---------------dance-double - ----------------
#NOTES:
     dance-double:
     :
     Easy:
     5:
     0.376,0.391,0.263,0.078,0.000,235.000,27.000,8.000,0.000,0.000:  // measure 1
00000000
00000000
00000000
00000000
,  // measure 2
00001000
00001000
00010000
00010000
,  // measure 3
00000010
00000010
00000100
00000100
,  // measure 4
00000001
00000001
00000010
00001000
,  // measure 5
00010000
00100000
10000000
10000000
,  // measure 6
01000000
01000000
00100000
00100000
,  // measure 7
00101000
00000000
00010100
00000000
,  // measure 8
00001001
00000000
00000110
00000000
00000100
00000010
00000001
00000100
,  // measure 9
00000010
00001000
00000100
00010000
,  // measure 10
00001000
00000000
00100000
00000000
00010000
01000000
00010000
00000000
,  // measure 11
10000000
01000000
00100000
00001000
,  // measure 12
00010000
00000000
00000100
00000000
00000010
00000001
00000010
00000000
,  // measure 13
00000100
00001000
00000010
00000100
,  // measure 14
00000010
00000000
00010000
00000000
00001000
00010000
00001000
00000000
,  // measure 15
01001000
00000000
00110000
00000000
,  // measure 16
10010000
10000000
00200000
01300000
,  // measure 17
00010000
00100000
00001000
00010000
,  // measure 18
00000100
00000000
00001000
00000010
00001000
00000000
00000100
00000000
,  // measure 19
00000010
00000001
00000100
00000010
,  // measure 20
00001000
00000000
00000100
00010000
00000100
00000000
00010000
00000000
,  // measure 21
00001000
00100000
00010000
01000000
,  // measure 22
00100000
00000000
10000000
01000000
10000000
00000000
00110000
00000000
,  // measure 23
00000000
00001100
00000000
00000022
,  // measure 24
00000000
00000000
00000000
00000000
00000033
00000000
00000100
00001000
,  // measure 25
00000000
00000000
00000100
00010000
00000000
00000000
00001000
00010000
,  // measure 26
00000000
00000000
00001000
01000000
00000000
00000000
00010000
01000000
,  // measure 27
00000000
00000000
00100000
10000000
00000000
00000000
01000000
00100000
,  // measure 28
00000000
00000000
00010000
00100000
00000000
00000000
00001000
00100000
,  // measure 29
00000000
00000000
00001000
00010000
00000000
00000000
00000010
00010000
,  // measure 30
00000000
00000000
00000010
00001000
00000000
00000000
00000100
00000010
,  // measure 31
00000000
00000000
00000001
00000100
00000000
00000000
00000010
00001000
,  // measure 32
00000000
00000100
00010000
00000000
00011000
00000000
01000000
00000000
,  // measure 33
01000000
00100000
00100000
10000000
,  // measure 34
10000000
01010000
00100000
10000000
,  // measure 35
01010000
00100000
00001000
00011000
,  // measure 36
00000010
00010000
00011000
00000100
,  // measure 37
00001000
00001010
00000100
00000001
,  // measure 38
00001010
00000100
00000001
00002000
,  // measure 39
00000100
00000000
00000000
00000000
00000010
00000000
00013000
00001000
,  // measure 40
01000000
00000000
00010000
01000000
00100000
10000000
20020000
00000000
,  // measure 41
00000000
00000000
00000000
30030000
01000000
00000000
00000000
00000000
00100000
00000000
00000000
00000000
00001000
00000000
00000000
00000000
,  // measure 42
00010000
00000000
00000010
00000000
00001000
00000000
00000100
00000010
,  // measure 43
00000100
00001000
00000001
00000100
,  // measure 44
00000010
00000000
00010000
00000000
00001000
01000000
00001000
00000000
,  // measure 45
01010000
00100000
10000000
01000000
,  // measure 46
00100000
00000000
00001000
00000000
00010000
00000010
00010000
00000000
,  // measure 47
00001010
00000100
00000010
00000001
,  // measure 48
00000100
00000000
00000010
00000000
00010000
00001000
00010000
00000000
,  // measure 49
00101000
01000000
10000000
10000000
,  // measure 50
10000000
01100000
00010000
00010000
,  // measure 51
00010000
00101000
00010000
00010000
,  // measure 52
00010000
00010010
00001000
00001000
,  // measure 53
00001000
00000000
00000010
00000001
00000010
00000000
00000100
00001000
,  // measure 54
00000100
00000000
00011000
00000000
01001000
00000000
00010000
01000000
,  // measure 55
00010000
00000000
00100000
01000000
10000000
00000000
00010000
01000000
,  // measure 56
00100000
00000000
00010000
00001000
01000000
00000000
00001000
00010000
,  // measure 57
00000100
00001000
00002002
00000000
00000000
00000000
00000000
00000000
,  // measure 58
00000000
00003003
00000000
00000000
;

//---------------dance-double - ----------------
#NOTES:
     dance-double:
     :
     Medium:
     9:
     0.549,0.670,0.078,0.117,0.117,374.000,8.000,12.000,0.000,0.000:  // measure 1
00000000
00000000
00000000
00000000
,  // measure 2
10000000
01000000
00010000
00000000
00001000
00010000
01000000
00000000
,  // measure 3
00010000
00001000
00000010
00000000
00000001
00000100
00001000
00000000
,  // measure 4
00010000
00001000
00000100
00000000
00001000
00010000
01000000
00000000
,  // measure 5
10000000
00100000
01000000
00001000
,  // measure 6
00010000
00000000
00000100
00000000
00000010
00000001
00000100
00000000
,  // measure 7
00000010
00000000
00010000
00000000
00001000
01000000
00010000
10000000
,  // measure 8
00100000
00000000
00000000
01000000
00000000
00000000
00010000
00000000
00100000
00001000
00000000
00010000
00001000
00000000
00010000
00000000
,  // measure 9
00000100
00001000
00000000
00000001
00000100
00001000
00000000
00010000
,  // measure 10
00001000
00000100
00000000
00000001
00000010
00000100
00001000
00000000
,  // measure 11
00000010
00010000
00000000
00001000
01000000
00010000
00000000
00100000
,  // measure 12
01000000
10000000
00000000
01000000
00010000
00001000
00000010
00000001
,  // measure 13
00000100
00000010
00000000
00010000
00001000
00000100
00000000
00001000
,  // measure 14
00010000
00100000
00000000
01000000
00010000
00100000
01000000
10000000
,  // measure 15
00100000
01000000
00010000
00000000
00100000
00001000
00010000
00000100
,  // measure 16
00001000
00000000
00000000
00000010
00000000
00000000
00000100
00000000
00000001
00001000
00000100
00000010
00000001
00000000
00000100
00000000
,  // measure 17
00000000
00001000
00010000
01000000
00000000
00100000
00010000
01000000
,  // measure 18
00000000
00100000
10000000
01000000
00100000
00001000
00010000
00000010
,  // measure 19
00000000
00001000
00000100
00000010
00000000
00000001
00000100
00000010
,  // measure 20
00000000
00001000
00000100
00000010
00001000
00010000
00001000
01000000
,  // measure 21
00000000
00010000
01000000
10000000
00000000
01000000
00010000
00100000
,  // measure 22
00000000
01000000
00010000
00001000
00010000
00000100
00000010
00000001
,  // measure 23
00000100
00000000
00000010
00001000
00000100
00000000
00000022
00000000
,  // measure 24
00000000
00000000
00000000
00000000
00000033
00000000
00000100
00001000
,  // measure 25
00010000
00000000
00001000
00000100
00000001
00000000
00000100
00001000
,  // measure 26
00010000
00100000
10000000
01000000
00010000
00000000
01000000
00010000
,  // measure 27
00001000
00000000
00010000
01000000
10000000
00000000
00100000
00010000
,  // measure 28
00001000
00000010
00000001
00000100
00001000
00000000
00000100
00001000
,  // measure 29
00010000
00000000
00001000
00000010
00000001
00000000
00000100
00001000
,  // measure 30
00010000
01000000
10000000
00100000
00010000
00000000
00001000
00000100
,  // measure 31
00000001
00000000
00000010
00001000
00010000
00000000
00010100
00000000
,  // measure 32
00011000
00000000
00110000
00100000
01000000
10000000
00010000
00000000
,  // measure 33
00100000
00000000
02000000
00000000
10000000
10000000
13000000
00000000
,  // measure 34
00100000
00000000
00020000
00000000
00001000
00001000
00031000
00000000
,  // measure 35
00000010
00000000
00000002
00000000
00000100
00000100
00000103
00000000
,  // measure 36
00000010
00000100
00001000
00010000
00001000
00100000
01000000
00000000
,  // measure 37
10000000
00000000
00200000
00000000
00010000
00010000
00310000
00000000
,  // measure 38
00001000
00000000
00000200
00000000
00000001
00000001
00000302
00000000
,  // measure 39
00000010
00000000
00000000
00000000
00000100
00000003
00000010
00000100
,  // measure 40
00010000
00000000
00001000
00000000
01000000
00000000
00100000
10000000
00010000
00100000
01000000
00000000
20020000
00000000
00000000
00000000
,  // measure 41
00000000
00000000
00000000
30030000
10000000
00000000
01000000
00000000
00010000
00000000
00001000
00000000
00010000
00000000
00000010
00000000
,  // measure 42
00000100
00000001
00000100
00001000
00000100
00000001
00000100
00001000
,  // measure 43
00010000
00100000
10000000
00010000
01000000
00100000
00010000
00001000
,  // measure 44
00100000
00010000
10000000
01000000
00010000
00001000
00000100
00000001
,  // measure 45
00000010
00001000
00010000
00001000
00100000
01000000
00010000
00001000
,  // measure 46
00000100
00000010
00001000
00000100
00000010
00001000
00010000
00100000
,  // measure 47
10000000
01000000
00010000
01000000
10000000
00000000
10000000
01000000
,  // measure 48
10000000
00000000
00000000
00000000
00100000
00000000
00000000
00010000
00000000
00000000
00001000
00000000
00010000
00000100
00000000
00010000
,  // measure 49
00001000
00000010
00000001
00000100
00001000
00010000
00000010
00001000
,  // measure 50
00000100
00000010
00001000
00010000
00001000
00100000
00010000
01000000
,  // measure 51
10000000
00000000
01000000
00010000
10000000
01000000
00010000
00001000
,  // measure 52
01000000
00001000
00010000
00000010
00000100
00000001
00000010
00001000
,  // measure 53
00010000
00000000
00100000
00000000
10000000
00010000
10000000
00000000
01000000
00000000
00100000
00010000
00100000
00000000
01000000
00000000
,  // measure 54
10000000
00010000
10000000
00000000
00100000
00000000
01000000
00010000
01000000
00000000
00001000
00000000
00010000
00001000
00010000
00001000
,  // measure 55
00010000
00000000
00000100
00000000
00001000
00000010
00001000
00000000
00001010
00000000
00000001
00000100
00000001
00000000
00000101
00000000
,  // measure 56
00000010
00001000
00000010
00000000
00010000
00000000
00001000
00000000
01000000
00000000
00010000
00100000
00000000
01000000
10000000
00100000
,  // measure 57
01000000
00001000
00010000
00000000
00020020
00000000
00000000
00000000
00000000
00000000
00000000
00000000
00000000
00000000
00000000
00000000
,  // measure 58
00000000
00030030
00000000
00000000
;

//---------------dance-double - ----------------
#NOTES:
     dance-double:
     :
     Hard:
     10:
     0.776,0.921,0.214,0.068,0.780,528.000,22.000,7.000,0.000,0.000:  // measure 1
00000000
00000000
00000000
00000000
,  // measure 2
00000001
00000000
00000010
00000000
00001000
00000000
00010000
00000000
00001000
01000000
00100000
00000000
10000000
00000000
01000000
00000000
,  // measure 3
00010000
00000000
00001000
00000000
00010000
00000000
00000010
00000000
00000100
00000001
00000010
00000000
00000100
00000000
00001000
00000000
,  // measure 4
00000010
00000000
00000100
00000000
00001000
00000000
00010000
00000000
00001000
00100000
01000000
00000000
10000000
00000000
00010000
00000000
,  // measure 5
01000000
00100000
10000000
01000000
00010000
00001000
00000100
00000001
,  // measure 6
00000010
00000000
00000100
00000000
00010000
00000000
00001000
00000000
00010000
01000000
10000000
00000000
00100000
00000000
01000000
00000000
,  // measure 7
01010000
00100000
00001000
00000000
00010100
00001000
00000010
00000100
,  // measure 8
00001001
00000000
00000000
00010100
00000000
00000000
00001010
00000000
00000100
00000001
00000010
00000100
00010000
00001000
00010000
00000100
,  // measure 9
00010000
00000000
00001000
00000000
00000000
01000000
00000000
00100000
10000000
00000000
01000000
00000000
00000000
00010000
00000000
00001000
,  // measure 10
00000010
00000000
00000001
00000000
00000000
00000100
00000000
00000010
00010000
00000000
00001000
00000000
01000000
00000000
00100000
00000000
,  // measure 11
10000000
00000000
01000000
00000000
00000000
00010000
00000000
00001000
00000100
00000000
00000001
00000000
00000000
00000100
00000000
00001000
,  // measure 12
00010000
00000000
00100000
00000000
00000000
10000000
00000000
01000000
00010000
00000000
00001000
00000000
00000010
00000000
00001000
00000000
,  // measure 13
00010000
00000000
00001000
00000000
00000000
00000100
00000000
00000001
00000010
00000000
00001000
00000000
00000000
00010000
00000000
00100000
,  // measure 14
10000000
00000000
01000000
00000000
00000000
00010000
00000000
00001000
00100000
00000000
00001000
00000000
00000100
00000000
00000001
00000000
,  // measure 15
00001001
00000100
00000010
00000000
00011000
00010000
00001000
00100000
,  // measure 16
10010000
00000000
00000000
00101000
00000000
00000000
01010000
00000000
10100000
10010000
01010000
01001000
01000000
00000000
00010000
00000000
,  // measure 17
00000000
10000000
00000000
01000000
00010000
00000000
00001000
00000000
00000000
00000010
00000000
00000001
00000100
00000000
00001000
00000000
,  // measure 18
00000000
00010000
00000000
00001000
00000100
00000000
00001000
00000000
00010000
00000000
01000000
00000000
10000000
00000000
00100000
00000000
,  // measure 19
00000000
00010000
00000000
00000010
00001000
00000000
00000100
00000000
00000000
00000010
00000000
00000001
00000100
00000000
00001000
00000000
,  // measure 20
00000000
00010000
00000000
00100000
10000000
00000000
01000000
00000000
00100000
00000000
00001000
00000000
00000100
00000000
00000001
00000000
,  // measure 21
00000000
00000100
00000000
00001000
00010000
00000000
01000000
00000000
00000000
10000000
00000000
00100000
00010000
00000000
00001000
00000000
,  // measure 22
00000000
00100000
00000000
01000000
00010000
00000000
00001000
00000000
00000100
00000000
00000001
00000000
00000010
00000000
00000100
00000000
,  // measure 23
00001000
00000000
00000000
00000000
00001001
00000000
00000100
00000000
00000010
00001000
00000100
00000000
00000022
00000000
00000000
00000000
,  // measure 24
00000000
00000000
00000000
00000000
00000033
00000000
00000100
00010000
,  // measure 25
00001000
00000100
00000000
00001000
00010000
00000000
01000000
00000000
10000000
00100000
00000000
00010000
00001000
00000000
00000010
00000001
,  // measure 26
00000000
00000100
00001000
00000000
00010000
01000000
00000000
10000000
00100000
00000000
01000000
00000000
00010000
00000000
00100000
00000000
,  // measure 27
01000000
00010000
00000000
00001000
00000100
00000000
00000010
00001000
00000000
00000100
00000010
00000000
00000001
00000100
00000000
00001000
,  // measure 28
00010000
00000000
01000000
10000000
00000000
00100000
01000000
00000000
01010000
00000000
00000000
00000000
00100000
00000000
10000000
00000000
,  // measure 29
01000000
00010000
00000000
00001000
00000100
00000000
00000001
00000000
00000010
00001000
00000000
00100000
00010000
00000000
00000010
00001000
,  // measure 30
00000000
00100000
00010000
00000000
01000000
10000000
00000000
01000000
00010000
00000000
10000000
00000000
01000000
00000000
00010000
00001000
,  // measure 31
00000000
00000100
00001000
00000000
01000000
00010000
00000000
00000100
00001000
00000000
00010000
01000000
00000000
00010000
00001000
00000000
,  // measure 32
00000100
00000001
00000000
00000010
00001000
00000000
00011000
00000000
00010000
00000000
00100000
00000000
10000000
00000000
01000000
00000000
,  // measure 33
00100000
00000000
00001000
00000000
00000100
00000000
00000001
00000000
00001000
00000100
00000001
00000000
00000100
00000000
00001000
00000000
,  // measure 34
00000010
00000000
00000100
00000000
00001000
00010000
00001000
00010000
00100000
00000000
10000000
00000000
01000000
00000000
00100000
00000000
,  // measure 35
10000000
00000000
00100000
00000000
00001000
00000000
00010000
00000000
00000100
00001000
00000010
00000000
00000100
00000000
00000001
00000000
,  // measure 36
00000010
00000000
00001000
00000000
00010000
00001000
00010000
00001000
00000100
00000000
00001000
00000000
00010000
00000000
01000000
00000000
,  // measure 37
10000000
00000000
00100000
00000000
10000000
00000000
00010000
00000000
00100000
01000000
10000000
00000000
01000000
00000000
00010000
00000000
,  // measure 38
00001000
00000000
00000100
00000000
00000001
00000010
00001000
00010000
00001000
00000000
00010000
00000000
00200000
00000000
00000000
00000000
,  // measure 39
10000000
00000000
00000000
00000000
00000000
00000000
00000000
00000000
01000000
00000000
00300000
00000000
00010000
00100000
01000000
10000000
,  // measure 40
00010000
00000000
01000000
00000000
00100000
00010000
00001000
00010000
00001000
00000010
00000001
00000000
00002002
00000000
00000000
00000000
,  // measure 41
00000000
00000000
00000000
00003003
00000100
00000000
00000010
00000000
00001000
00010000
00100000
00000000
10000000
00000000
00010000
00000000
,  // measure 42
01000000
00100000
10000000
00000000
00010000
01000000
00100000
00000000
10000000
00000000
01000000
00000000
00010000
00001000
00000100
00000000
,  // measure 43
00000001
00000100
00000010
00001000
00000100
00000000
00000010
00000000
00000001
00001000
00000010
00000000
00000100
00000000
00001000
00000000
,  // measure 44
00010000
01000000
10000000
00000000
00010000
01000000
00100000
00000000
10000000
01000000
10000000
01000000
10000000
00000000
00010000
00100000
,  // measure 45
00010000
00100000
00010000
00000000
01000000
00000000
00001000
00000000
00010000
00000000
00000100
00000000
00000010
00000000
00000001
00000000
,  // measure 46
00000100
00001000
00010000
00001000
00010000
00000000
01000000
00000000
10000000
00000000
00100000
00000000
00010000
00001000
00010000
00001000
,  // measure 47
00000100
00000000
00000001
00000000
00000010
00000000
00000100
00000000
00010000
00000000
00001000
00000000
01000000
00100000
01000000
00100000
,  // measure 48
00010000
00000000
00001000
00010000
01000000
00000000
10000000
01000000
00010000
00000000
00001000
00010000
00000010
00001000
00000010
00000100
,  // measure 49
00000001
00000010
00000100
00001000
00000010
00000000
00010000
00000000
00001000
00000000
01000000
00000000
00100000
00000000
10000000
00100000
,  // measure 50
00010000
00100000
00010000
00000000
00001000
00000000
00010000
00000000
01000000
00000000
00010000
00000000
00001000
00000000
00000010
00000001
,  // measure 51
00000010
00000001
00000100
00000000
00001000
00000000
00010000
00000000
00001000
00000100
00000001
00000000
00000010
00000000
00000100
00000000
,  // measure 52
00010000
00001000
01000000
00000000
00100000
00000000
10000000
00000000
00100000
01000000
00010000
00000000
00100000
01000000
10000000
00000000
,  // measure 53
10010000
00000000
00110000
00000000
00100000
00001000
00010000
00001000
00000100
00000001
00000100
00000010
00001000
00000100
00001000
00000100
,  // measure 54
00000010
00001000
00010000
00001000
01000000
00100000
01000000
00010000
01000000
00010000
10000000
01000000
00010000
00001000
00010000
00001000
,  // measure 55
00000100
00000001
00001000
00000100
00000010
00000001
00001000
00000010
00000100
00001000
00010000
00001000
01000000
00100000
10000000
01000000
,  // measure 56
00010000
01000000
10000000
00010000
00100000
00001000
00010000
00000010
00000100
00000000
00000001
00000010
00000100
00001000
00000100
00010000
,  // measure 57
00001000
01000000
00010000
00100000
20020000
00000000
00000000
00000000
00000000
00000000
00000000
00000000
00000000
00000000
00000000
00000000
,  // measure 58
00000000
30030000
00000000
00000000
;
