#TITLE:Pika Girl;
#SUBTITLE:;
#ARTIST:S3RL;
#TITLETRANSLIT:;
#SUBTITLETRANSLIT:;
#ARTISTTRANSLIT:;
#CREDIT:owenviau1;
#BANNER:../owenviau1 Simfiles 5-bn.png;
#BACKGROUND:../owenviau1 Simfiles 5-bg.png;
#LYRICSPATH:;
#CDTITLE:../ov1_title.png;
#MUSIC:Pika Girl - S3RL.mp3;
#OFFSET:-1.056;
#SAMPLESTART:28.138;
#SAMPLELENGTH:29.999;
#SELECTABLE:YES;
#DISPLAYBPM:175.000;
#BPMS:0.000=175.000,10.000=155.583,11.000=93.551,12.000=57.419,13.000=175.000;
#STOPS:;
#BGCHANGES:;
// cache tags:
#FIRSTBEAT:0.000;
#LASTBEAT:638.000;
#SONGFILENAME:Songs/owenviau1 Simfiles 5/Pika Girl - [owenviau1] v1.3/Pika Girl.sm;
#HASMUSIC:1;
#HASBANNER:1;
#MUSICLENGTH:220.786;
// end cache tags

//---------------dance-single - ----------------
#NOTES:
     dance-single:
     :
     Hard:
     9:
     0.835,0.756,0.054,0.390,0.020,1192.000,12.000,86.000,10.000,1.000:
0001
0010
0100
1000
0010
0100
0001
1000
,
0001
0010
0001
1000
0010
0100
0001
0010
,
0100
1000
0010
0100
0001
1000
0100
0010
,
0002
0000
0000
0000
0000
2003
3200
0000
0000
0000
0000
0000
0320
0000
0000
0032
0000
0000
0000
0000
0000
0003
0000
0000
,
0000
2000
3020
0000
0032
2003
0000
3000
,
0000
0200
0320
0030
0002
0003
2000
3000
,
0020
0230
0000
0300
0000
0000
0000
2000
,
3200
0320
0032
0000
2003
3020
0000
0030
,
0200
0302
0023
0000
0230
2300
0000
3000
,
0000
0002
0023
0030
0200
0300
2000
3000
,
0002
0203
0000
0300
0000
0000
0000
2000
,
3002
2003
3010
0001
1000
0001
0100
0001
,
1000
0010
0100
0001
1000
0100
1000
0010
,
0100
0001
0010
0100
1000
0010
0100
0001
,
1000
0001
0010
0001
0100
0010
1000
0100
,
1000
0010
0100
0001
0010
0100
1000
0010
,
0100
0001
1000
0001
0010
0001
1000
0010
,
0100
0001
0010
0100
1000
0010
1000
0001
,
0010
0000
0000
0000
0100
0000
0000
0000
2000
0000
3000
0000
0002
0000
0003
0000
0200
0000
0000
0000
0000
0300
0000
0000
0020
0000
0000
0000
0000
0000
0000
0000
,
0130
0001
1001
0100
0010
0001
0100
0010
,
1000
0001
0100
0001
0010
0100
1000
0010
,
1000
0100
0010
0001
0010
0100
1000
0001
,
0100
0010
1000
0100
0010
0001
0100
0010
,
1000
0100
1000
0010
0100
0001
0010
0001
,
1000
0010
0100
0001
0010
0100
1000
0010
,
1000
0001
0010
0001
0100
0010
0100
0001
,
1000
0010
0100
0010
1000
0001
0100
0010
,
1000
0100
0010
0001
0100
0010
1000
0100
,
1000
0001
0010
0100
1000
0010
0100
0001
,
0010
0001
1000
0100
1000
0010
0100
0010
,
1000
0001
1000
0010
0100
0001
1000
0100
,
0010
0001
0100
0010
1000
0100
1000
0010
,
0100
0001
0010
0100
1000
0010
0100
0001
,
0010
0000
0200
0000
2300
0000
3000
0000
0002
0003
0200
0000
0300
0000
0020
0000
,
0030
2000
3000
0020
0000
0000
0000
0000
,
0000
0000
0030
0000
0200
0000
0000
0300
0200
0000
0000
0300
0002
0000
2003
0000
,
3020
0000
0131
0100
0001
1000
0001
0010
,
0100
1000
0001
0100
0010
1000
0010
0001
,
0100
0010
1000
0010
0001
1000
0010
0100
,
0001
0010
0100
1000
0001
0100
0010
1000
,
0100
0010
0001
0100
0010
1000
0100
1000
,
0010
0100
0001
0010
0100
1000
0010
0100
,
0001
1000
0001
0010
0001
0100
0010
1000
,
0100
0010
0002
0000
0000
0000
0000
0000
,
2003
0000
3010
0001
0010
0100
0001
1000
,
0001
0100
0010
1000
0100
1000
0001
0010
,
0001
1000
0010
0100
0001
0010
0100
1000
,
0010
1000
0100
0010
0001
0010
0100
1000
,
0010
0100
0001
1000
0001
0100
0010
1000
,
0100
1000
0001
0100
0010
1000
0100
0010
,
0001
0100
0001
0010
0100
1000
0010
0100
,
0001
0010
0100
1000
0010
1000
0001
0100
,
0010
1000
0101
0001
0010
0001
1000
0010
,
0100
0001
1000
0001
0100
0001
0010
0100
,
1000
0010
1000
0001
0100
0010
1000
0100
,
0010
0001
1000
0001
0010
0100
1000
0010
,
0100
0001
0010
0001
0100
0010
1000
0001
,
1000
0100
1000
0010
0100
0001
0010
0100
,
1000
0010
0100
0001
0010
0001
1000
0010
,
0100
0001
2000
3100
0020
0031
2000
0000
,
3010
0001
1001
0100
0010
0001
0100
0010
,
1000
0001
0100
0001
0010
0100
1000
0010
,
1000
0100
0010
0001
0010
0100
1000
0001
,
0100
0010
1000
0100
0010
0001
0100
0010
,
1000
0100
1000
0010
0100
0001
0010
0001
,
1000
0010
0100
0001
0010
0100
1000
0010
,
1000
0001
0010
0001
0100
0010
0100
0001
,
1000
0010
0100
0010
1000
0001
0100
0010
,
1000
0100
0010
0001
0100
0010
1000
0100
,
1000
0001
0010
0100
1000
0010
0100
0001
,
0010
0001
1000
0100
1000
0010
0100
0010
,
1000
0000
0001
0000
1000
0000
0010
0000
0100
0000
0001
0000
1000
0001
1000
0001
,
1000
0001
0100
0010
1000
0100
1000
0010
,
0100
0001
0010
0100
1000
0010
0100
0001
,
0010
0000
0200
0000
2300
0000
3000
0000
0002
0003
0200
0000
0300
0000
0020
0000
,
0030
0000
2000
0000
3000
0000
0000
0000
0020
0000
0030
0000
0002
0000
0000
0003
,
0000
0000
0010
0100
1000
0010
0100
0001
,
1000
0100
0010
0001
0010
0100
1000
0010
,
0100
0001
1000
0001
0100
0010
1000
0100
,
0010
0001
0100
0010
1000
0001
1000
0100
,
1000
0010
0100
0001
0010
0100
1000
0010
,
0100
0001
1000
0001
0010
0001
1000
0010
,
0100
0001
0010
0100
1000
0010
1000
0001
,
0010
0100
1000
0010
0100
0001
1000
0001
,
0010
0001
0100
0010
1000
0100
1000
0001
,
0100
0010
1000
0100
0010
0001
0100
0020
,
0000
0000
1030
0001
0100
0001
0010
0100
,
1000
0010
0100
0001
1000
0100
0010
0001
,
1000
0010
1001
0001
0010
0001
1000
0100
,
1000
0010
0100
0001
1000
0001
0010
0001
,
0100
0010
1000
0100
1000
0001
0100
0010
,
1000
0100
0010
0001
0100
0001
1000
0100
,
0010
0001
0010
0100
1000
0010
0100
0001
,
1000
0001
0010
0001
0100
0010
1000
0100
,
1000
0001
0100
0010
1000
0100
0010
0001
,
0100
0001
2000
3200
0320
0030
0002
0000
,
0103
0010
1001
0100
0010
1000
0100
0010
,
0001
0100
0001
0010
0100
1000
0100
0010
,
0001
0100
1000
0010
0001
0010
1000
0100
,
0001
0100
1000
0010
0100
0001
1000
0010
,
0001
0100
0001
1000
0001
0010
0100
1000
,
0010
0100
0001
0010
1000
0010
0100
0001
,
0010
0100
1000
0100
0010
0001
0100
0001
,
0010
0100
1000
0001
0100
0010
0001
0010
,
0100
1000
1001
0001
0100
0001
0010
0100
,
1000
0001
0100
0010
1000
0001
0010
0001
,
0100
0001
1000
0100
0010
0001
0010
0100
,
1000
0010
0100
0001
1000
0002
0203
0310
,
1000
0001
0010
0100
1000
0010
0100
0001
,
1000
0001
0010
0001
0100
0010
1000
0001
,
0010
0100
2000
3000
0002
0203
0300
0020
,
0030
0000
2000
0000
3002
0000
0000
0003
0002
0000
0000
0003
0002
0000
2003
0000
,
3020
0000
0000
0000
0030
0000
0000
0000
1MM1
0MM0
0MM0
0MM0
1MM0
0000
0000
0000
0001
0000
0000
0000
0100
0000
0000
0000
0010
0000
0000
0000
0100
0000
0000
0000
,
0001
0010
0100
1000
0010
0100
0001
1000
,
0001
0010
0001
1000
0010
0100
0001
0010
,
0100
1000
0010
0100
0001
1000
0001
0010
,
0001
0100
0010
1000
0100
1000
0010
0100
,
0001
0010
0100
1000
0010
0100
0001
1000
,
0001
0010
0001
0100
0010
1000
0001
0010
,
0100
0000
1000
0000
0000
0000
0010
0000
0000
0000
0100
0000
0000
0001
0000
0010
,
0100
1000
0001
0000
1001
0000
0001
0000
1000
0000
0010
0000
0100
0000
0001
0000
,
0010
0100
1000
0010
1000
0001
0100
0001
,
1000
0010
0100
0001
0010
0100
1000
0010
,
0100
0001
0010
0001
0100
0010
1000
0001
,
1000
0100
1000
0010
0100
0001
1000
0001
,
0010
0001
1000
0010
0100
0001
0010
0100
,
1000
0010
0100
0001
1000
0001
0010
0001
,
0100
0010
2000
0000
0000
0000
0000
0000
,
3002
0003
1001
1000
0010
0100
0001
1000
,
0100
0010
0001
1000
0100
1000
0001
0010
,
0001
1000
0010
0100
0001
0010
0100
1000
,
0010
1000
0100
0010
0001
0010
0100
1000
,
0010
0100
0001
1000
0001
0100
0010
1000
,
0100
1000
0001
0100
0010
1000
0100
0010
,
0001
0100
0001
0010
0100
1000
0010
0100
,
0001
0010
0100
1000
0010
1000
0001
0100
,
0010
1000
0101
0001
0010
0001
1000
0010
,
0100
0001
1000
0001
0100
0001
0010
0100
,
1000
0010
1000
0001
0100
0010
1000
0100
,
0010
0001
1000
0001
0010
0100
1000
0010
,
0100
0001
0010
0001
0100
0010
1000
0001
,
1000
0100
1000
0010
0100
0001
0010
0100
,
1000
0010
0100
0001
0010
0001
1000
0010
,
0100
0001
2000
3100
0020
0031
2000
0000
,
3010
0001
1001
0100
0010
0001
0100
0010
,
1000
0001
0100
0001
0010
0100
1000
0010
,
1000
0100
0010
0001
0010
0100
1000
0001
,
0100
0010
1000
0100
0010
0001
0100
0010
,
1000
0100
1000
0010
0100
0001
0010
0001
,
1000
0010
0100
0001
0010
0100
1000
0010
,
1000
0001
0010
0001
0100
0010
0100
0001
,
1000
0010
0100
0010
1000
0001
0100
0010
,
1000
0100
0010
0001
0100
0010
1000
0100
,
1000
0001
0010
0100
1000
0010
0100
0001
,
0010
0001
1000
0100
1000
0010
0100
0010
,
1000
0001
1000
0010
0100
0001
1000
0001
,
0010
0100
1000
0010
0100
0001
1000
0001
,
0010
0100
0010
0001
1000
0001
0010
0001
,
0100
0010
1000
0000
0001
1000
0000
0010
,
0000
0000
0000
0000
;

//---------------dance-single - ----------------
#NOTES:
     dance-single:
     :
     Challenge:
     12:
     1.000,1.000,1.000,0.390,0.032,1207.000,505.000,86.000,5.000,10.000:
1001
0010
1100
0001
0110
1000
1001
0010
,
1100
0010
0101
1000
0101
0100
1001
0010
,
1100
0001
1001
0010
0110
1000
0101
1000
,
0021
0000
0000
0000
0000
2030
3200
0000
0000
0000
0000
0000
0320
0000
0000
0032
0000
0000
0000
0000
0000
0003
0000
0000
,
0000
2000
3020
0000
0032
2003
0000
3000
,
0000
0200
0320
0030
0002
0003
2000
3000
,
0020
0230
0000
0300
0000
0000
0000
2000
,
3200
0320
0032
0000
2003
3020
0000
0030
,
0200
0302
0023
0000
0230
2300
0000
3000
,
0000
0002
0023
0030
0200
0300
2000
3000
,
0002
0203
0000
0300
0000
0000
0000
2000
,
3002
2003
3110
0001
1100
0010
0101
1000
,
0110
0100
1001
0010
0011
0001
0110
1000
,
1100
0010
1001
0010
0101
1000
0110
0001
,
1100
0010
0101
1000
0110
0001
1001
0010
,
0101
1000
0011
1000
0110
0001
1100
1000
,
0110
0100
0011
1000
0101
0001
1010
1000
,
0110
0010
1001
0101
0110
1010
0110
0101
,
1001
0000
0110
0000
2002
3003
2002
3003
2002
0000
0000
0000
3223
0000
0000
0000
,
1330
0100
1001
1000
0110
0001
1100
0010
,
0101
1000
0110
0010
1001
1000
0101
0100
,
0011
0001
1100
0010
1001
1000
0110
0001
,
1100
0010
0101
1000
0110
0001
1100
0010
,
1001
1000
0110
0010
1001
1000
0101
0010
,
1001
0100
0011
0001
1100
0010
0011
1000
,
0101
0001
1010
0100
0101
0010
1001
1000
,
0110
0001
1100
1000
0011
0010
0101
1000
,
1001
0001
0110
1000
1100
0010
0101
1000
,
1010
0100
0101
0010
1100
0001
0110
1000
,
1001
0010
1100
1000
0011
0100
1001
0010
,
0110
1000
0101
0001
1010
0100
1100
0010
,
0011
1000
1001
0010
0110
0001
1010
1000
,
0101
0010
1001
1000
0101
0010
0101
1000
,
0110
0010
1001
0000
1000
1010
0000
0110
,
0000
1001
0000
2000
0000
0000
0000
0000
,
0000
0000
0000
0000
3000
0000
0000
0000
0020
0030
0000
0000
0000
0000
0000
0000
0020
0030
0000
0000
0000
0000
0000
0000
0020
0030
0000
0000
2000
3000
0000
0000
,
0200
0000
1301
1000
0110
0001
0011
1000
,
1100
0010
1001
0100
1010
0001
0101
1000
,
0110
0001
1001
0100
0011
1000
0110
0001
,
1100
0010
1001
0100
1010
0001
0101
1000
,
0011
0100
1001
1000
0110
0001
1100
0010
,
0101
1000
0110
0010
1001
1000
0101
0010
,
1001
0100
0110
1001
1100
0110
0011
0101
,
1010
0101
2000
0000
0000
0000
0000
0000
,
3020
0030
1001
1000
0110
0001
1100
0010
,
0101
1000
0110
0010
1001
1000
0101
0100
,
0011
0001
1100
0010
1001
1000
0110
0001
,
1100
0010
0101
1000
0110
0001
1100
0010
,
1001
1000
0110
0010
1001
1000
0101
0010
,
1001
0100
0011
0001
1100
0010
0011
1000
,
0101
0001
1010
0100
0101
0010
1001
1000
,
0110
0001
1100
1000
0011
0010
0101
1000
,
1001
0101
0110
1000
1100
0010
0101
1000
,
1010
0100
0101
0010
1100
0001
0110
1000
,
1001
0010
1100
1000
0011
0100
1001
0010
,
0110
1000
0101
0001
1010
0100
1100
0010
,
0011
1000
1001
0010
0110
0001
1010
1000
,
0101
0010
1001
1000
0101
0010
0101
1000
,
0110
0010
1001
0100
0011
1000
0110
0100
,
1001
0000
0010
0000
2200
3300
1000
0000
0220
0330
0001
0000
0022
0000
1033
0000
,
0101
0010
1100
0010
1001
1000
0110
0001
,
1100
0010
0101
1000
0110
0010
1001
1000
,
0101
0100
0011
0001
1100
0010
1001
1000
,
0110
0001
1100
0010
0101
1000
0110
0001
,
1100
0010
1001
1000
0110
0010
1001
1000
,
0101
0010
1001
0100
0011
0001
1100
0010
,
0011
1000
0101
0001
1010
0100
0101
0010
,
1001
1000
0110
0001
1100
1000
0011
0010
,
1100
0010
0101
0010
1000
0100
0010
0001
,
0100
0001
0010
0100
1000
0001
0100
0010
,
1000
0100
1010
0101
1001
0110
1010
1001
,
0110
0000
1001
0000
0011
0000
0110
0000
1001
0000
1010
0000
0001
0010
0100
1000
,
0001
0010
1001
0010
0110
0001
1010
1000
,
0101
0010
1001
1000
0101
0010
0101
1000
,
0110
0010
1001
0000
0100
1001
0000
0101
,
0000
1010
0000
0000
2000
3000
0020
0000
,
0000
0030
1000
0100
1000
0010
0100
0001
,
0010
0100
1000
0010
0100
0001
0010
0100
,
1000
0010
1000
0100
0010
0001
0100
0001
,
0010
0100
1000
0010
0100
0001
1000
0001
,
0010
0100
1001
0010
0100
0001
0010
1100
,
0100
0010
1001
1000
0010
0101
1000
0100
,
0010
0001
0110
1000
0001
0100
0010
1010
,
0100
0010
1001
1000
0010
0101
1000
0100
,
0010
0001
1010
0001
0100
1000
0010
1001
,
0100
0010
0101
1000
0001
0110
1000
0100
,
0010
0001
1010
0100
1001
0010
1100
0010
,
1001
0010
0101
1010
0110
0011
1100
0010
,
0001
0100
1001
1000
0101
0010
0110
1000
,
1010
0001
1001
0100
0101
0010
0110
1000
,
1001
0010
1100
0001
0011
1000
0110
0001
,
1100
0010
0101
1000
0110
0001
1001
0100
,
1100
0010
0101
1000
0110
0100
1001
0010
,
0101
1000
1010
0010
1100
0001
0110
0100
,
1001
0001
0110
1000
0101
0010
1001
0001
,
0110
0000
0100
0000
2002
3003
2002
3003
2002
0000
0000
0000
3223
0000
0000
0000
,
1330
0100
1001
0100
0010
1000
0100
0010
,
0001
0100
0001
0010
0100
1000
0100
0010
,
0001
0100
1000
0010
0001
0010
1000
0100
,
0001
0100
1000
0010
0100
0001
1000
0010
,
0001
0100
0001
1000
0001
0010
0100
1000
,
0010
0100
0001
0010
1000
0010
0100
0001
,
0010
0100
1000
0100
0010
0001
0100
0001
,
0010
0100
1000
0010
0100
0001
1000
0001
,
0010
0100
1001
0100
0010
0001
0010
0100
,
1000
0001
0100
0010
1000
0001
0010
0001
,
0100
0001
1000
0100
0010
0001
0010
0100
,
1000
0010
0100
0001
1000
0002
0203
0310
,
1000
0001
0110
1000
0101
0010
1100
0001
,
0110
0001
1001
0010
1100
0001
0110
1000
,
0101
0010
1001
0100
0010
1001
0000
0101
,
0000
0000
0000
0000
0220
0000
0000
0000
0332
0003
0000
0000
0000
0000
0000
0000
0002
0003
0000
0000
0000
0000
0000
0000
0002
0003
0000
0000
2000
3000
0000
0000
,
0020
0000
0000
0000
0000
0000
0000
0000
1M31
0M00
0M00
0M00
0M10
0000
0000
0000
0100
0000
0000
0000
0001
0000
0000
0000
0010
0000
0000
0000
1100
0000
0000
0000
,
0100
0010
1001
1000
0010
0101
1000
0100
,
0010
0001
0110
1000
0001
0100
0010
1010
,
0100
0010
1001
1000
0010
0101
1000
0100
,
0010
0001
1010
0001
0100
1000
0010
1001
,
0100
0010
0101
1000
0001
0110
1000
0100
,
0001
0100
1001
1000
0001
0100
0010
1001
,
1000
0010
0101
1000
0001
1010
0110
1001
,
0101
0010
1001
0010
0101
0010
1100
0010
,
1001
0010
0101
1000
0110
0001
1100
0010
,
1001
0100
1001
1000
0101
0010
0110
1000
,
1010
0001
1001
0100
0101
0010
0110
1000
,
0101
0100
0011
0100
1001
0110
1100
0110
,
0011
0101
0110
1010
1001
0101
0110
1001
,
0110
0000
0101
0000
1000
0010
0100
0001
0100
0010
1000
0100
0010
0001
0100
0010
,
1000
0001
0100
0010
2000
0000
0000
0000
0000
0000
0000
0000
0000
0000
0000
0000
,
3020
0030
1001
1000
0110
0001
1100
0010
,
0101
1000
0110
0010
1001
1000
0101
0100
,
0011
0001
1100
0010
1001
1000
0110
0001
,
1100
0010
0101
1000
0110
0001
1100
0010
,
1001
1000
0110
0010
1001
1000
0101
0010
,
1001
0100
0011
0001
1100
0010
0011
1000
,
0101
0001
1010
0100
0101
0010
1001
1000
,
0110
0001
1100
1000
0011
0010
0101
1000
,
1001
0001
0110
1000
1100
0010
0101
1000
,
1010
0100
0101
0010
1100
0001
0110
1000
,
1001
0010
1100
1000
0011
0100
1001
0010
,
0110
1000
0101
0001
1010
0100
1100
0010
,
0011
1000
1001
0010
0110
0001
1010
1000
,
0101
0010
1001
1000
0101
0010
0101
1000
,
0110
0010
1001
0100
0110
0010
0101
1000
,
0110
0000
0001
0000
2020
3030
0100
0000
0202
0303
0010
0000
2002
0000
3103
0000
,
1000
0010
1001
1000
0110
0001
1100
0010
,
0101
1000
0110
0010
1001
1000
0101
0100
,
0011
0001
1100
0010
1001
1000
0110
0001
,
1100
0010
0101
1000
0110
0001
1100
0010
,
1001
1000
0110
0010
1001
1000
0101
0010
,
1001
0100
0011
0001
1100
0010
0011
1000
,
0101
0001
1010
0100
0101
0010
1001
1000
,
0110
0001
1100
1000
0011
0010
0101
1000
,
1001
0001
0110
1000
1100
0010
0101
1000
,
1010
0100
0101
0010
1100
0001
0110
1000
,
1001
0010
1100
1000
0011
0100
1001
0010
,
0110
1000
0101
0001
1010
0100
1100
0010
,
0011
1000
0101
0010
0110
0001
1010
0100
,
1001
0010
0101
0100
1001
0100
0011
0001
,
1010
0110
1001
0000
0110
0101
0000
0110
,
0000
2002
0000
0000
3003
0000
0000
0000
;
