#TITLE:Dreamland;
#SUBTITLE:;
#ARTIST:Adrian Sutton;
#TITLETRANSLIT:;
#SUBTITLETRANSLIT:;
#ARTISTTRANSLIT:;
#CREDIT:;
#BANNER:Dreamland-BN.png;
#BACKGROUND:Dreamland-BG.png;
#LYRICSPATH:;
#CDTITLE:mmuffy.png;
#MUSIC:Dreamland.mp3;
#OFFSET:-0.145;
#SAMPLESTART:45.160;
#SAMPLELENGTH:13.500;
#SELECTABLE:YES;
#BPMS:0.000=96.000;
#STOPS:;
#BGCHANGES:;
// cache tags:
#FIRSTBEAT:8.000;
#LASTBEAT:209.000;
#SONGFILENAME:Songs/toune/Dreamland - Adrian Sutton/Dreamland.sm;
#HASMUSIC:1;
#HASBANNER:1;
#MUSICLENGTH:132.712;
// end cache tags

//---------------dance-single - ----------------
#NOTES:
     dance-single:
     :
     Medium:
     5:
     0.322,0.372,0.090,0.392,0.000,235.000,12.000,52.000,0.000,0.000:  // measure 1
0000
0000
0000
0000
,  // measure 2
0000
0000
0000
0000
,  // measure 3
0020
0000
0000
0130
0000
0000
0000
0000
,  // measure 4
2000
0000
0000
3100
0000
0000
0000
0000
,  // measure 5
0200
0000
0000
0301
0000
0000
0000
0000
,  // measure 6
0020
0000
0000
0031
0000
0000
0000
0000
,  // measure 7
1000
0000
0000
0100
0000
0000
0000
0000
,  // measure 8
0001
0000
0000
1000
0000
0000
0100
0000
,  // measure 9
0010
0000
0000
0001
0000
0000
0000
0000
,  // measure 10
0100
0000
0000
1000
0000
0000
0001
0000
,  // measure 11
2000
0000
3020
0230
,  // measure 12
0301
0000
0200
2300
,  // measure 13
3010
1020
0100
0130
,  // measure 14
0000
0002
2003
3100
,  // measure 15
0020
0000
2030
3100
,  // measure 16
0100
0000
1000
0001
,  // measure 17
0010
2002
3000
0203
,  // measure 18
0000
0302
0023
0030
,  // measure 19
0101
0000
0100
0000
0001
1000
0000
0001
,  // measure 20
1000
0000
0100
0000
1000
0001
0000
0100
,  // measure 21
0002
0000
0100
0000
0013
0001
0000
0001
,  // measure 22
1000
0000
0100
0000
0001
0100
0000
1000
,  // measure 23
0001
0000
0100
0000
0100
0001
0000
0001
,  // measure 24
1000
0000
0100
0000
0010
1000
0000
0001
,  // measure 25
0200
0000
0001
0000
0310
0000
1000
0001
,  // measure 26
2000
0000
3001
0000
0001
1000
0000
1000
,  // measure 27
0002
0000
1003
0000
0001
0010
0001
0001
,  // measure 28
1000
0010
0010
0000
0010
1000
0020
0100
,  // measure 29
0130
0000
0001
0000
1000
0010
1000
1000
,  // measure 30
2000
0010
3010
0000
0100
0001
0000
0100
,  // measure 31
0002
0100
0103
0000
1000
0010
0200
0010
,  // measure 32
0310
0000
0100
0000
0001
1000
0000
1000
,  // measure 33
2010
0000
3002
0000
1003
0001
0000
0001
,  // measure 34
2000
0010
3010
0000
0002
1000
0000
1003
,  // measure 35
0100
1000
0020
0000
1030
0010
0000
0010
,  // measure 36
1000
0000
0100
0000
0020
0100
0030
0010
,  // measure 37
2001
0000
3100
1000
0000
1000
0000
0010
,  // measure 38
0001
0010
0200
0000
1300
0100
0000
0010
,  // measure 39
0001
1000
0100
0010
0002
1000
0003
1000
,  // measure 40
0001
0000
0010
0000
0100
1001
0000
0100
,  // measure 41
1002
0000
0103
0000
0010
0001
0000
0100
,  // measure 42
0001
1000
0010
0100
0001
1000
0000
0100
,  // measure 43
0001
1000
0010
1000
2020
0000
3030
0100
,  // measure 44
0020
0100
0130
0000
0100
0010
0000
0010
,  // measure 45
0100
0100
0001
0000
1000
0001
2000
0100
,  // measure 46
3200
0300
1001
0000
0100
0010
0000
0010
,  // measure 47
1000
0000
2010
0000
3001
1000
0000
1000
,  // measure 48
0001
0010
0100
2000
0000
3001
0000
1000
,  // measure 49
0001
0100
0010
2000
0001
3001
0000
0100
,  // measure 50
0020
0100
0130
0200
0001
0301
0000
1000
,  // measure 51
1002
0100
0103
0200
0000
0310
0000
1000
,  // measure 52
0002
0000
0203
0000
0000
0002
0000
0303
,  // measure 53
0101
0000
0000
0000
;

//---------------dance-single - ----------------
#NOTES:
     dance-single:
     :
     Easy:
     4:
     0.270,0.294,0.060,0.407,0.000,189.000,8.000,54.000,0.000,0.000:  // measure 1
0000
0000
0000
0000
,  // measure 2
0000
0000
0000
0000
,  // measure 3
0020
0000
0000
0130
0000
0000
0000
0000
,  // measure 4
2000
0000
0000
3100
0000
0000
0000
0000
,  // measure 5
0200
0000
0000
1300
0000
0000
0000
0000
,  // measure 6
0020
0000
0000
0031
0000
0000
0000
0000
,  // measure 7
2000
0000
0000
0100
0000
0000
0000
0000
,  // measure 8
3002
0000
0000
1000
0000
0000
0000
0000
,  // measure 9
0023
0000
0000
0001
0000
0000
0000
0000
,  // measure 10
0230
0000
0000
1000
0000
0000
0000
0000
,  // measure 11
2300
0000
3010
0001
,  // measure 12
0100
0000
0100
0001
,  // measure 13
1000
0020
1000
0130
,  // measure 14
0000
0100
0002
2003
,  // measure 15
3020
0000
1030
0002
,  // measure 16
0200
0303
0100
0001
,  // measure 17
1000
0020
0000
0230
,  // measure 18
0300
0100
0020
0030
,  // measure 19
1001
0000
0100
0000
0000
1000
0000
0000
,  // measure 20
0010
0000
0100
0000
0000
0001
0000
0000
,  // measure 21
0002
0000
0100
0000
0000
1003
0000
0000
,  // measure 22
2000
0000
0100
0000
0000
3100
0000
0000
,  // measure 23
0001
0000
0100
0000
0001
1000
0000
0000
,  // measure 24
1000
0000
0100
0000
1000
0100
0000
0000
,  // measure 25
0200
0001
0310
2000
,  // measure 26
3001
0000
0001
0000
1000
0001
0000
0000
,  // measure 27
0002
0000
1003
0000
0002
0000
1003
0001
,  // measure 28
1000
0001
1000
0000
0010
1000
0020
0000
,  // measure 29
0130
0000
0001
0000
1000
0010
1000
0010
,  // measure 30
2000
0000
3010
0000
0100
0001
0000
0100
,  // measure 31
0002
0000
0103
0000
1000
0010
0200
0000
,  // measure 32
0310
0100
0010
0000
0001
1000
0000
0001
,  // measure 33
2000
0000
3020
0000
1030
0001
0000
0000
,  // measure 34
2000
0000
3010
0000
0002
1000
0000
1003
,  // measure 35
0001
1000
0000
0010
1000
0020
0000
0000
,  // measure 36
1030
0000
0100
0000
0010
0100
0000
0010
,  // measure 37
0200
0000
0301
1000
0000
2000
0000
0000
,  // measure 38
3010
1000
0200
0000
1300
0100
0000
0010
,  // measure 39
0002
0000
0203
0000
0310
1000
0000
0000
,  // measure 40
0020
0000
0130
0000
0100
0010
0000
0010
,  // measure 41
2000
3100
2010
3200
,  // measure 42
2300
0000
3010
0000
0001
1000
0000
0100
,  // measure 43
0001
1000
0001
0000
2000
0000
3000
0000
,  // measure 44
0100
0000
0110
0000
0100
0010
0000
0000
,  // measure 45
0210
0000
0301
0000
1000
0001
0000
0001
,  // measure 46
0100
0000
1001
0000
0001
1000
0000
0000
,  // measure 47
2010
0000
3010
0000
0001
2000
3000
0000
,  // measure 48
2010
0000
0000
3001
0000
0001
0000
1000
,  // measure 49
0020
0000
0000
1030
0000
0001
0000
0100
,  // measure 50
0002
0000
0000
0103
0000
0001
0000
1000
,  // measure 51
0200
0000
0000
0310
0000
0010
0000
1000
,  // measure 52
0002
0000
0203
0000
0000
0002
0000
0303
,  // measure 53
0101
0000
0000
0000
;

//---------------dance-single - ----------------
#NOTES:
     dance-single:
     :
     Hard:
     8:
     0.475,0.433,0.211,0.445,0.181,354.000,28.000,59.000,0.000,0.000:  // measure 1
0000
0000
0000
0000
,  // measure 2
0000
0000
0000
0000
,  // measure 3
0020
1000
1000
0032
0000
0000
0000
0000
,  // measure 4
0023
0001
0001
0230
0000
0000
0000
0000
,  // measure 5
2300
0100
0001
3020
0000
0000
0000
0000
,  // measure 6
2030
0001
0010
3002
0000
0000
0000
0000
,  // measure 7
1003
0100
0010
0100
1000
0010
0001
0100
,  // measure 8
1000
0001
0010
0100
0010
0001
0100
1000
,  // measure 9
0010
0001
1000
0001
0010
0100
1000
0010
,  // measure 10
0100
0001
0010
1000
0100
0010
0001
0001
,  // measure 11
2001
0000
0000
0000
0000
0000
0010
0000
3010
1000
0010
1000
0200
0000
0000
0000
,  // measure 12
2300
0000
0000
3001
0200
0001
0310
1000
,  // measure 13
0020
0000
0000
0000
1030
0010
1000
0100
2000
0000
0000
0000
3200
0000
0000
0000
,  // measure 14
0000
1300
0002
0100
2003
0001
3100
0000
,  // measure 15
2020
0000
0000
0000
3000
0000
0000
0000
1030
0010
0100
0001
0200
0000
0000
0300
,  // measure 16
0202
0000
0303
0010
1000
0100
0001
1000
,  // measure 17
0010
2002
3000
0203
,  // measure 18
0000
0010
0302
0100
0023
0000
0030
1000
,  // measure 19
0101
0000
0001
0000
0100
0000
0000
0100
0001
0000
1000
0000
0000
0010
0001
0000
,  // measure 20
2000
0000
0001
0000
3100
0000
0000
0010
1000
0000
0001
0000
0000
0001
0100
0000
,  // measure 21
0002
0000
1000
0000
0103
0000
0000
0001
0010
0000
0001
0000
0011
0000
0011
0000
,  // measure 22
2000
0000
0001
0000
3100
0000
0000
1000
0001
0000
0100
0000
0000
0010
1000
0000
,  // measure 23
0001
0000
1000
0000
0100
0000
0000
0001
0100
0000
0001
0000
0000
1000
0001
0000
,  // measure 24
2000
0000
0100
0000
3100
0000
0000
1000
0010
0000
1000
0000
0100
0000
0001
0000
,  // measure 25
1200
0000
0001
0000
0310
0000
1000
0001
,  // measure 26
2000
0000
0010
0000
3001
0000
0000
0100
0001
0000
1000
0000
0000
0000
1000
0000
,  // measure 27
0002
0000
0010
0000
1003
0000
0000
0010
0001
0000
0010
0000
0001
0000
1100
0000
,  // measure 28
1100
0000
0010
0000
0010
0000
0000
1000
0010
0000
1000
0000
0020
0000
1000
0000
,  // measure 29
0130
0000
0001
0000
0010
0000
0000
0001
1000
0000
0010
0000
1000
0000
1010
0000
,  // measure 30
2001
0000
0010
0000
3010
0000
0000
0010
0100
0000
0001
0000
0000
0001
0100
0000
,  // measure 31
0002
0000
0100
0000
0103
0000
0000
0010
1000
0000
0010
0000
0210
0000
0001
0000
,  // measure 32
0310
0000
1000
0000
0100
0000
0000
1000
0001
0000
1000
0000
0000
0000
1000
0000
,  // measure 33
1010
0000
0100
0000
0102
0000
0000
0000
1003
0000
0001
0000
0000
0010
0001
0000
,  // measure 34
2000
0000
0010
0000
3010
0000
0100
0000
0001
0000
1000
0000
0000
0010
1000
0000
,  // measure 35
0100
1000
0020
0100
1030
0010
0100
0010
,  // measure 36
1000
0000
0001
0000
0101
0000
0000
0100
0010
0000
0100
0000
0000
1000
0010
0000
,  // measure 37
2001
0000
3100
1000
0000
2000
0000
3010
,  // measure 38
0001
0010
0001
1000
0200
0000
0000
0000
1300
0000
0100
0000
0000
0000
0010
0000
,  // measure 39
0001
0000
1000
0000
0100
0000
0010
0000
0002
0000
1000
0000
1003
0001
1000
0001
,  // measure 40
0200
0000
0000
0000
0310
0000
0100
0000
0100
0000
1001
0000
0000
0001
0100
0000
,  // measure 41
1002
0000
0103
0000
0010
0001
2000
0100
,  // measure 42
3001
1000
0001
1000
0001
0000
0100
0000
0001
0000
1000
0000
0000
0001
0100
0000
,  // measure 43
0001
1000
0010
1000
1020
0000
0100
0030
,  // measure 44
1020
0000
0130
0000
0110
0000
0000
0010
0100
0000
0010
0000
0000
0100
0010
0000
,  // measure 45
0100
0100
0001
0010
1000
0001
2000
0100
,  // measure 46
3200
0000
0300
0000
1001
0000
0000
0001
0100
0000
0011
0000
0000
1000
0010
0000
,  // measure 47
1100
0000
2010
0001
3100
1000
0001
0010
,  // measure 48
1001
0000
0010
0000
0100
0000
1000
0010
1000
0000
0001
0000
0000
0001
1000
0000
,  // measure 49
0001
0000
0100
0000
0010
0000
0001
1000
0001
0000
0010
0000
0000
0010
0100
0000
,  // measure 50
0020
0000
1000
0000
0130
0000
0200
0000
0001
0000
0310
0000
0000
0001
1000
0000
,  // measure 51
1002
0000
0100
0000
0103
0000
0100
0001
1000
0000
0010
0000
0000
0001
1000
0000
,  // measure 52
0002
0000
0000
0000
0203
0000
0000
0001
0001
0000
0002
0000
0000
0000
0000
0000
,  // measure 53
0000
0303
0000
0000
;
