#TITLE:Feel The Soul;
#SUBTITLE:(Remix);
#ARTIST:Seo Taiji;
#TITLETRANSLIT:;
#SUBTITLETRANSLIT:;
#ARTISTTRANSLIT:;
#CREDIT:;
#BANNER:Feel The Soul (Remix).png;
#BACKGROUND:Feel The Soul (Remix)-bg.png;
#LYRICSPATH:;
#CDTITLE:NVLM-cdtitle.png;
#MUSIC:Feel The Soul (Remix).mp3;
#OFFSET:-2.336;
#SAMPLESTART:25.287;
#SAMPLELENGTH:12.000;
#SELECTABLE:YES;
#BPMS:0.000=187.000;
#STOPS:;
#BGCHANGES:;
// cache tags:
#FIRSTBEAT:0.000;
#LASTBEAT:223.500;
#SONGFILENAME:Songs/toune 8/Feel The Soul (Remix)/Feel The Soul (Remix).sm;
#HASMUSIC:1;
#HASBANNER:1;
#MUSICLENGTH:73.573;
// end cache tags

//---------------dance-single - ----------------
#NOTES:
     dance-single:
     :
     Hard:
     9:
     0.685,0.682,0.231,0.177,0.027,323.000,17.000,13.000,38.000,1.000:
MM1M
0000
0000
0000
,
0000
0000
0000
0000
M01M
0010
M01M
0010
,
0110
1000
0001
0100
0100
1000
0100
0001
,
0010
0100
1000
0010
0001
0010
0100
0000
,
0100
0001
0010
0001
1000
0100
0001
0100
,
0010
0001
0100
0010
1000
0100
0100
0000
,
0010
0001
0010
1000
0100
0001
0100
0010
,
0001
0100
1000
0001
0100
1000
0010
0000
,
1000
0100
0001
0100
1000
0010
0001
0010
,
2002
00M0
01M0
30M3
,
0110
0000
0001
0100
0010
1000
0100
0000
,
0001
0100
1000
0010
0001
0000
1001
0000
,
MMMM
0000
M00M
0010
0100
0001
1000
0100
,
0001
0001
0100
1000
0010
0100
0002
0MM0
,
1003
0100
1000
1000
0001
0010
0001
0001
,
0100
0010
0100
1000
0100
0001
0010
0100
,
1000
0010
0001
1000
0100
0001
0100
0010
,
1000
0100
0001
0000
M22M
0000
M33M
0000
,
1001
1000
0010
0010
0100
0100
0001
0001
,
1000
0100
0001
0100
0010
0001
0001
0010
,
0100
1000
0100
0001
1000
0100
0001
0010
,
0100
1000
0010
0100
0002
0000
1003
1000
,
0100
0010
0001
0010
1000
0010
0001
0100
,
0010
0100
1000
0100
0100
0001
0010
0001
,
0100
0010
1000
0100
0010
0001
0100
0010
,
M11M
1MM1
MM11
11MM
,
1010
0010
0100
1000
0100
0001
0100
0010
,
1000
0100
1000
0001
0100
1000
0001
0100
,
1000
0001
0100
1000
0001
0100
1000
0010
,
0001
1000
0010
0001
2000
0000
3001
0100
,
0010
1000
0001
0010
1000
0001
0010
1000
,
0001
0010
1000
0100
0001
1000
0100
0001
,
1001
0000
0000
0000
,
M11M
MM11
11MM
1M1M
,
0001
0001
0100
0010
1000
1000
1000
0000
,
0100
0100
0010
0001
1000
1000
1000
0000
,
0010
0010
0100
0001
0001
1000
0100
0000
,
0001
0000
0100
0001
0000
0100
0010
0000
1000
0000
1000
0000
1000
0000
0000
0000
,
0001
0001
0100
0010
0001
1000
0100
0010
,
0000
0001
0100
1000
0100
0010
0001
0100
,
0020
0000
0000
0200
,
0330
0000
0000
0000
1000
1000
1000
1000
,
1001
0001
0100
0010
1000
0100
0001
0100
,
0010
0010
0010
0001
0100
0010
0010
0010
,
1000
1000
0001
0100
1000
0100
0001
0000
,
1000
0000
0010
1000
0000
0010
0100
0000
0001
0000
0001
0000
0001
0000
0000
0000
,
0100
0010
1000
0100
0100
1000
0001
0100
,
0000
0010
1000
0001
0010
0100
1000
0001
,
0200
0000
0000
0000
,
0320
0000
0000
0000
0000
0000
0000
2000
,
0030
0000
0000
0000
0000
0000
0000
0002
,
3000
0000
0000
0000
,
0000
0000
0000
0000
,
0000
0000
0000
0000
,
0000
0000
0000
0000
,
0000
0000
0000
0003
;

//---------------dance-single - ----------------
#NOTES:
     dance-single:
     :
     Challenge:
     13:
     1.000,1.000,0.272,0.163,1.000,493.000,20.000,12.000,113.000,3.000:
MM1M
0000
0000
0000
,
0000
0000
0000
0000
0000
0000
0000
0000
0001
0010
0001
0010
0100
1000
0100
1000
,
0110
0000
0001
0000
1000
0000
0100
0000
0001
1000
0001
1000
0100
0000
0010
0000
,
0001
0000
1000
0000
1000
0000
0010
0000
0100
0001
0010
0100
1000
0000
0001
0100
,
1000
0000
0010
0000
0001
0000
0100
0000
0010
1000
0100
1000
0001
0000
0010
0100
,
1000
0100
0010
0000
0001
0000
0100
0010
1000
0100
0001
0000
0100
0010
0001
0000
,
1000
0000
0010
0000
0100
0000
0001
0000
1000
0100
0001
0100
0010
0001
0100
0000
,
0001
0000
0001
0000
0100
0000
0010
1000
0100
0001
0100
0010
1000
0010
0001
0000
,
0100
0000
0010
0000
1000
0000
1000
0000
0001
0010
0100
1000
0010
0100
0001
0010
,
0100
0100
1000
0010
0001
0010
1000
0100
0100
0010
0001
0100
1000
0100
0010
1000
,
0110
0001
0001
0100
0010
1000
0100
0010
,
0011
0100
1000
0110
0001
1000
0011
1100
,
MMMM
0000
MMMM
0000
MMMM
0000
0010
1000
0100
0000
0001
0010
1000
0000
0100
0010
,
0001
0000
0001
0010
0100
0000
1000
0100
0010
0001
0100
0010
0001
0001
0100
0001
,
1000
0010
010M
0010
100M
0100
100M
0000
0001
0100
M010
0100
M001
0010
M001
0000
,
0100
0000
0010
0000
0100
0000
1000
0000
0100
0010
0001
1000
0010
0000
0100
0000
,
1000
0000
0010
0000
0001
0000
1000
0000
0100
0000
0001
0010
0100
1000
0010
0000
,
1000
0100
0001
0000
M22M
M00M
M00M
M33M
,
0010
0100
0001
0000
1000
0100
0010
0000
0001
0100
1000
0000
0100
0001
0010
0000
,
0100
1000
0001
0000
0100
0010
1000
0000
0010
0100
0001
0000
0010
0100
1000
0000
,
1000
0100
0010
0000
0001
1000
0100
0000
0100
1000
0010
0000
0001
0010
1000
0000
,
0010
0001
0100
0000
0001
1000
0010
0000
0100
1000
0010
0000
2002
0000
0000
0000
,
3103
0010
0001
0010
1000
0010
0001
0100
,
0010
0100
1000
0100
0100
0001
0010
0001
,
0100
0010
1000
0100
0010
0001
0100
0010
,
1MMM
0001
M1M0
0010
1MMM
0001
M1MM
0010
1MMM
0001
M1MM
0010
1MMM
0000
0001
0000
,
1010
0000
0000
0010
0000
0000
0100
0000
0000
0001
0000
0000
1000
0100
0000
0010
0000
0000
0100
0010
0000
0001
0000
0000
,
1000
0000
0000
0010
0000
0000
0100
0000
0000
0001
0000
0000
0010
0100
0000
1000
0000
0000
0001
0100
0000
0010
0000
0000
,
1000
0000
0000
0001
0000
0000
0100
0000
0000
1000
0000
0000
0001
0010
0000
0100
0000
0000
1000
0010
0000
0001
0000
0000
,
0100
0000
1000
0100
0010
0000
0001
0000
2200
0000
00MM
0000
3301
0000
0100
0000
,
0010
1000
0001
0010
1000
0001
0010
1000
,
0001
0010
1000
0100
0001
1000
0100
0001
,
1001
0000
0000
0000
,
1MMM
M1MM
MM10
MMM1
1MMM
M1MM
MM10
MMM1
1MMM
M1MM
MM1M
MMM1
1MMM
M1MM
MM10
MMM1
,
0001
0000
0001
0000
0100
0000
0010
0000
1000
0001
1000
0010
1000
0100
1000
0001
,
0100
0000
0100
0000
0010
0000
0001
0000
1000
0100
1000
0010
1000
0001
0100
0100
,
0010
0000
0010
0000
0100
0000
0001
0000
0001
0010
0100
1000
0100
0010
0001
0100
,
1001
0000
0100
0001
MMMM
0100
0010
0001
1000
0100
1000
0010
1000
0001
0010
0100
,
0001
0001
0100
0010
0001
1000
1100
0110
,
0001
0010
0100
1000
0100
0010
1001
1100
,
1020
0000
0000
0201
,
0000
0000
0000
0000
0330
0000
0000
0000
100M
M001
100M
M001
100M
M001
100M
M001
,
1001
0000
0001
0010
0000
0100
0010
0000
1000
0001
0100
0010
1000
0100
0010
0001
,
0100
0000
1000
0100
0000
0100
0001
0000
1000
0100
0010
0001
0010
0100
0010
0001
,
1000
0000
0100
1000
0000
0010
0001
0000
1000
0100
0010
0001
0100
0010
1000
0100
,
1000
0000
0010
1000
0000
0010
0100
1000
0001
0010
0001
0100
0001
0010
0000
0100
,
0100
0000
0010
1000
0000
0001
0100
0000
0100
0010
1000
0100
0001
0100
1000
0010
,
0100
0000
0010
0100
1000
0000
0001
0000
0010
0100
1000
0010
1000
0010
0001
0010
,
0210
00M0
0000
0000
0000
0000
0000
0000
,
0320
0M00
0000
0000
0000
0000
0000
2000
,
0030
00M0
0000
0000
0000
0000
0000
0002
,
3000
M000
0000
0000
0000
0000
0000
0000
,
0000
0000
0000
0000
,
0000
0000
0000
0000
,
0000
0000
0000
0000
,
0000
0000
0000
0000
0000
0000
0003
000M
;

//---------------dance-single - Copied from----------------
#NOTES:
     dance-single:
     Copied from:
     Edit:
     15:
     1.000,1.000,1.000,0.367,1.000,714.000,148.000,27.000,297.000,56.000:
M22M
0000
0000
0000
,
M33M
0000
0000
0000
0000
0000
0000
0000
MMMM
0000
0000
0000
0000
0000
0000
0000
0M01
1000
0010
0000
0M01
1000
0010
0000
0100
0001
1000
0000
01M0
0001
1000
0000
,
011M
0000
MM11
0000
11MM
0000
M11M
0000
0001
1000
0001
0010
0100
1000
0010
0000
,
M1M1
0000
1M1M
0000
11MM
0000
M11M
0000
0100
0001
1000
0100
0100
0010
0001
0000
,
11MM
0000
1M1M
0000
M1M1
0000
1MM1
0000
0010
1000
0100
1000
0001
0100
0010
0100
,
10MM
0100
001M
1000
0MM1
1000
0100
0010
100M
0100
00M1
1000
0100
0010
MM01
0000
,
10MM
0100
M010
0001
01M0
1000
0M01
0010
100M
0100
M0M1
0100
M010
0001
01M0
1000
,
0001
0100
0010
0100
00M1
0000
1000
0000
01M0
0000
0001
0000
MM10
0000
1000
0000
01M0
1000
0001
1000
010M
0000
0010
0000
1M0M
0000
0100
0000
M0M1
0000
1000
0000
,
0100
0001
M010
0100
10M0
0001
10M0
0100
M001
0010
010M
1000
001M
0100
M001
0010
,
0100
0001
0100
0000
1000
0000
0010
0000
M101
0000
0010
0000
1000
0000
0100
0001
M100
0000
0010
0000
0001
0000
0100
0001
10M0
0001
0100
0000
0010
0001
1000
0000
,
0110
0000
0001
0000
1000
0000
0100
0000
0010
0001
1000
0010
0100
1000
0010
0000
,
0022
0100
1033
0220
0001
1330
0022
1133
,
MMMM
0000
MMMM
0000
MMMM
0000
0M1M
1000
1100
0000
MM01
0010
1100
0000
010M
0010
,
1001
0000
0000
0000
0M01
0000
0010
0000
1100
0000
0000
0000
10MM
0000
0100
0000
1010
0000
0001
0000
0100
0000
0010
0000
0001
1000
0001
0000
0100
0010
0001
0000
,
1000
0010
010M
0010
100M
0100
100M
0110
0001
0100
M010
0100
M001
0010
M001
0000
,
M1M1
0000
1M1M
0000
11MM
0000
1M1M
0000
0101
0010
0001
1000
0010
0001
1100
0100
,
10M1
0000
M1M0
0000
0001
0000
1010
0000
0100
0000
0001
0010
0100
1000
0010
0001
,
1000
0010
0100
1000
0001
0010
0100
0010
M22M
0000
M00M
0000
M00M
0000
M33M
0000
,
1010
0100
00M1
0000
1001
0100
M010
0000
0101
0100
10M0
0000
1100
0001
M010
0000
,
0110
1000
00M1
0000
1100
0010
100M
0000
2010
0100
0001
0100
0010
0100
3001
0100
,
1001
0100
M010
0000
0101
1000
0001
0000
0110
1000
0M10
0000
1001
0010
0100
0000
,
1010
0001
0100
1000
0101
1000
0010
0001
0100
1000
0010
0100
2002
0000
0000
0000
,
3103
0000
0110
0000
0001
0000
1010
0000
1000
0100
0010
1000
0001
1000
0100
0000
,
0010
0000
0101
0000
1000
0000
0110
0000
0100
1000
0001
0100
0010
1000
0001
0000
,
0100
0000
0011
0000
1000
0000
1100
0000
0010
1000
0001
1000
0100
0001
0010
0000
,
1000
0100
0010
0001
1000
0100
0010
0001
1000
0100
0010
0001
1000
0100
0010
0001
1000
0100
0010
0001
1000
0100
0010
0001
1000
0100
0010
0001
1000
0100
0010
0001
,
1010
0000
0000
MM1M
0000
0000
111M
0000
0000
M111
0000
0000
1001
0100
0000
0010
1000
0000
0100
0010
0000
0001
0100
0000
,
1010
0000
0000
MM11
0000
0000
111M
0000
0000
M111
0000
0000
0011
0100
0000
1000
0100
0000
0001
0100
0000
0010
0100
0000
,
1010
0000
0000
MMM1
0000
0000
M111
0000
0000
111M
0000
0000
1001
0010
0000
0100
0001
0000
1000
0010
0000
0001
1000
0000
,
0100
0000
1000
0100
0010
1000
0001
0010
2200
0000
00MM
0000
3301
0010
0100
1000
,
0010
0100
1000
0100
0001
0100
0010
0100
1000
0100
0001
0100
0010
0100
1000
0100
,
0001
0100
0010
0100
1000
0010
0100
0010
0001
0010
1000
0010
0100
0010
0001
0010
,
1001
0000
1001
0000
0110
1001
0110
1001
,
1100
0011
1100
0011
1100
0011
1100
0011
1100
0011
1100
0011
1100
0011
1100
0011
1100
0011
1100
0011
1100
0011
1100
0011
1100
0011
1100
0011
1100
0011
1100
0011
,
1100
0000
0001
0000
1100
0000
0010
0100
1000
0001
0100
0010
1000
0100
1000
0001
,
0110
0000
1100
0000
1010
0000
0001
0010
1000
0100
0001
0010
1000
0001
0100
0100
,
1010
0000
0011
0000
1100
0010
0001
1000
0001
0010
0100
1000
0100
0010
0001
0100
,
1100
0000
0010
MM00
0001
0000
1100
0000
0010
MM00
0001
0000
1100
0000
0010
0000
0011
0000
1100
0000
0011
0000
1100
0000
0011
0000
1100
0000
0011
0000
1100
0000
,
MM11
M1M1
11MM
1M1M
M1M1
1M1M
11MM
M11M
,
M1M1
MM11
M11M
11MM
M1M1
M11M
1MM1
11MM
,
2020
0000
0000
0202
,
0000
0000
0000
0000
0000
0000
0000
0000
3333
0000
0000
0000
0000
0000
0000
0000
1MM0
0001
1000
0001
1MM0
0001
1000
0001
1MM0
0001
1000
0001
1MM0
0001
1000
0001
,
1MM1
0000
0100
0000
M0M1
0000
0010
0000
100M
0000
0100
0000
M010
0000
0001
0100
10M0
0100
0001
0000
M1M0
0000
0010
0000
100M
0000
0100
0000
M010
0000
0001
0010
,
M100
0010
0001
0000
10MM
0000
0100
1000
001M
1000
0100
0000
MM01
0000
0010
0000
100M
0000
0100
0000
M010
0100
0001
0000
M010
0000
0100
0001
M010
0000
0001
0000
,
1M00
0000
0010
0000
010M
0010
1000
0010
010M
0000
0010
0100
M001
0100
0010
0000
100M
0000
0100
0000
M010
0000
0001
0000
M100
0000
0010
0000
100M
0010
0100
0010
,
1000
0000
0001
0000
0M10
0000
1000
0000
0M01
0000
0010
0000
M10M
0000
1000
0000
M001
0100
0010
0000
M001
0000
0100
0010
M001
0000
0010
0000
100M
0000
0100
1000
,
01M0
0000
0001
0000
M01M
0100
1000
0100
M01M
0000
0001
0000
01M0
1000
0001
1000
0100
0000
0010
0000
1M0M
0000
0100
0010
M001
0010
0100
0000
1M0M
0000
0010
0000
,
M1M0
0000
0001
0000
MM10
0000
0100
0000
10MM
0000
0010
0000
MMM1
0000
0100
1000
001M
1000
0100
0000
10MM
0000
0010
0100
100M
0000
0010
0000
M001
0100
0010
0000
,
221M
00MM
0000
0000
0000
0000
0000
0022
,
3300
MM00
0000
0000
0000
0000
0000
2200
,
0033
00MM
0000
0000
0000
0000
0000
0022
,
3300
M100
M100
M100
M100
M100
M100
M100
,
M100
M100
M100
M100
M100
M100
M100
M100
,
M100
M100
M100
M100
M100
M100
M100
M100
,
M100
M100
M100
M100
M100
M100
M100
M100
,
M100
M100
M100
M100
M100
M100
M133
MMMM
;

//---------------dance-double - ----------------
#NOTES:
     dance-double:
     :
     Hard:
     9:
     0.711,0.647,0.353,0.204,0.027,325.000,26.000,15.000,60.000,2.000:
000M2000
000M0000
000M0000
000M0000
000M3000
00000000
00000000
00000000
,
00000000
00000000
00000000
00000000
00011000
00011000
00011000
00011000
,
00011000
00001000
01000000
00100000
10000000
01000000
00100000
00010000
,
00001000
00000100
00000010
00000001
00001000
00000010
0001MM00
00000000
,
00100000
01000000
10000000
00010000
00100000
00001000
00010000
00000010
,
00000100
00001000
00000100
00000001
00010000
00001000
01MM0000
00000000
,
10000000
01000000
00010000
00001000
00000100
00001000
00010000
00100000
,
00010000
00001000
00000010
00000001
00000100
00000010
0001MM00
00000000
,
00000100
00001000
00010000
01000000
10000000
00100000
00010000
00001000
,
20020000
00M00000
01M00000
30M30000
,
01100000
00000000
00010000
00001000
00000100
00000010
00001000
00010000
,
00100000
01000000
10000000
00100000
00010000
00000000
00011000
00000000
,
MMMMMMMM
00000000
M00MM00M
00100000
01000000
00001000
00010000
01000000
,
00010000
00001000
00000100
00000010
00001000
00010000
00200000
0M0MM000
,
10300000
01000000
10000000
00001000
00010000
00100000
00010000
00001000
,
00000010
00000001
00010000
00000100
01000000
00010000
00100000
01000000
,
10000000
00100000
00010000
00001000
00000010
00001000
00000010
00100000
,
00001000
01000000
00010000
00000000
M22M0000
00000000
M33M0000
00000000
,
10010000
10000000
00100000
00010000
00000010
00000010
00000001
00000100
,
00001000
01000000
00010000
01000000
00100000
00010000
00001000
00100000
,
01000000
10000000
01000000
00010000
00001000
00000100
00010000
00001000
,
01000000
00010000
00100000
01000000
0002M000
0M00M000
0003M100
00000010
,
00000001
00001000
00000100
00100000
00001000
10000000
00010000
01000000
,
00100000
01000000
10000000
01000000
00001000
00010000
00100000
00010000
,
00001000
00000100
00000010
00000001
00010000
00001000
01000000
00100000
,
M11M0000
1MM10000
MM1M1000
11MM0000
,
10100000
00100000
01000000
00001000
01000000
00010000
01000000
00100000
,
00010000
00001000
00000100
00000010
00001000
00010000
00100000
01000000
,
10000000
00010000
01000000
00001000
00010000
01000000
10000000
00100000
,
00010000
00001000
00000010
00000001
00MMM200
00000000
00010300
01000000
,
00100000
10000000
00010000
00100000
10000000
00100000
00010000
00001000
,
00000100
00000001
00000100
00000010
00001000
00010000
01000000
00010000
,
10010000
00000000
00000000
00000000
,
M11M0000
MM110000
11MM0000
1M1M0000
,
MMM10000
00010000
00001000
00000100
00000001
00001000
00000100
00000000
,
00010000
01000000
00100000
00010000
00001000
00000100
00000010
00000000
,
00000001
00001000
00000001
00010000
00001000
10000000
01000000
00000000
,
00010000
00000000
01000000
00001000
00000000
01000000
00100000
00000000
10000000
00000000
01000000
00000000
00001000
00000000
00000000
00000000
,
00010000
00001000
00000100
00000001
00000100
00000010
00000001
00000100
,
00001000
00010000
01000000
10000000
01000000
00100000
00010000
01000000
,
00200000
00000000
00000000
02002000
,
03303000
00000000
00000000
00000000
10100000
10100000
10100000
10100000
,
10010000
00010000
01000000
00100000
10000000
01000000
00010000
01000000
,
00100000
00010000
00001000
00000100
00001000
00010000
00100000
01000000
,
10000000
00100000
00010000
00000100
00000010
00000001
00000100
00000000
,
00001000
00000000
00100000
00010000
00000000
00100000
01000000
00000000
10000000
00000000
00010000
00000000
00001000
00000000
00000000
00000000
,
01000000
00100000
10000000
01000000
01000000
10000000
00001000
01000000
,
00000000
00100000
00010000
00001000
00000100
00000010
00000001
00010000
,
02000000
00000000
00000000
00000000
,
03200000
00000000
00000000
00000000
00000000
00000000
00000000
20000000
,
00300000
00000000
00000000
00000000
00000000
00000000
00000000
00002000
,
30000000
00000000
00000000
00000000
,
00000000
00000000
00000000
00000000
00000000
00000000
00000000
00003000
;

//---------------dance-double - ----------------
#NOTES:
     dance-double:
     :
     Challenge:
     11:
     0.915,0.900,0.136,0.217,0.666,445.000,10.000,16.000,93.000,1.000:
000M2000
000M0000
000M0000
000M0000
000M3000
00000000
00000000
00000000
,
00000000
00000000
00000000
00000000
00000000
00000000
00000000
00000000
00001000
00010000
00001000
00010000
00001000
00010000
00001000
00010000
,
00001000
00010000
00001000
00000000
01000000
00000000
00100000
00000000
10000000
00000000
01000000
00000000
00100000
00000000
00010000
00000000
,
00001000
00000000
00000100
00000000
00000010
00000000
00000001
00000000
00001000
00000010
00001000
00000100
00010000
00000000
00001000
00000000
,
00100000
01000000
10000000
00010000
00100000
00001000
00010000
00000010
,
00000100
00000000
00001000
00000000
00000100
00000000
00000001
00000000
00010000
00000100
00010000
00001000
01000000
00000000
00010000
00000000
,
10000000
00000000
01000000
00000000
00010000
00000000
00001000
00000000
00000100
00000010
00000100
00000010
00000001
00000000
00010000
00000100
,
00010000
00000000
00001000
00000000
00000010
00000000
00000001
00000000
00000100
00000010
00001000
00000100
00010000
00000000
00001000
00000000
,
00000100
00000000
00001000
00000000
00010000
00000000
01000000
00000000
10000000
01000000
00100000
00000000
00010000
00000000
00001000
00000000
,
10000000
00000000
00010000
10000000
00M00000
00010000
10000000
00000000
00M10000
10000000
00000000
00010000
10M00000
00000000
00010000
10000000
,
01000000
00000000
00100000
00000000
00010000
00000000
00001000
00000000
00000100
00000000
00000010
00000000
00001000
00010000
00001000
00000000
,
00000100
00000000
00010000
00000000
00001000
00000000
00100000
00000000
00010000
00001000
00010000
00000000
00011000
00000000
00000000
00000000
,
MMMMMMMM
00000000
00000000
00000000
M00MM00M
00000000
01100000
00000000
10000000
00000000
00001000
00000000
00010000
00000010
00010000
00000100
,
00010000
00000000
00001000
00000000
00000100
00000000
00000010
00000000
00001000
00010000
00100000
01000000
00200000
00000000
0M0MM000
00000000
,
10300000
01000000
10000000
01000000
10000000
00000000
00001000
00000000
00010000
00100000
00010000
00100000
00010000
00000000
00001000
00000000
,
00000010
00000000
00000001
00000000
00010000
00000000
00000100
00000000
01000000
00001000
00010000
00000000
00100000
00000000
01000000
00000000
,
10000000
00000000
00100000
00000000
00010000
00000000
00001000
00000000
00000010
00000001
00000010
00000001
00000010
00000000
00001000
00000000
,
00010000
01000000
10000000
00100000
M22M0000
00000000
M33M0000
00000000
,
10010000
00000000
10000000
00000000
00100000
00000000
00010000
00000000
00001000
00000100
00000010
00000000
00000001
00000000
00000100
00000000
,
00001000
00000000
00010000
00100000
01000000
10000000
01000000
00000000
00100000
00000000
00010000
00000000
00001000
00000000
00100000
00000000
,
01000000
00000000
10000000
00000000
01000000
00000000
00010000
00000000
00001000
00000010
00001000
00000100
00010000
00000000
00001000
00000000
,
01000000
00010000
00100000
01000000
0102M000
M0M0M000
M0M3M100
00000010
,
00000001
00000000
00001000
00000000
00000100
00000000
00100000
00000000
00001000
01000000
00010000
01000000
00100000
00000000
01000000
00000000
,
00100000
00000000
01000000
00000000
10000000
00000000
01000000
00000000
00001000
00100000
00010000
01000000
00100000
00000000
00010000
00000000
,
00001000
00000000
00000100
00000000
00000010
00000000
00000001
00000000
00010000
00000100
00010000
00001000
01000000
00000000
00100000
00000000
,
01100000
00000000
10000000
00000000
10010000
00000000
00010000
00000000
01000000
00010000
01000000
00010000
01000000
00010000
01000000
00010000
,
10000000
00000000
00100000
00000000
01000000
00000000
00001000
00000000
01000000
00100000
00010000
00000000
00001000
00000000
00100000
00000000
,
00010000
00000000
00001000
00000000
00000100
00000000
00000010
00000000
00000100
00001000
00000010
00000000
00010000
00000000
00001000
00000000
,
10000000
00000000
00010000
00000000
01000000
00000000
00001000
00000000
00010000
01000000
00100000
10000000
01000000
00000000
00100000
00000000
,
00010000
00001000
00000010
00000001
00MMM201
00000000
00010300
01000000
,
00100000
00000000
10000000
00000000
00010000
00000000
00100000
01000000
10000000
01000000
00100000
00000000
00010000
00000000
00001000
00000000
,
00000100
00000000
00000001
00000000
00000100
00000000
00000010
00000000
00001000
00000100
00010000
00001000
01000000
00000000
00010000
00000000
,
20020000
00000000
30030000
00000000
,
1000MMMM
01000000
00010000
00000000
00001000
00000100
MMMM0001
00000000
MMMM0001
00000100
00001000
00000000
00010000
01000000
1000MMMM
00000000
,
10000000
00000000
00010000
00000000
00001000
00000000
00000100
00000000
00000001
00000000
00001000
00000000
00000100
00010000
00000100
00010000
,
00001000
00000000
01000000
00000000
00100000
00000000
00010000
00000000
00001000
00000000
00000100
00000000
00000010
00000001
00000010
00000001
,
00000010
00000000
00001000
00000000
00000001
00000000
00010000
00000000
00001000
00000000
10000000
00000000
01000000
00100000
01000000
00100000
,
00010000
00000000
01000000
00001000
00000000
01000000
00100000
00000000
10000000
00010000
10000000
00001000
00010000
00001000
00010000
00001000
,
00010000
00000000
00001000
00000000
00000100
00000000
00000001
00000000
00000100
00000000
00000010
00000000
00000001
00001000
00000100
00010000
,
00001000
00000000
00010000
00000000
01000000
00000000
10000000
00000000
01000000
00000000
00100000
00000000
00010000
10000000
01000000
10000000
,
00200000
MM0MMMMM
M00M0MMM
M20M2MMM
,
M33M3MMM
00000000
00000000
00000000
00000000
00000000
00000000
00000000
10000000
00100000
10000000
00100000
10000000
00100000
10000000
00100000
,
10000000
00010000
00100000
00000000
01000000
00000000
00100000
00000000
10000000
00000000
01000000
00000000
00010000
10000000
01000000
00100000
,
00010000
00000000
00001000
00000000
00000100
00000000
00000010
00000000
00001000
00000000
00010000
00000000
00100000
01000000
00100000
01000000
,
10000000
00000000
00100000
00000000
00010000
00000000
00000100
00000000
00000010
00000000
00000001
00000000
00000100
00000010
00000100
00000010
,
00001000
00000000
00001000
00010000
00000000
00100000
01000000
00000000
10000000
00001000
00010000
00000100
00001000
00000010
00001000
00000100
,
00010000
00000000
00100000
00000000
00001000
00000000
01000000
00100000
01000000
00000000
10000000
00000000
00001000
00010000
01000000
00010000
,
01000000
00000000
00100000
00000000
00010000
00000000
00001000
00000000
00000100
00000000
00000010
00000000
00000001
00010000
00001000
00100000
,
00002000
00000000
00000000
00000000
,
00203000
00000000
0000M000
00000000
00000000
00000000
00000000
20000000
,
00300000
00000000
00M00000
00000000
00000000
00000000
00000000
00002000
,
30000000
M0000000
00000000
00000000
,
MMMM0MMM
00000000
00020000
00000000
00000000
00000000
00030000
00003000
,
MMMMMMMM
00000000
00000000
00000000
;

//---------------dance-single - ----------------
#NOTES:
     dance-single:
     :
     Easy:
     4:
     0.346,0.381,0.054,0.150,0.000,163.000,4.000,11.000,32.000,0.000:
0000
0000
0000
0000
,
0000
0000
0000
0000
,
1000
0010
0100
0001
,
0001
0100
0010
1000
,
0100
1000
0001
0100
,
0001
0100
0010
1000
,
0010
1000
0100
1000
,
0100
1000
0010
0100
,
0010
0100
0001
0100
,
2002
0000
0000
3003
,
0010
0100
0010
1000
,
0100
0010
0001
0100
,
0000
0000
0010
1000
,
0001
0010
0100
0020
,
1030
1000
0001
0001
,
0010
0100
1000
0100
,
0010
0001
0100
0010
,
1000
0001
0220
0330
,
1000
1000
0001
0010
,
0100
0010
0001
1000
,
0100
0010
0001
0100
,
0100
0100
0002
1003
,
0010
0001
1000
0100
,
0001
0100
0010
0001
,
0100
0010
1000
0100
,
MMMM
MMMM
MMMM
MMMM
,
0010
0100
0001
1000
,
0100
0001
0100
0100
,
0100
0010
0010
0010
,
0001
0100
2000
3001
,
0010
0100
1000
0100
,
0010
0001
0001
0010
,
1100
0000
0000
0000
,
MMMM
MMMM
MMMM
MMMM
,
0010
0100
0001
1000
,
1000
0100
0001
0100
,
1000
0010
0100
0001
,
0100
0100
1001
0000
,
0010
0100
0001
1000
,
0100
0001
1000
0100
,
0020
0000
0000
0200
,
0330
0000
1000
0000
,
0010
0100
0001
0001
,
1000
0100
0001
0100
,
1000
0010
0100
0001
,
0001
0100
0010
1000
,
0100
0001
0100
1000
,
0010
0100
0001
0010
,
0200
0000
0000
0000
,
0320
0000
0000
0000
,
0000
0000
0000
0000
,
0030
0000
0000
0000
;

//---------------dance-single - ----------------
#NOTES:
     dance-single:
     :
     Medium:
     7:
     0.546,0.587,0.353,0.163,0.000,243.000,26.000,12.000,0.000,0.000:
0000
0000
0000
0000
,
0000
0000
0000
0000
0010
0010
0010
0000
,
0110
0000
0001
0100
0010
1000
0100
0000
,
0001
0000
1000
0010
0100
0001
0010
0000
,
1000
0000
0010
0001
0100
0010
1000
0000
,
0010
0000
0001
0010
0000
1000
0100
0000
,
0010
0001
0010
0000
0100
1000
0100
0000
,
0001
0000
0010
0001
0100
0010
1000
0000
,
0010
0010
0001
0000
1000
1000
0010
0000
,
2002
0000
0000
3003
,
0110
0000
0001
0100
0000
1000
0100
0000
,
0001
0010
1100
1001
,
0000
0000
0000
0010
0100
0000
1000
0000
,
0011
0100
1000
0012
,
1003
0100
1000
0000
0001
0010
0001
0000
,
0100
0010
1000
0100
0010
0000
0001
0000
,
0100
0010
0000
1000
0100
0010
0001
0000
,
1000
0100
0001
0000
0220
0000
0330
0000
,
1000
1000
0001
0000
0100
0000
0010
0000
,
0001
0001
0100
0000
0010
0000
1000
0000
,
0100
0001
0100
0000
0010
0000
1000
0000
,
0001
0100
0100
0000
0012
0000
1003
1000
,
0100
0010
0001
0000
1000
0000
0001
0000
,
0010
0000
1000
0100
0100
0000
0010
0001
,
0100
0010
1000
0000
0010
0000
0101
0000
,
0110
1001
0011
0110
,
1100
1000
0100
0000
0010
0001
0100
0000
,
1000
0100
1000
0001
0100
0000
0001
0000
,
0010
0100
1000
0001
0001
0000
0100
0000
,
1000
0100
0010
0001
2000
0000
3001
0100
,
0010
1000
0100
0000
0010
0001
0000
1000
,
0001
0000
1000
0100
0000
0010
0100
0000
,
1001
0000
0000
0000
,
0110
0011
1100
1010
,
0001
0001
0100
0000
1000
1000
1000
0000
,
0100
0100
0010
0000
0001
0001
0001
0000
,
0010
0010
0100
0000
1000
1000
0100
0000
,
0011
0000
0101
0000
1000
1000
1000
0001
,
0100
0001
0100
0000
0010
0000
0100
0010
,
0000
0001
0100
0010
0100
0000
0001
1000
,
0020
0000
0000
0200
,
0330
0000
0000
0000
1000
1000
1000
0000
,
1001
0001
0100
0000
0010
0100
1000
0000
,
0010
0001
0000
0001
0100
0000
0010
1000
,
0100
0000
0001
0010
0100
0000
1000
0000
,
0110
0000
0101
0000
0001
0001
1000
0000
,
0100
0010
0010
0000
0001
1000
0001
0010
,
0000
0100
1000
0001
0010
0000
1000
0000
,
1200
0000
0000
0000
,
0320
0000
0000
0000
0000
0000
0000
2000
,
0030
0000
0000
0000
,
0000
0000
0000
0000
,
0000
0000
0000
0000
,
0000
0000
0000
0000
,
3000
0000
0000
0000
;
