#TITLE:Super Mario;
#SUBTITLE:[Euro Mix];
#ARTIST:[zino] M'J;
#TITLETRANSLIT:;
#SUBTITLETRANSLIT:;
#ARTISTTRANSLIT:;
#CREDIT:;
#BANNER:Super Mario [Euro Mix].png;
#BACKGROUND:Super Mario [Euro Mix]-BG.png;
#LYRICSPATH:;
#CDTITLE:;
#MUSIC:Super Mario [Euro Mix].mp3;
#OFFSET:-2.690;
#SAMPLESTART:32.997;
#SAMPLELENGTH:12.000;
#SELECTABLE:YES;
#BPMS:0.000=182.000;
#STOPS:;
#BGCHANGES:;
// cache tags:
#FIRSTBEAT:8.000;
#LASTBEAT:215.000;
#SONGFILENAME:Songs/toune 3/Super Mario [Euro Mix]/Super Mario [Euro Mix].sm;
#HASMUSIC:1;
#HASBANNER:1;
#MUSICLENGTH:74.684;
// end cache tags

//---------------dance-single - ----------------
#NOTES:
     dance-single:
     :
     Hard:
     9:
     0.738,0.756,0.562,0.161,0.167,332.000,42.000,12.000,0.000,0.000:
0000
0000
0000
0000
,
0000
0000
0000
0000
,
1000
0000
0000
1000
0000
0001
0000
0000
0002
0000
0000
0000
0200
0000
0303
0000
,
1000
0100
1000
0100
1000
0100
0010
0001
,
1000
0100
1000
0100
1000
0100
0010
0001
,
0100
0001
0100
0010
1000
0010
0100
0001
,
0100
0001
0100
0010
1000
0010
0100
0001
,
0010
0100
1000
0100
0010
0001
1000
0001
,
0010
0100
1000
0100
0010
0001
1000
0001
,
0100
0010
1000
0001
0010
0100
1000
0100
,
1000
0000
0000
0001
0000
0000
0100
0000
0010
0000
1000
0000
2020
0000
3030
0000
,
0001
0100
0001
0100
0010
1000
0010
1000
,
0100
0010
0001
1000
0000
1000
0001
0100
,
0010
1000
0010
1000
0100
1000
0100
1000
,
0001
0010
0100
1000
0000
1001
1001
0000
,
0010
0100
0010
0100
1000
0001
1000
0001
,
0100
0010
1000
0010
0000
0100
0001
1000
,
1001
0100
1000
0100
1001
0100
0001
0100
,
1001
0100
1000
0100
1001
0100
0001
0100
,
0101
0001
1000
0100
1100
1000
0001
0100
,
0020
2030
3200
0300
,
1100
1000
0101
0010
,
0100
0100
0100
0000
0010
0000
1001
0000
,
0100
0010
1000
0000
0100
0000
0010
0000
,
0110
1001
0110
1001
,
1000
1000
1000
1000
,
0001
0010
0001
0010
0001
0010
0001
0010
,
0100
1000
0010
0000
0100
1000
0010
0000
,
1100
0101
0011
1010
,
1000
0100
0000
0110
0000
0000
0011
0000
,
0001
1000
0000
1000
0001
0000
0101
0000
,
0001
0100
0000
0100
0010
1000
0000
1000
,
0010
0200
0000
0000
0310
0000
0110
0000
,
0001
1000
0000
1100
0000
0000
0110
0000
,
0001
1000
0000
1000
0001
0000
1010
0000
,
1000
0001
0000
0100
0010
1000
0000
0100
,
0010
0001
1000
0100
1000
0000
1001
0000
,
1000
0100
0000
0000
0100
0010
0000
0000
0010
0001
0000
0000
0001
1000
0000
0000
,
1100
0101
1100
0101
,
0001
0100
0000
0000
0100
0010
0000
0000
0010
1000
0000
0000
1000
0100
0000
0000
,
0110
0011
0110
0011
,
1000
0100
0000
0000
0100
1000
0000
0000
1000
0001
0000
0000
0001
0100
0000
0000
,
0110
1010
0011
1001
,
1000
0001
0000
0000
0001
1000
0000
0000
1000
0001
0000
0000
0001
1000
0000
0000
,
2002
0000
0000
3003
,
0010
0000
0000
1000
0000
0100
0000
0000
0200
0000
0000
0000
2000
0000
3300
0000
,
0010
1000
0010
1000
0010
1000
0001
0100
,
0010
1000
0010
1000
0010
1000
0001
0100
,
1000
0100
1000
0001
0010
0001
1000
0100
,
1000
0100
1000
0001
0010
0001
1000
0100
,
0001
1000
0010
1000
0001
0100
0010
0100
,
0001
1000
0010
1000
0001
0100
0010
0100
,
1000
0001
0010
0100
0001
1000
0010
1000
,
0010
0100
0001
1000
0001
0010
0100
0000
0000
1001
0000
0000
;

//---------------dance-double - ----------------
#NOTES:
     dance-double:
     :
     Hard:
     10:
     0.754,0.900,0.442,0.121,0.281,352.000,33.000,9.000,0.000,0.000:
00000000
00000000
00000000
00000000
,
00000000
00000000
00000000
00000000
,
00000001
00000010
00000000
00000001
00000000
00001000
00000001
00000000
00000200
00000000
00000000
00000000
00000020
00000000
00000330
00000000
,
00010000
00001000
00010000
00001000
00100000
00010000
10000000
01000000
,
10000000
01000000
00100000
01000000
00100000
00001000
00010000
00000100
,
00000010
00000001
00001000
00000001
00000100
00000010
00010000
00000010
,
00001000
00000100
00000010
00001000
00010000
00001000
00000010
00001000
,
00010000
01000000
10000000
00010000
01000000
00100000
10000000
00010000
,
00100000
00001000
00010000
01000000
10000000
00100000
00010000
00001000
,
00000100
00000001
00000010
00000100
00001000
00000001
00000100
00000010
,
00001000
00000100
00000000
00000100
00000000
00010000
00001000
00010000
00001000
00000000
00100000
00000000
00110000
00000000
00000000
00000000
,
10000000
01000000
10000000
01000000
00100000
00010000
00100000
00010000
,
10000000
00010000
00100000
00101000
00000000
00001000
00010000
00000100
,
00000010
00000001
00000010
00000001
00001000
00000100
00001000
00000100
,
00000010
00000001
00001000
00000100
00000000
00010100
00011000
00000000
,
00100000
10000000
00100000
10000000
01000000
00010000
01000000
00010000
,
00001000
00000010
00000001
00001100
00000000
00000100
00001000
00000010
,
00001000
00100000
10000000
01000000
00001000
01000000
10000000
00100000
,
00001000
00100000
10000000
01000000
00001000
01000000
10000000
00100000
,
00001000
00000010
00000100
00001000
00100000
00010000
00000010
00010000
,
02000000
03200000
00320000
00030000
,
00000001
00001000
00000000
00000000
00001100
00000000
00000000
00000000
00010000
00000000
00000000
00000000
00011000
00000000
00000000
00000000
,
10000000
10000000
10000000
00000000
01000000
00000000
01100000
00000000
,
00100000
00010000
01000000
00000000
00100000
00000000
10100000
00000000
,
10010000
00011000
00001001
00011000
,
10000000
10000000
10000000
10000000
,
00001000
00010000
00001000
00010000
00001000
00010000
00001000
00010000
,
00001000
00000100
00000110
00000000
00001000
00000100
00000110
00000000
,
00000001
00000010
00000100
00001000
00000001
00000100
00000010
00000000
00000000
00000000
00000000
00000000
,
10000000
01000000
00000000
01100000
00000000
00000000
00010000
00000000
,
10000000
00010000
00000000
00010000
10000000
00000000
10010000
00000000
,
00100000
00001000
00000000
00010000
00001000
00010000
00000000
00000100
,
00000010
00000002
00000000
00000000
00001003
00000000
00001001
00000000
,
00000001
00000100
00000000
00000110
00000000
00000000
00000010
00000000
,
00010000
00001000
00000000
00001000
00100000
00000000
00110000
00000000
,
00001000
00010000
00000000
00001000
00100000
00010000
00000000
00010000
,
10000000
01000000
10000000
01000000
00100000
01000000
00100000
00010000
01000000
00001000
00010000
00000100
00001000
00000001
00001000
00000000
,
00000001
00001000
00000000
00000000
00001000
00010000
00000000
00000000
00010000
10000000
00000000
00000000
00001000
00010000
00000000
00000000
,
01000100
00011000
00100010
00011000
,
00000001
00001000
00000000
00000000
00001000
00010000
00000000
00000000
00010000
10000000
00000000
00000000
00001000
00010000
00000000
00000000
,
00011000
01000100
00011000
00100010
,
00000001
00001000
00000000
00000000
00001000
00010000
00000000
00000000
00010000
10000000
00000000
00000000
00001000
00010000
00000000
00000000
,
01001000
00010010
00101000
00010100
,
01000000
10000000
00000000
00000000
00001000
00010000
00000000
00000000
00000001
00000010
00000000
00000000
00001000
00010000
00000000
00000000
,
00002000
00000000
00000000
00003000
,
10000000
01000000
00000000
10000000
00000000
00010000
10000000
00000000
00200000
00000000
00000000
00000000
02000000
00000000
03300000
00000000
,
00001000
00010000
00001000
00010000
00000100
00001000
00000001
00000010
,
00000001
00000010
00000100
00000010
00000100
00010000
00001000
00100000
,
01000000
10000000
00010000
10000000
00100000
01000000
00001000
01000000
,
00010000
00100000
01000000
00010000
00001000
00010000
01000000
00010000
,
00001000
00000010
00000001
00001000
00000010
00000100
00000001
00001000
,
00000100
00010000
00001000
00000010
00000001
00000100
00001000
00010000
,
00100000
10000000
01000000
00100000
00010000
10000000
00100000
01000000
,
00010000
00100000
00001000
00010000
00000100
00000010
00000001
00000000
00000000
00001001
00000000
00000000
;

//---------------dance-single - ----------------
#NOTES:
     dance-single:
     :
     Medium:
     6:
     0.528,0.576,0.428,0.187,0.000,230.000,32.000,14.000,0.000,0.000:
0000
0000
0000
0000
,
0000
0000
0000
0000
,
0000
0000
0000
0000
,
0001
1000
0100
0000
0010
0000
1000
0000
,
0010
0001
0100
0000
0001
0000
0010
0000
,
0100
0010
1000
0000
0010
0000
0100
0000
,
0001
1000
0100
0000
0010
0000
1000
0100
,
0100
0010
0001
0000
1000
0000
0100
0000
,
0010
0100
0001
0000
0010
0000
1000
0000
,
0010
1000
0100
0000
0001
0000
0010
0000
,
0110
0000
0000
0000
1000
0001
1001
0000
,
1000
0100
1000
0000
0001
0100
0001
0000
,
0100
0010
0100
0001
0000
1000
0001
0000
,
1000
0010
1000
0000
0001
0100
0001
0000
,
1000
0100
0010
0200
0000
0010
0310
0000
,
0001
0010
0001
0000
1000
0100
1000
0000
,
0001
0100
0010
1000
0000
1000
0001
0100
,
2000
3100
0002
0103
,
0020
0031
0020
1030
,
0200
0301
0020
1030
,
2000
3200
0320
0030
,
1100
0000
0101
0000
,
0010
0010
0010
0000
0000
0000
0000
0000
,
1000
0100
0010
0000
0000
0000
0000
0000
,
1001
0110
1001
0110
,
1000
1000
1000
1000
,
0001
0100
0001
0100
0001
0100
0001
0100
,
0010
1000
0100
0000
0100
1000
0010
0000
,
1100
1001
0101
1001
,
1000
0100
0000
0110
0000
0000
0011
0000
,
0001
0100
0000
0100
0001
0000
0000
0000
,
0100
0010
0000
0010
1000
0010
0000
0010
,
0100
0002
0000
0000
1003
0000
1001
0000
,
1000
0100
0000
1100
0000
0000
1001
0000
,
0001
0100
0000
0100
0001
0000
0000
0000
,
0100
0010
0000
0010
1000
0100
0000
0100
,
2000
0000
0000
0000
0000
0000
0000
3000
,
1000
0001
1000
0001
,
0101
0101
0101
0101
,
0010
0100
0010
0100
,
1010
1010
1010
1010
,
1000
0100
1000
0100
,
0011
0011
0011
0011
,
0100
0010
0100
0010
,
2002
0000
0000
3003
,
1000
0100
0010
1001
,
0100
0010
1000
0000
0001
0000
0010
0000
,
0001
0100
1000
0000
0100
0000
0001
0000
,
1000
0001
0010
0000
0001
0000
1000
0000
,
0100
0010
1000
0000
0001
0000
0010
1000
,
1000
0001
0100
0000
0010
0000
1000
0000
,
0001
1000
0100
0000
0001
0000
0010
0000
,
0001
0010
1000
0000
0100
0000
0001
0000
,
1000
0000
0000
0110
;
