#TITLE:Thinking Different;
#SUBTITLE:-Edit-;
#ARTIST:SuperGreenX;
#TITLETRANSLIT:;
#SUBTITLETRANSLIT:;
#ARTISTTRANSLIT:;
#CREDIT:;
#BANNER:Thinking Different -Edit-.png;
#BACKGROUND:Thinking Different -Edit- bg.png;
#LYRICSPATH:;
#CDTITLE:!mm989cdtitle.png;
#MUSIC:Thinking Different -Edit-.MP3;
#OFFSET:-0.082;
#SAMPLESTART:76.480;
#SAMPLELENGTH:12.000;
#SELECTABLE:YES;
#BPMS:0.000=113.000;
#STOPS:;
#BGCHANGES:;
// cache tags:
#FIRSTBEAT:8.000;
#LASTBEAT:245.000;
#SONGFILENAME:Songs/IzzySM Keyboard Mega Pack/Thinking Different -Edit-/Thinking Different -Edit-.sm;
#HASMUSIC:1;
#HASBANNER:1;
#MUSICLENGTH:135.452;
// end cache tags

//---------------dance-single - ----------------
#NOTES:
     dance-single:
     :
     Beginner:
     1:
     0.090,0.135,0.000,0.007,0.000,84.000,0.000,1.000,0.000,0.000:  // measure 1
0000
0000
0000
0000
,  // measure 2
0000
0000
0000
0000
,  // measure 3
0100
0000
0000
0000
,  // measure 4
1000
0000
0000
0000
,  // measure 5
0001
0000
0000
0000
,  // measure 6
0100
0000
0000
0000
,  // measure 7
1000
0000
0000
0000
,  // measure 8
0010
0000
0000
0000
,  // measure 9
0100
0000
0000
0000
,  // measure 10
0001
0000
0000
0000
,  // measure 11
0100
0000
1000
0000
,  // measure 12
0010
0000
0100
0000
,  // measure 13
0001
0000
0000
0000
,  // measure 14
1000
0000
0000
0000
,  // measure 15
0010
0000
0000
0000
,  // measure 16
0100
0000
0000
0000
,  // measure 17
0010
0000
0000
1000
,  // measure 18
0100
1000
0010
0100
,  // measure 19
0000
0000
0010
0000
,  // measure 20
0000
1000
0000
0000
,  // measure 21
0100
0000
0000
0000
,  // measure 22
1000
0000
0000
0000
,  // measure 23
0001
0000
0000
0000
,  // measure 24
0100
0000
0000
0000
,  // measure 25
0010
0000
0000
0000
,  // measure 26
1000
0000
0000
0000
,  // measure 27
0010
0000
0000
0000
,  // measure 28
0100
1000
0010
0100
,  // measure 29
0000
0010
0000
1000
,  // measure 30
0000
0010
0000
0001
,  // measure 31
0000
0010
0000
0100
,  // measure 32
0000
0100
0000
1000
,  // measure 33
0000
1000
0000
0010
,  // measure 34
0000
0100
0000
0001
,  // measure 35
0000
1000
0000
0010
,  // measure 36
1000
0010
0100
1000
,  // measure 37
0000
0010
0000
1000
,  // measure 38
0000
0001
0000
0100
,  // measure 39
0000
0100
0000
0010
,  // measure 40
0000
1000
0000
0000
,  // measure 41
0000
0001
0000
0000
,  // measure 42
0000
1000
0000
0000
,  // measure 43
0000
0100
0000
0000
,  // measure 44
0000
0001
0000
0100
,  // measure 45
0000
1000
0000
0001
,  // measure 46
0000
0100
0000
0010
,  // measure 47
0000
0000
0000
0100
,  // measure 48
0000
0000
0000
0001
,  // measure 49
0000
0000
0000
1000
,  // measure 50
0000
0000
0000
0010
,  // measure 51
0000
0000
0000
1000
,  // measure 52
0000
0000
0000
0001
,  // measure 53
0000
0000
0000
0100
,  // measure 54
0000
0000
0000
0010
,  // measure 55
0000
0000
0000
1000
,  // measure 56
0000
0000
0000
0001
,  // measure 57
0000
0000
0000
0000
,  // measure 58
0000
0010
0000
0000
,  // measure 59
0000
0001
0000
0000
,  // measure 60
1000
1000
0000
0000
,  // measure 61
0002
0000
0000
0000
,  // measure 62
0003
0000
0000
0000
;

//---------------dance-single - ----------------
#NOTES:
     dance-single:
     :
     Easy:
     3:
     0.217,0.225,0.118,0.044,0.000,184.000,16.000,6.000,0.000,0.000:  // measure 1
0000
0000
0000
0000
,  // measure 2
0000
0000
0000
0000
,  // measure 3
1000
0010
1000
0001
,  // measure 4
1000
0100
0000
0100
,  // measure 5
0000
0100
0000
0001
,  // measure 6
1000
0100
0001
0001
,  // measure 7
0001
1000
0000
0000
0100
0000
0001
0000
,  // measure 8
0001
0000
0100
0010
,  // measure 9
1000
0001
0100
0010
,  // measure 10
0010
1000
0001
0001
,  // measure 11
0000
0100
1000
1000
,  // measure 12
0100
0010
0000
0100
,  // measure 13
0010
0001
0000
0001
,  // measure 14
0000
1000
0010
0100
,  // measure 15
0001
0010
1000
0010
,  // measure 16
0100
0001
0002
1000
,  // measure 17
0003
1000
0010
0100
,  // measure 18
0100
0010
0000
1000
,  // measure 19
0001
0010
0100
0001
,  // measure 20
0000
0010
1000
0020
,  // measure 21
0130
0001
1000
1000
,  // measure 22
0010
0010
0100
0100
,  // measure 23
0001
0001
0000
0001
,  // measure 24
0000
1000
0010
0100
,  // measure 25
0001
0010
0000
0001
,  // measure 26
0000
1000
0001
0010
,  // measure 27
0000
1100
0000
0010
,  // measure 28
0000
0000
0011
0000
0000
0000
1000
0001
,  // measure 29
0000
0000
0010
0000
0000
0000
1000
0001
,  // measure 30
0000
1100
0000
0011
,  // measure 31
0000
0110
0000
1001
,  // measure 32
0000
1001
0000
1100
,  // measure 33
0100
0001
0010
1000
,  // measure 34
0100
1000
0010
0100
,  // measure 35
0000
0010
0100
0001
,  // measure 36
0010
1000
0100
0100
,  // measure 37
1001
0000
0001
1000
,  // measure 38
0010
0100
0001
1000
,  // measure 39
1000
0010
1000
0100
,  // measure 40
0010
0001
0100
0002
,  // measure 41
0000
0103
0000
1000
,  // measure 42
0100
0001
0000
1000
,  // measure 43
0100
0100
0000
0010
,  // measure 44
0001
0100
0001
0010
,  // measure 45
0100
0000
0001
0100
,  // measure 46
1000
0010
0001
0100
,  // measure 47
0001
0000
0010
0000
1000
0000
1000
1000
,  // measure 48
0001
0000
0100
0000
0000
0000
1000
0010
,  // measure 49
0000
0000
0001
0000
0000
0000
0100
0010
,  // measure 50
0000
0000
1000
0000
0000
0000
0010
0100
,  // measure 51
0000
0020
1000
0000
,  // measure 52
0100
0000
1030
0000
,  // measure 53
0100
0010
0000
0001
,  // measure 54
1000
1000
0000
1000
,  // measure 55
0010
0001
0000
0010
,  // measure 56
0100
0100
0000
0001
,  // measure 57
0000
1000
0000
0100
,  // measure 58
0000
0011
0000
1100
,  // measure 59
0000
0110
0000
0110
,  // measure 60
0000
1001
0000
1100
,  // measure 61
2002
0000
0000
0000
,  // measure 62
3003
0000
0000
0000
;

//---------------dance-single - ----------------
#NOTES:
     dance-single:
     :
     Medium:
     6:
     0.379,0.428,0.140,0.037,0.015,335.000,19.000,5.000,0.000,0.000:  // measure 1
0000
0000
0000
0000
,  // measure 2
0000
0000
0000
0000
,  // measure 3
1000
0000
0100
0000
0010
0001
0100
0000
,  // measure 4
1000
0100
0010
0000
0001
0000
1001
0000
,  // measure 5
0001
0100
0010
0000
1000
0001
1000
0000
,  // measure 6
1000
0100
0010
0000
0001
0000
0100
0100
,  // measure 7
1001
0000
0001
0000
0010
1000
0100
0000
,  // measure 8
0010
0100
1000
0000
0010
0000
0101
0000
,  // measure 9
1000
0001
0100
0000
0010
0100
0010
0000
,  // measure 10
1000
0100
0010
0000
1000
0000
0001
0001
,  // measure 11
0011
0000
1000
0000
0100
0010
0001
0000
,  // measure 12
0001
0010
0100
0000
1000
0000
1010
0000
,  // measure 13
0100
0001
0010
0000
0001
0100
0001
0000
,  // measure 14
1000
0010
0100
0000
0001
0000
1000
1000
,  // measure 15
1100
0000
1000
0100
0000
0000
0001
0100
,  // measure 16
0000
0000
0010
0100
0000
0000
1000
0010
,  // measure 17
1000
0100
0010
0100
1000
0001
0100
0000
,  // measure 18
1001
0000
1001
0000
0100
0010
0100
0000
,  // measure 19
0101
0000
0100
0100
0010
0100
0001
0000
,  // measure 20
1000
0100
1000
0100
1000
0010
0100
0000
,  // measure 21
1000
0000
1000
0000
0001
0100
0001
0001
,  // measure 22
1000
0000
0010
0100
0001
0000
0001
1000
,  // measure 23
1001
0000
0200
0000
0000
0300
0100
0010
,  // measure 24
0000
0000
2000
0000
0000
3000
1000
0001
,  // measure 25
0000
0000
0020
0000
0000
0030
0010
0100
,  // measure 26
0000
0000
0002
0000
0000
0003
0001
0010
,  // measure 27
0100
1000
0100
0000
0010
0001
0010
0000
,  // measure 28
0001
0100
0001
0010
0100
1000
0001
0000
,  // measure 29
1000
0100
0010
0000
0001
0100
0010
0000
,  // measure 30
1000
0100
0010
0001
0010
0100
1000
0000
,  // measure 31
1100
0000
1000
0000
0001
0100
0001
0010
,  // measure 32
0100
0000
1000
0000
0100
0010
0001
0000
,  // measure 33
1001
0001
0100
0000
0100
0010
1000
0000
,  // measure 34
0001
0010
0001
0010
0000
0100
0001
0000
,  // measure 35
0101
0000
0001
0000
1100
0000
1000
0010
,  // measure 36
0100
0000
0000
0000
0100
0000
0000
0000
0010
1000
0010
1000
0010
0000
0100
0000
,  // measure 37
1001
0000
1000
0001
0100
0010
1000
0100
,  // measure 38
0010
0000
0001
0000
0100
0000
0010
0010
,  // measure 39
0010
0000
1000
0001
1000
0100
0010
0001
,  // measure 40
0100
0000
0010
0000
1000
0000
0100
0001
,  // measure 41
0010
0000
1000
0000
0100
0000
1000
0100
,  // measure 42
1000
0000
0001
0000
0100
0000
0001
0100
,  // measure 43
0001
0000
0010
0000
0010
0000
0100
1000
,  // measure 44
0010
0000
0010
1000
0100
0010
0001
0100
,  // measure 45
1001
0000
0100
0000
0010
1000
0010
0000
,  // measure 46
0100
0010
0001
0100
0010
1000
0001
0000
,  // measure 47
1001
0000
0010
0000
0100
1000
0100
0000
,  // measure 48
0010
0001
0010
0100
0010
1000
1000
0000
,  // measure 49
0101
0000
1000
0000
0100
1000
0010
0000
,  // measure 50
0100
0001
0100
0000
0001
0010
0100
0010
,  // measure 51
0001
0000
1000
0000
0010
1000
0100
0000
,  // measure 52
0010
0001
1000
0100
0010
0000
0001
0001
,  // measure 53
1001
0000
0001
0100
0001
1000
0100
0000
,  // measure 54
0010
0100
1000
0000
0100
0000
0010
0001
,  // measure 55
0100
0000
0010
0000
1000
0100
1000
0000
,  // measure 56
0001
1000
0001
0000
0010
0000
0001
0100
,  // measure 57
0010
0000
1000
0000
0010
0100
0001
0000
,  // measure 58
1000
0010
0100
0001
0001
0000
0100
0001
,  // measure 59
1000
0100
1000
0100
0010
0100
0010
0001
,  // measure 60
0010
0000
0001
0000
0100
0000
0010
0000
1000
0000
1000
0000
0001
0100
0001
0100
,  // measure 61
0002
0000
0000
0000
,  // measure 62
0003
0000
0000
0000
;

//---------------dance-single - ----------------
#NOTES:
     dance-single:
     :
     Hard:
     9:
     0.609,0.540,0.443,0.074,0.421,507.000,60.000,10.000,0.000,0.000:  // measure 1
0000
0000
0000
0000
,  // measure 2
0000
0000
0000
0000
,  // measure 3
1001
0000
0001
0000
1000
0000
0100
0000
0010
0001
0010
0001
0010
0000
1000
0000
,  // measure 4
0000
0100
0000
0100
0010
0000
0010
0000
1000
0010
0100
0001
0100
0000
0010
0000
,  // measure 5
1001
0000
0000
0000
0001
0000
0001
0000
0100
0000
0010
1000
0010
0000
0100
0000
,  // measure 6
0101
0000
0101
0000
1000
0000
0100
0000
0010
0001
0000
0001
1000
0000
1100
0000
,  // measure 7
1001
0000
0010
0000
0100
0000
1000
0000
0001
0100
0001
0100
0001
0000
1000
0000
,  // measure 8
0000
0010
0000
0010
0100
0000
0100
0000
0001
0010
0001
0100
0010
0000
1000
0000
,  // measure 9
1100
0000
0000
0000
1000
0000
1000
0000
0010
0000
0100
0001
0100
0000
0010
0000
,  // measure 10
1010
0000
1010
0000
0100
0000
0001
0000
0001
0010
0000
1000
0100
0000
0011
0000
,  // measure 11
1001
0000
0100
0000
0010
0000
1000
0000
0100
1000
0100
1000
0100
0000
0010
0000
,  // measure 12
0000
0001
0000
0001
1000
0000
1000
0000
0010
0100
0001
0100
0010
0000
0100
0000
,  // measure 13
0101
0000
0000
0000
1000
0000
1000
0000
0001
0000
0010
0100
0010
0000
0001
0000
,  // measure 14
1001
0000
1001
0000
0100
0000
0010
0000
1000
0100
0000
0001
0100
0000
1010
0000
,  // measure 15
1001
0000
0101
1100
0000
0000
0101
0011
,  // measure 16
0000
0000
1010
1100
0000
0000
1100
0101
,  // measure 17
0010
1000
0000
0100
0000
0100
1000
0000
0001
1000
0000
0010
0001
0000
0001
0000
,  // measure 18
1000
1000
0100
0100
0120
0000
0001
0031
,  // measure 19
1000
0000
0100
0000
0010
0000
0100
0000
0010
0001
0010
0100
0010
0000
0001
0000
,  // measure 20
1000
0100
1000
0000
0001
0100
0001
0000
0010
0000
0010
0000
0010
1000
0100
0000
,  // measure 21
0010
0001
0000
0100
0000
0010
1000
0000
0010
0100
0000
0100
0010
0000
0001
0000
,  // measure 22
0100
0100
0010
0010
2010
0000
0100
3100
,  // measure 23
1001
0000
0200
0000
0000
0000
0310
2000
,  // measure 24
0000
0000
0100
0000
0000
0000
3100
0020
,  // measure 25
0000
0000
0001
0000
0000
0000
0031
0200
,  // measure 26
0000
0000
0010
0000
0000
0000
0301
1000
,  // measure 27
0110
0000
0010
0000
0100
0000
0010
0000
1000
0000
1000
0000
0001
1000
0001
0000
,  // measure 28
1000
0100
1000
0000
0001
0010
0001
0000
0000
0000
0001
0100
0001
0100
0001
0000
,  // measure 29
1000
0100
0000
1000
0100
1000
0000
0000
0010
0000
0100
0010
0000
0010
1000
0000
,  // measure 30
1000
0010
1000
0000
0001
0010
0001
0000
0000
0000
1000
0100
1000
0100
1000
0000
,  // measure 31
1001
0001
0100
0001
0010
0100
1000
0001
,  // measure 32
0100
0010
0100
0000
0010
0100
0010
0000
0000
0000
1000
0010
1000
0010
1000
0000
,  // measure 33
0001
0010
0000
0001
0010
0001
0000
0000
1000
0000
0100
0010
0000
0010
0001
0000
,  // measure 34
0001
1000
0001
0000
0010
0100
0010
0000
0000
0000
0001
1000
0001
1000
0001
0000
,  // measure 35
0102
0000
0000
0000
0103
0000
0000
0000
2010
0000
0000
0000
3010
0000
1000
0001
,  // measure 36
1000
0000
0001
1000
0001
0000
0010
0100
0010
0100
0010
0100
0010
0000
0010
0000
,  // measure 37
1001
0000
1000
0001
0100
0010
0100
0001
,  // measure 38
0011
0100
1000
0100
0011
0010
0100
1000
,  // measure 39
1010
0000
0001
1000
0100
0010
0100
1000
,  // measure 40
1100
0010
0001
0100
1100
0010
0100
1000
,  // measure 41
0101
0000
0010
0100
0001
1000
0100
1000
,  // measure 42
0110
1000
0001
0100
0110
1000
0001
0010
,  // measure 43
1100
0000
0001
0010
0100
1000
0100
0010
,  // measure 44
0101
0001
1000
0010
0101
0001
1000
0010
,  // measure 45
1001
0000
0000
0000
0001
0000
0010
0000
1000
0100
1000
0000
0001
0100
0001
0000
,  // measure 46
1010
0000
0100
0000
0001
0100
0010
0000
1100
0000
0010
0000
0100
0010
0001
0000
,  // measure 47
0101
0000
0000
0000
0010
0000
1000
0000
0100
0010
0100
0000
0001
0010
0001
0000
,  // measure 48
1010
0000
0100
0000
0001
0100
0010
0000
1001
0000
1000
0000
0100
1000
0010
0000
,  // measure 49
1100
0000
0000
0000
0010
0000
0001
0000
1000
0010
1000
0000
0100
1000
0100
0000
,  // measure 50
0110
0000
0010
0000
0001
0100
0010
0000
1100
0000
0001
0000
0100
0010
1000
0000
,  // measure 51
0011
0000
0000
0000
0100
0000
0001
0000
0010
0100
0010
0000
0001
0010
0001
0000
,  // measure 52
0101
0000
0100
0000
0010
1000
0100
0000
1010
0000
0010
0000
1000
0010
0100
0000
,  // measure 53
1001
0000
0000
0000
0001
0000
0100
0000
0010
1000
0100
0010
0001
0100
0010
0000
,  // measure 54
1000
0000
1000
0000
0100
0010
0001
0000
0001
0100
0001
0100
0001
0000
0100
0000
,  // measure 55
0011
0000
0000
0000
0100
0000
0010
0000
1000
0010
0100
0001
1000
0010
0100
0000
,  // measure 56
0001
0000
0001
0000
0100
0001
0010
0000
0100
1000
0100
1000
0100
0000
1000
0000
,  // measure 57
0101
0000
0000
0000
0010
0000
1000
0000
0010
0100
1000
0100
0001
1000
0100
0000
,  // measure 58
0010
0000
0010
0000
0001
0100
1000
0000
0001
0010
0001
0010
0001
0000
0100
0000
,  // measure 59
1100
0000
0000
0000
1000
0000
0001
0000
0010
0001
0100
0010
1000
0100
1000
0000
,  // measure 60
0100
0000
0100
0000
0010
0001
0100
0000
0010
1000
0000
1000
0100
0000
0010
0000
,  // measure 61
2002
0000
0000
0000
,  // measure 62
3003
0000
0000
0000
;

//---------------dance-single - ----------------
#NOTES:
     dance-single:
     :
     Challenge:
     12:
     1.000,1.000,1.000,0.089,1.000,914.000,177.000,12.000,0.000,0.000:  // measure 1
0000
0000
0000
0000
,  // measure 2
0000
0000
0000
0000
,  // measure 3
1001
0000
0001
0000
1010
0000
0100
0000
1010
0100
0011
0100
1001
0000
1000
0000
,  // measure 4
0010
0100
0010
0100
0010
0100
0010
0000
1001
0000
0000
0000
0010
0000
0000
0000
1000
0000
0010
0000
1100
0000
0001
0000
0110
0000
0000
0000
1010
0000
0100
0000
,  // measure 5
1001
0010
0000
0101
0000
1100
0000
0000
0100
0100
0011
1000
0010
0000
0100
0000
,  // measure 6
0101
0000
0101
0000
1010
0000
0101
0000
1001
0010
1001
0100
1001
0000
1100
0000
,  // measure 7
1001
0000
0010
0000
1100
0000
1000
0000
0110
1000
0011
0100
1010
0000
1001
0000
,  // measure 8
1000
0100
1000
0100
1000
0100
1000
0000
0010
0000
0100
0000
0010
0000
1000
0000
0001
0000
1010
0000
0001
0000
0100
0000
1001
0000
0000
0000
1000
0000
0000
0000
,  // measure 9
1100
1100
0000
1100
0000
0101
0000
0000
0010
0100
1010
0001
0110
0000
0010
0000
,  // measure 10
1010
0000
1010
0000
0100
0000
0101
1000
0101
0010
0101
1000
0101
0000
0011
0000
,  // measure 11
1001
0000
0101
0000
1010
0000
1000
0000
1100
0110
0011
0110
1100
0000
0010
0000
,  // measure 12
1000
0001
1000
0001
1000
0001
1000
0000
0010
0000
0000
0000
1000
0000
0000
0000
0010
0000
1100
0000
0001
0000
0100
0000
1010
0000
0000
0000
0100
0000
0000
0000
,  // measure 13
0202
0000
0000
0303
1001
0000
0100
1000
0001
1000
0010
0100
0011
1000
0001
0010
,  // measure 14
0100
0000
0010
0000
1000
0000
0001
0000
1100
0000
0001
0000
0010
0000
0100
0000
1000
0001
0100
1000
0010
0100
0001
0000
1100
0000
0001
0000
1010
0000
0000
0000
,  // measure 15
1001
0000
0000
0000
0101
0000
1100
0000
0110
1001
0110
1001
0110
0000
0011
0000
,  // measure 16
1000
0100
0010
0001
0010
0100
0001
0000
1010
0000
0000
0000
1100
0000
0000
0000
0102
0000
0000
0000
0000
0000
0003
0000
1100
0000
0000
0000
0101
0000
0000
0000
,  // measure 17
0010
0000
1000
0000
0000
0000
0110
0000
0000
0000
0100
0000
0120
0000
0000
0030
0102
0000
1000
0000
0000
0003
1020
0000
0001
0000
0000
0030
0001
0000
0000
0000
,  // measure 18
1200
0000
1300
0000
0102
0000
0103
0000
0220
0000
0330
0000
0011
1100
0011
1100
,  // measure 19
1001
0000
0100
0000
0011
0000
0100
0000
1010
0001
0110
0001
1010
0000
0101
0000
,  // measure 20
1000
0100
0010
0001
0010
0100
1000
0000
0010
0000
0100
0000
0001
0000
0100
0000
0010
0000
1000
0000
0010
0000
0100
0000
0011
0000
1000
0000
0100
0000
0000
0000
,  // measure 21
0010
0001
1000
0100
1001
0010
1000
0001
1000
0010
1000
0100
0011
0100
0001
0010
,  // measure 22
0100
1000
0100
0010
1100
0001
0010
0100
1100
0001
0001
0000
0110
0000
0110
0110
,  // measure 23
1001
0000
0000
0000
0110
1000
0100
1000
0100
0010
0100
0010
1100
0010
0001
0010
,  // measure 24
1000
0010
1000
0010
0011
1000
0100
1000
0010
1000
0100
0010
1001
0000
0110
0001
,  // measure 25
0010
0100
1000
0010
0101
0001
0010
0100
1000
0010
0100
0001
1100
0001
0100
0010
,  // measure 26
1000
0100
0010
0001
1010
0001
0010
0100
1000
0010
0100
0001
1010
0000
1010
0000
,  // measure 27
0110
1000
0001
0100
0010
1000
0100
0010
0001
0100
0010
1000
0001
0100
0010
0100
,  // measure 28
1000
0100
0010
0001
0100
0000
1000
0000
0001
0000
1000
0000
0010
0100
1000
0001
0010
0000
0001
0000
1000
0000
0100
0000
0010
0000
0001
0000
0100
0000
0010
0000
,  // measure 29
1000
0100
0010
1000
0100
1000
0001
1000
0010
0001
0100
0010
0100
0010
1000
0001
,  // measure 30
1000
0100
0010
0001
1000
0000
0100
0000
0001
0000
0010
0000
0001
0010
0100
1000
0010
0000
0001
0000
1000
0000
0100
0000
1000
0000
0100
0000
1000
0000
0010
0000
,  // measure 31
1001
0010
0001
1000
0001
0010
0001
0100
0010
1000
0001
0100
0010
1000
0010
0100
,  // measure 32
0001
0010
0100
1000
0010
0000
0100
0000
0010
0000
0001
0000
0100
1000
0001
0010
0100
1000
0001
0000
0100
0000
0010
0000
0100
0000
0010
0000
1000
0000
0010
0000
,  // measure 33
1001
0010
0001
0010
0100
1000
0010
0001
0100
0010
1000
0100
0001
0010
0001
0100
,  // measure 34
1000
0100
0010
0001
0100
0000
1000
0000
0010
0000
0100
0000
0010
0100
0001
0010
0100
1000
0100
0010
0001
0100
1000
0000
0001
0000
1000
0000
1001
0000
0110
0000
,  // measure 35
0100
0000
0000
0000
0100
0000
0000
0000
0010
0000
0000
0000
0010
0000
1000
0001
,  // measure 36
1000
0000
0000
0000
1000
0100
0010
0001
0100
0000
0000
0000
0011
0000
0011
0000
0100
0000
0010
0000
1000
0001
0010
0100
1000
0000
0110
0000
1001
0000
0110
0000
,  // measure 37
1001
0000
0000
0000
1001
0100
0001
0010
0100
1000
0010
0001
1100
0010
0001
1000
,  // measure 38
0010
1000
0100
0001
1100
0010
0100
1000
0010
0100
0010
0001
1100
0010
1100
0001
,  // measure 39
1010
0100
0010
1000
0101
0010
1000
0100
0001
1000
0010
0001
1100
0010
1000
0001
,  // measure 40
1000
0100
0010
0001
0010
0000
1000
0000
0011
0000
0100
0000
0010
0100
0001
0010
0100
0000
0001
0000
0010
0000
1000
0000
0110
0000
1000
0000
0010
0000
0001
0000
,  // measure 41
0101
1000
0001
1000
0110
0001
0100
0010
0001
0100
1000
0010
1100
0001
1000
0001
,  // measure 42
1000
0100
0010
0001
1000
0000
0100
0000
0001
0000
0100
0000
0001
0010
0100
1000
0100
0000
0001
0000
1000
0000
0100
0000
0011
0000
1000
0000
0010
0000
0001
0000
,  // measure 43
1100
0010
1000
0100
0011
1000
0010
0001
0100
0010
1000
0001
0110
1000
0010
1000
,  // measure 44
0001
0010
0100
1000
0010
0000
0100
0000
1010
0000
0001
0000
1000
0100
0010
0001
0100
0001
1000
0010
1000
0001
0100
0010
1000
0000
0001
0000
0010
0000
0100
0000
,  // measure 45
1001
0010
1000
0100
0011
1000
0010
0001
1000
0100
1000
0010
1001
0100
0001
0100
,  // measure 46
0010
0100
0010
0100
0001
0000
1000
0000
0010
0000
0100
0000
1000
0001
0010
0001
0010
0000
0100
0000
0010
0000
1000
0000
0101
0000
0010
0000
0001
0000
1000
0000
,  // measure 47
0101
0010
0001
0100
1010
0001
1000
0010
0100
0010
0100
1000
0101
0010
0001
0100
,  // measure 48
0001
0100
0001
0100
0010
0000
1000
0000
0011
0000
0100
0000
1000
0100
0010
0001
0100
0000
0010
0000
1000
0000
0001
0000
0110
0000
1000
0000
0010
0000
0001
0000
,  // measure 49
1100
0001
0100
1000
0011
0100
0001
0010
1000
0010
1000
0001
0110
1000
0100
0001
,  // measure 50
1000
0100
1000
0100
1000
0000
0100
0000
0011
0000
0100
0000
0010
1000
0010
1000
0010
0000
0100
0000
0001
0000
1000
0000
0101
0000
0010
0000
1000
0000
0100
0000
,  // measure 51
0011
1000
0010
0001
0110
1000
0001
0100
0010
0100
0010
1000
0101
0010
0001
0010
,  // measure 52
1000
0100
0010
0001
0100
0000
0001
0000
0010
0000
1000
0000
0100
0010
0001
0100
1000
0010
0100
0001
0010
0100
0001
0000
1000
0000
0010
0000
0100
0000
0010
0000
,  // measure 53
1001
0100
0010
1000
0101
0010
0100
0001
0010
1000
0100
0010
1001
0100
0010
0001
,  // measure 54
1000
0100
0010
0001
0100
0000
0001
0000
1100
0000
0010
0000
0001
0010
0100
1000
0001
0000
0100
0000
0001
0000
0100
0000
0011
0000
1000
0000
0100
0000
1000
0000
,  // measure 55
0011
1000
0010
0001
0110
1000
0010
0001
1000
0010
0100
0001
1001
0010
0100
1000
,  // measure 56
0010
0100
0010
0100
0010
0000
1000
0000
0110
0000
0001
0000
0010
0001
0010
0100
1000
0000
0010
0000
0100
0000
1000
0000
0101
0000
0010
0000
1000
0000
0010
0000
,  // measure 57
0101
1000
0001
0100
1010
0001
1000
0001
0010
0100
1000
0100
0011
1000
0100
0010
,  // measure 58
0001
0010
0100
1000
0010
0000
0100
0000
1001
0000
0100
0000
1000
0100
0010
0001
0100
0000
0010
0000
0001
0000
0010
0000
1001
0000
0010
0000
1100
0000
0001
0000
,  // measure 59
1100
0010
0100
0010
1001
0010
0001
1000
0010
0001
0100
0010
1001
0100
1000
0001
,  // measure 60
0100
0010
0100
0010
0100
0000
1000
0000
0010
0000
0001
0000
1100
0010
0001
0010
0100
1000
0100
0010
0001
0010
0100
1000
0010
0000
1100
0000
0011
0000
0100
0000
,  // measure 61
2002
0000
0000
0000
,  // measure 62
0000
3003
0000
0000
;
