#TITLE:Super Mario World level 2;
#SUBTITLE:;
#ARTIST:Unknown artist;
#TITLETRANSLIT:;
#SUBTITLETRANSLIT:;
#ARTISTTRANSLIT:;
#CREDIT:;
#BANNER:bn.JPG;
#BACKGROUND:bg.jpg;
#LYRICSPATH:;
#CDTITLE:CDTitle.png;
#MUSIC:24)Super Mario World level 2.wav;
#OFFSET:-0.469;
#SAMPLESTART:38.276;
#SAMPLELENGTH:12.000;
#SELECTABLE:YES;
#BPMS:0.000=158.709,2.000=158.700,31.000=158.709,33.000=158.700,62.000=158.709,64.000=158.700,93.000=158.709,95.000=158.700,124.000=158.709,126.000=158.700;
#STOPS:;
#BGCHANGES:;
// cache tags:
#FIRSTBEAT:0.000;
#LASTBEAT:131.000;
#SONGFILENAME:Songs/IcyWorld MiniPack/Super Mario World level 2/24)Super Mario World level 2.sm;
#HASMUSIC:1;
#HASBANNER:1;
#MUSICLENGTH:52.384;
// end cache tags

//---------------dance-single - ----------------
#NOTES:
     dance-single:
     :
     Hard:
     7:
     0.982,1.000,1.000,0.000,1.000,289.000,69.000,0.000,0.000,2.000:
0011
0000
0100
0000
1000
0000
0011
0000
0000
0000
0000
0000
0010
0000
0100
0000
1001
0000
0000
0000
0100
0001
0000
0000
0100
0001
0000
0000
0000
0000
0000
0000
,
0000
0100
0011
1000
0100
0011
0000
0100
0011
1000
0100
0011
0000
0000
1000
0000
,
0000
0100
0011
1000
0100
0011
0000
0100
0011
1000
0100
0011
0000
0000
1000
0000
,
0000
1000
0011
1000
0100
0011
0000
1000
0011
1000
0100
0011
0000
0000
1000
0000
,
0000
1000
0011
1000
0100
0011
0100
1000
0011
0000
0011
0000
0101
0000
1011
0000
,
0000
0100
0011
1000
0100
0011
0000
0100
0011
1000
0100
0011
0000
0000
1000
0000
,
0000
0100
0011
1000
0100
0011
0000
0100
0011
1000
0100
0011
0000
0000
1000
0000
,
0000
0010
1001
0100
0010
1001
0000
0010
1001
0100
0010
1001
0000
0000
1000
0000
,
0000
1000
0010
0001
0000
1000
0100
0010
0101
0000
1010
0000
0101
0000
0000
0000
,
0001
0000
0000
0000
0010
0000
0000
0100
0010
0001
0000
0001
0000
0000
0000
0010
,
0100
0000
0010
0000
0010
0000
0001
0000
0100
0000
0000
1000
0000
0000
0000
0010
,
0001
0000
0000
0000
0100
0000
0000
0100
0010
0001
0000
0001
0000
0000
0000
0010
,
0100
0000
0010
0000
0001
0010
0100
1000
0000
0000
0000
0000
0000
0000
0000
0000
,
0001
0000
0000
0000
0100
0000
0000
0100
0010
0001
0000
0001
0000
0000
0000
0010
,
0100
0000
0010
0000
0010
0000
0001
0000
0100
0000
0000
1000
0000
0000
0000
0010
,
0001
0000
0000
0000
0100
0000
0000
0100
0010
0001
0000
0001
0000
0000
0000
0010
,
0100
0000
0010
0000
0001
0010
0100
1000
0000
0000
0000
0000
0000
0000
0000
0000
,
0001
0000
0000
0010
0000
0000
0100
0000
0001
0000
0000
0010
0000
0000
0000
0000
,
0010
0100
1000
0000
0010
0000
0000
0100
0000
0000
0000
0000
0000
0000
0000
0000
,
0001
0000
0000
0010
0000
0000
0100
0000
0001
0000
0000
0010
0000
0000
0000
0000
,
0010
0100
1000
0000
0001
0000
0000
0000
0000
0000
0000
0000
0000
0000
0000
0000
,
0001
0000
0000
0000
0100
0000
0000
0100
0010
0001
0000
0001
0000
0000
0000
0010
,
0001
0010
0100
0000
0010
0000
0000
0001
0000
0000
0000
0000
0000
0000
0100
0001
,
0100
0000
0001
0000
0100
0000
0001
0000
0100
0000
0000
0100
0001
0010
0100
0000
,
1000
0000
0001
0100
0000
0001
0100
0000
0001
0100
1000
0010
0000
0000
1000
0000
,
0000
0100
0011
1000
0100
0011
0000
0100
0011
1000
0100
0011
0000
0000
1000
0000
,
0000
0100
0011
1000
0100
0011
0000
0100
0011
1000
0100
0011
0000
0000
1000
0000
,
0000
1000
0011
1000
0100
0011
0000
1000
0011
1000
0100
0011
0000
0000
1000
0000
,
0000
1000
0011
1000
0100
0011
0100
1000
0011
0000
0011
0000
0101
0000
1011
0000
,
0000
0100
0011
1000
0100
0011
0000
0100
0011
1000
0100
0011
0000
0000
1000
0000
,
0000
0100
0011
1000
0100
0011
0000
0100
0011
1000
0100
0011
0000
0000
1000
0000
,
0000
0010
1001
0100
0010
1001
0000
0010
1001
0100
0010
1001
0000
0000
1000
0000
,
0000
1000
0010
0001
0000
1000
0100
0010
0101
0000
1010
0000
0101
0000
0000
0000
,
0000
0000
0000
0000
,
0000
0000
0000
0000
;
