#TITLE:Moulin Rouge;
#SUBTITLE:(DB Kaos And KK);
#ARTIST:Dom and Kemal;
#TITLETRANSLIT:;
#SUBTITLETRANSLIT:;
#ARTISTTRANSLIT:;
#CREDIT:;
#BANNER:mr-bn.png;
#BACKGROUND:mr-bg.png;
#LYRICSPATH:;
#CDTITLE:cdtitle.PNG;
#MUSIC:Dom And Kemal - Moulin Rouge (DB Kaos And KK).mp3;
#OFFSET:0.973;
#SAMPLESTART:32.820;
#SAMPLELENGTH:10.900;
#SELECTABLE:YES;
#BPMS:0.000=174.760,96.000=87.380,98.000=174.760,160.000=87.380,161.000=174.760,193.000=87.380,194.500=174.760,255.500=87.380,256.000=174.760,348.500=87.380,349.500=174.760;
#STOPS:;
#BGCHANGES:;
// cache tags:
#FIRSTBEAT:4.000;
#LASTBEAT:411.000;
#SONGFILENAME:Songs/Fabulously Fresh Flock of Fantastic Files F5/(Zaghurim) Moulin Rouge/Moulin Rouge.sm;
#HASMUSIC:1;
#HASBANNER:1;
#MUSICLENGTH:144.203;
// end cache tags

//---------------dance-single - ----------------
#NOTES:
     dance-single:
     :
     Hard:
     12:
     1.000,1.000,1.000,0.014,1.000,1014.000,248.000,2.000,0.000,1.000:
0000
0000
0000
0000
,
0000
0000
0000
0000
,
0000
0000
0000
0000
,
0000
0000
0000
0000
,
0000
0000
0000
0000
,
0000
0000
0000
0000
,
0000
0000
0000
0000
,
0000
0000
0000
0000
,
0000
0000
0000
0000
,
0000
0000
0000
0000
,
0000
0000
0000
0000
,
0000
0000
0000
0000
,
0000
0000
0000
0000
,
0100
0000
0000
0000
0100
0000
0000
0100
0000
0100
0010
1000
0001
0000
0000
0000
,
0100
0000
0100
0000
0010
0000
0000
0100
0000
0001
0100
0010
1000
0000
0000
0000
,
1000
0000
1000
0000
0001
0000
0000
1000
0000
1000
0001
0100
0010
0001
0000
0001
,
1000
0000
1000
0000
0001
0000
0000
0001
0000
0001
0010
0100
1000
0000
0000
0000
,
0000
0010
0100
1000
0010
0000
0000
0010
0000
0010
1000
0100
0010
0000
0000
0010
,
0000
0010
0100
1000
0010
0000
0000
0010
0000
0010
1000
0100
0010
0000
0000
0010
,
0000
0010
0100
1000
0010
0000
0000
0010
0000
0010
1000
0100
0010
0000
0000
0010
,
0000
0010
0100
1000
0010
0000
0000
0010
0000
0010
1000
0100
0010
0000
0000
0100
,
0001
1000
0001
0100
0010
1000
0001
0100
0010
1000
0001
0100
0010
1000
0001
0100
,
0010
1000
0001
0100
0010
1000
0001
0100
0010
1000
0001
0100
0010
1000
0001
0100
,
0010
0100
0010
0100
0010
0100
0010
0100
0010
0100
0010
0100
0010
0100
0010
0100
,
0020
0000
0000
0000
0000
0000
0000
0000
1031
0000
1000
0000
1001
0000
0001
0100
,
0000
0100
0001
0000
1001
0000
1000
0010
1100
0000
0001
0000
0011
0000
0100
0010
,
1000
0010
1100
0000
0110
0000
1000
0001
0110
0000
0110
0000
1001
0000
0100
0010
,
1000
0010
0101
0000
1000
0100
0011
0000
0011
0000
0011
0000
1001
0000
1000
0010
,
0100
0001
1100
0000
0001
0100
0011
0000
1001
0000
1001
0000
0110
0000
0001
0100
,
0000
0100
0001
0100
1001
0000
0100
0010
1100
0000
1100
0000
0011
0000
0100
0001
,
0100
0001
1100
0000
0001
1000
0001
1000
0011
0000
0011
0000
0101
0000
1000
0010
,
0100
0001
1100
0000
0001
0010
0100
0000
0100
0010
0001
0000
1100
0000
0001
1100
,
0000
0001
1100
0000
0010
0000
1100
0000
1100
0000
0101
0000
0011
0000
0100
0010
,
0000
0010
0100
0010
1001
0000
1000
0010
1100
0000
1100
0000
1001
0000
0100
0001
,
0100
0010
0101
0000
1001
0000
0010
1000
0110
0000
0110
0000
1001
0000
1000
0010
,
0100
0010
1100
0000
0001
0010
0100
1000
0001
0010
0100
0000
1001
0000
0001
0100
,
0010
1000
0011
0000
1000
0010
1100
0000
0100
0001
0100
0000
0011
0000
1000
0001
,
0100
0010
1000
0001
1100
0000
0011
0000
1001
0000
0000
0000
1100
0000
0010
0100
,
0001
1000
0011
0000
1001
0010
0100
0010
1000
0001
1000
0001
1000
0001
1000
0001
,
1000
0001
1000
0001
1000
0001
1000
0010
0100
0001
1000
0010
0100
0001
1000
0010
,
0100
0000
0000
0000
1001
0000
0000
0000
0101
0000
0010
0000
0010
1000
0010
0000
,
1010
0000
0010
0100
0010
1000
0010
0000
1010
0000
0010
1000
0010
0100
0010
0000
,
1001
0000
0100
0010
1001
0000
1000
0010
1100
0000
0001
0100
0010
1000
0011
0000
,
1000
0010
1000
0010
1000
0010
1000
0000
0011
0000
1000
0001
0100
0010
1100
0000
,
0001
0100
0011
0000
0110
0000
0110
0000
0011
0000
1000
0001
0100
0001
1000
0000
,
1001
0000
0001
1000
0001
0100
0001
0000
1100
0000
0001
0100
0010
1000
0011
0000
,
1100
0000
0001
0010
0100
0010
0100
0000
1001
0000
0010
0100
0001
0100
0011
0000
,
1000
0001
0100
0010
1000
0001
0100
0000
1001
0000
0100
0010
0100
0010
1001
0000
,
0101
0000
1001
0000
0011
0000
0000
0100
0010
0100
1001
0000
0010
1000
0010
0000
,
0010
0000
1100
0000
0001
0100
0001
1000
0010
0000
1100
0000
0001
0100
0011
0000
,
0011
0000
1001
0000
0100
0010
1000
0010
1100
0000
0001
0010
0100
0010
0001
0010
,
1100
0000
0011
0000
0001
0100
0010
1000
0011
0000
0100
0010
1100
0000
0011
0000
,
0011
0000
1001
0000
0100
0010
0100
0001
0100
0010
1100
0000
0010
0100
0011
0000
,
0011
0000
1001
0000
1000
0100
0010
0001
1100
0000
0011
0000
1000
0001
1100
0000
,
1100
0000
0011
0000
0100
1000
0001
0100
0011
0000
1000
0000
0101
0000
0000
0000
,
0110
0000
0000
0000
1010
0000
0000
0000
1000
0000
0000
0000
0001
0000
0010
0100
,
0010
0000
1001
0000
1000
0001
1000
0010
1000
0000
0011
0000
1000
0001
1100
0000
,
1100
0000
0011
0000
1000
0001
0100
0010
1100
0000
0011
0000
1000
0001
0110
0000
,
0110
0000
1001
0000
0100
0010
1000
0001
0110
0000
1000
0001
1000
0010
1000
0001
,
1000
0000
1001
0000
0001
1000
0001
1000
0011
0000
1000
0001
1000
0001
0100
0001
,
0110
0000
1001
0000
0010
1000
0010
0100
0001
0000
1001
0000
0010
1000
0101
0000
,
0101
0000
1010
0000
0010
1000
0010
0100
0010
0000
0110
0000
1000
0010
1100
0000
,
1100
0000
0011
0000
0100
1000
0010
0100
0011
0000
0100
0010
0100
0010
0100
0010
,
0100
0010
0100
0010
0100
0010
0100
0010
0100
0010
0100
0010
0100
0010
0101
0000
,
1001
0000
0100
0010
1000
0010
0100
0000
1001
0000
0100
0010
1001
0000
1001
0000
,
0110
0000
1000
0001
0100
0010
1100
0000
1001
0000
0100
0010
1100
0001
0100
0010
,
0100
0010
0100
0010
1100
0000
0100
0010
0100
0010
1100
0000
0100
0010
0100
0000
,
0011
0000
1000
0010
0000
0010
1000
0000
0001
0100
0010
0000
0011
0000
0011
0000
,
1001
0000
0001
0100
0010
1000
0010
0000
1001
0000
1000
0001
0110
0000
0110
0000
,
1001
0000
0001
0100
0001
0100
1010
0000
0001
1000
0001
0000
0110
0000
1000
0000
,
0110
1000
0110
1000
0110
1010
0000
0110
,
0000
0101
0000
0000
0000
0000
0010
0010
,
1001
0000
0100
0010
1000
0001
0100
0000
1001
0000
0100
0010
1100
0000
1100
0000
,
0011
0000
0100
0010
1000
0010
1001
0000
1001
0000
0010
0100
1010
0000
1010
0000
,
1001
0000
0010
0100
0001
0100
0010
0000
1000
0100
0010
0100
1000
0100
0010
0000
,
1001
0000
1000
0010
0000
0010
1000
0000
1000
0010
1000
0000
1001
0000
1001
0000
,
0110
0000
1000
0010
1000
0010
1000
0000
0011
0000
0100
0001
1010
0000
1010
0000
,
1001
0000
1000
0001
1000
0001
1100
0000
1000
0100
0010
0001
0010
0100
1000
0000
,
1001
0000
0100
0010
0100
0010
0101
0000
0001
1000
0010
1000
0001
1000
0001
1000
,
0011
0000
0100
0010
0000
0010
0100
0000
0100
0010
0100
0000
1100
0000
1100
0000
,
1001
0000
0100
0001
0100
0010
0100
0001
1100
0000
0010
0100
0011
0000
0011
0000
,
1100
0000
0010
0100
0010
0100
0011
0000
0001
0100
0010
1000
0001
1000
0001
0000
,
0110
0000
0100
0001
0100
0001
0110
0000
1000
0001
0100
0010
1000
0001
1000
0100
,
0011
0000
1000
0010
0000
0010
1000
0000
1000
0100
0010
0000
1010
0000
1010
0000
,
0101
0000
1000
0001
1000
0010
1000
0001
1100
0000
0001
0100
0011
0000
0011
0000
,
1001
0000
0100
0010
0100
0010
1100
0000
1001
0000
0010
1000
0010
1000
0010
1000
,
0001
1000
0010
1000
0010
1000
0001
1000
0010
1000
0010
1000
0010
1000
0010
0000
,
1001
0000
0020
0000
0000
0000
0030
0000
0100
0000
0100
0000
1001
0000
0100
0010
,
0100
0001
0100
0000
1100
0000
0010
0001
1100
0000
1100
0000
0011
0000
1000
0010
,
0100
0001
0100
0000
0011
0000
0001
0100
0011
0000
0011
0000
0110
0000
1000
0001
,
0100
0010
1000
0000
1000
0100
0010
0100
1000
0100
0010
0000
1001
0000
0010
0100
,
0000
0100
0011
0000
0010
1000
0101
0000
1001
0000
1001
0000
0110
0000
1000
0001
,
0000
0001
1000
0100
0011
0000
1000
0001
1100
0000
1100
0000
0011
0000
1000
0010
,
0000
0010
1000
0100
0011
0000
0100
0010
1100
0000
1100
0000
0011
0000
1000
0010
,
0000
0010
1000
0000
1000
0010
0100
0001
1000
0010
0100
0001
0110
0000
1000
0010
,
0000
0010
1000
0000
0001
1000
0001
0000
1001
0000
1001
0000
0110
0000
1000
0001
,
0100
0010
1000
0000
0011
0000
1000
0001
1100
0000
1000
0100
0011
0000
1000
0001
,
0000
0001
1100
0000
0100
0001
0000
0001
1100
0000
1100
0000
1001
0000
1000
0001
,
0100
0010
1100
0000
1000
0001
1000
0001
1000
0001
1000
0100
0011
0000
1000
0010
,
0000
1000
0010
0000
0100
0010
1100
0000
1001
0000
1001
0000
0101
0000
0010
0001
,
0100
0010
1000
0000
0011
0000
1000
0001
1100
0000
1100
0000
0011
0000
1000
0100
,
0010
0001
1100
0000
0010
0100
0010
0100
0010
1000
0001
0100
0001
1000
0000
0001
,
0000
0001
0100
0001
1000
0010
1000
0000
0010
0100
0010
0000
1001
0000
0000
0000
;

//---------------dance-single - ----------------
#NOTES:
     dance-single:
     :
     Challenge:
     13:
     1.000,1.000,1.000,0.014,1.000,1078.000,278.000,2.000,0.000,1.000:
0000
0000
0000
0000
,
0000
0000
0000
0000
,
0000
0000
0000
0000
,
0000
0000
0000
0000
,
0000
0000
0000
0000
,
0000
0000
0000
0000
,
0000
0000
0000
0000
,
0000
0000
0000
0000
,
0000
0000
0000
0000
,
0000
0000
0000
0000
,
0000
0000
0000
0000
,
0000
0000
0000
0000
,
0000
0000
0000
0000
,
0100
0000
0000
0000
0100
0000
0000
0100
0000
0100
0010
1000
0001
0000
0000
0000
,
0100
0000
0100
0000
0010
0000
0000
0100
0000
0001
0100
0010
1000
0000
0000
0000
,
1000
0000
1000
0000
0001
0000
0000
1000
0000
1000
0001
0100
0010
0001
0000
0001
,
1000
0000
1000
0000
0001
0000
0000
0001
0000
0001
0010
0100
1000
0000
0000
0000
,
0000
0010
0100
1000
0010
1000
0000
0010
0000
0010
1000
0100
0010
1000
0000
0010
,
0000
0010
0100
1000
0010
1000
0000
0010
0000
0010
1000
0100
0010
1000
0000
0010
,
0000
0010
0100
1000
0010
1000
0000
0010
0000
0010
1000
0100
0010
1000
0000
0010
,
0000
0010
0100
1000
0010
1000
0000
0010
0000
0010
1000
0100
0010
1000
0000
0100
,
0001
1000
0001
0100
0010
1000
0001
0100
0010
1000
0001
0100
0010
1000
0001
0100
,
0010
1000
0001
0100
0010
1000
0001
0100
0010
1000
0001
0100
0010
1000
0001
0100
,
0010
0100
0010
0100
0010
0100
0010
0100
0010
0100
0010
0100
0010
0100
0010
0100
,
0020
0000
0000
0000
0000
0000
0000
0000
1031
0000
1000
0000
1010
0000
0010
0100
,
0010
1000
0010
0100
0011
0000
1000
0010
1100
0000
0001
0100
0011
0000
0100
0010
,
1000
0010
1100
0000
0001
0100
0001
0100
1001
0000
0010
1000
0101
0000
0100
0010
,
1000
0010
0101
0000
1000
0001
0010
0100
1000
0001
0100
0010
1100
0000
1000
0010
,
0100
0001
1100
0000
0001
0100
0010
0100
0011
0000
1000
0000
0110
0000
0001
0100
,
0010
1000
0100
0010
1001
0000
0100
0010
1100
0000
0010
0100
0011
0000
0100
0001
,
0100
0001
1100
0000
0001
1000
0001
1000
0011
0000
0001
0000
0101
0000
1000
0010
,
0100
0001
1100
0000
0001
0010
0100
1000
0010
0100
0001
0010
1100
0000
0001
1100
,
0000
0001
1100
0010
0001
0010
1100
0001
0100
0010
0100
0000
0011
0000
0100
0010
,
1000
0001
0100
0010
1001
0000
1000
0010
0100
0001
0100
0010
1001
0000
0100
0001
,
0100
0010
0101
0000
0101
0000
0010
1000
0010
0100
0001
0000
0110
0000
1000
0010
,
0100
0010
1100
0000
0001
0100
0010
1000
0001
0100
0010
0000
0110
0000
0001
0100
,
0010
1000
0011
0000
1000
0010
1100
0010
0100
0001
0100
0000
0011
0000
1000
0001
,
0100
0010
1000
0001
1100
0000
0001
0100
0011
0000
1000
0010
1100
0000
0010
0100
,
0001
1000
0011
0000
1001
0010
0100
0010
1100
0001
1100
0001
1010
0001
1000
0001
,
1000
0001
1100
0001
1000
0001
1000
0010
0100
0001
1000
0010
0100
0001
1000
0010
,
0100
0000
0000
0000
1001
0000
0000
0000
0101
0000
0010
0000
0010
1000
0010
0000
,
1010
0000
0010
0100
0010
1000
0010
0000
1010
0000
0010
1000
0010
0100
0010
0000
,
1001
0000
0100
0010
1001
0000
1000
0010
1100
0000
0001
0100
0010
1000
0011
0000
,
1000
0010
1000
0010
1000
0010
1000
0000
0011
0000
1000
0001
0100
0010
1100
0000
,
0001
0100
0011
1000
0010
0100
0001
0000
0110
0000
1000
0001
0100
0010
1000
0001
,
1100
0000
0001
1000
0001
0100
0001
0010
1100
0000
0001
0100
0010
1000
0011
0000
,
1100
0000
0001
0010
0100
0010
0100
0000
1001
0000
0010
0100
0001
0100
0011
0000
,
1000
0001
0100
0010
1000
0001
0100
0000
1001
0000
0100
0010
0100
0010
1001
0000
,
0101
0000
1001
0000
0011
0000
0000
0100
0010
0100
1001
0100
0010
1000
0010
0100
,
0001
0010
1100
0000
0001
0100
0001
1000
0010
0000
1100
0000
0001
0100
0011
0000
,
0011
0000
1001
0000
0100
0010
1000
0010
1100
0000
0010
0100
1001
0100
0010
0100
,
1001
0000
0110
0000
0001
0100
0010
1000
0011
0000
0100
0010
1100
0000
0011
0000
,
0011
0000
1001
0000
0100
0010
0100
0001
0100
0010
1100
0000
0010
0100
0011
0000
,
0011
0000
1001
0000
1000
0100
0010
0001
1100
0000
0011
0000
1000
0001
1100
0000
,
1100
0000
0011
0000
0100
1000
0001
0100
0011
0000
1000
0000
0101
0000
0010
0001
,
0110
0000
0000
0000
1010
0000
0000
0000
1000
0000
0000
0000
0001
0000
0101
0010
,
0101
0000
1001
0000
1000
0001
1000
0010
1000
0100
0011
0000
1000
0001
1100
0000
,
1100
0000
0011
0000
1000
0001
0100
0010
1100
0000
0011
0000
1000
0001
0110
0000
,
0110
0000
1001
0000
0100
0010
1000
0001
0110
0000
1000
0001
1100
0000
1100
0001
,
0100
0000
0011
0000
0001
1000
0001
1000
0011
0000
1000
0001
1000
0001
0100
0001
,
0110
0000
1001
0100
0010
1000
0010
0100
0001
0100
1001
0000
0010
1000
0101
0000
,
0101
0000
1010
0000
0010
1000
0010
0100
0010
0000
0110
0000
1000
0010
1100
0000
,
1100
0000
0011
0000
0100
1000
0010
0100
0011
0000
0100
0010
0100
0010
0100
0010
,
0100
0010
0100
0010
0100
0010
0100
0010
0100
0010
0100
0010
0100
0010
0101
0000
,
1001
0000
0100
0010
1000
0010
1100
0000
1001
0000
0100
0010
1001
0000
1001
0000
,
0110
0000
1000
0001
0100
0010
1100
0000
1001
0000
0100
0010
1100
0001
0100
0010
,
0100
0010
0100
0010
1100
0000
0100
0010
0100
0010
1100
0010
0100
0010
1100
0000
,
0011
0000
1000
0001
0100
0001
1100
0000
0001
0100
0010
1000
0011
0000
0011
0000
,
1001
0000
0001
0100
0010
1000
0010
0100
0011
0000
1000
0001
0110
0000
0110
0000
,
1001
0000
0001
0100
0001
0100
1010
0000
0001
1000
0001
0000
0110
0000
1000
0000
,
0110
1000
0110
1000
0110
1010
0000
0110
,
0000
0000
0101
0000
0001
0010
0100
1000
0101
0000
0000
0000
0100
0010
0100
0000
,
1001
0000
0100
0010
1000
0001
0100
0010
1001
0000
0100
0010
1100
0000
1100
0000
,
0011
0000
0100
0010
1000
0010
1001
0000
1001
0000
0010
0100
1010
0000
1010
0000
,
1001
0000
0010
0100
0001
0100
0011
0000
1000
0100
0011
0100
1000
0100
0011
0100
,
1001
0000
1000
0101
0000
0101
1000
0000
0100
1000
0011
0000
1001
0000
1001
0000
,
0110
0000
1000
0010
1000
0010
1000
0100
0011
0000
0100
0001
1010
0000
1010
0000
,
1001
0000
1000
0001
1000
0001
1100
0000
1100
0001
0010
0001
1100
0010
0100
0000
,
1001
0000
0100
0010
0100
0010
0101
0000
0001
1000
0010
1000
0001
1000
0001
1000
,
0011
0000
1000
0011
0000
1000
0011
0000
1000
0100
0011
0000
1100
0000
1100
0000
,
1001
0000
0100
0001
0100
0010
0100
0001
1100
0000
0010
0100
0011
0000
0100
0010
,
1100
0000
0010
0100
0010
0100
0011
0000
0011
0100
1000
0100
0011
0000
0011
0000
,
1001
0000
0100
0001
0100
0001
0110
0000
1000
0001
0100
0010
1000
0001
1000
0100
,
0011
0000
1000
0011
0000
1000
0011
0000
1000
0100
0011
0000
1010
0000
1010
0000
,
0101
0000
1000
0001
1000
0010
1000
0001
1100
0000
0001
0100
0011
0000
0011
0000
,
1001
0000
0100
0010
0100
0010
1100
0000
1001
0000
0010
0100
0010
1000
0010
1000
,
0011
1000
0010
1000
0010
1000
0011
1000
0010
1000
0110
1000
0010
1000
0010
0000
,
1001
0000
0020
0000
0000
0000
0030
0000
0100
0010
0100
0000
1001
0000
0100
0010
,
0100
0001
0100
0010
1100
0000
0010
0001
1100
0000
1100
0000
0011
0000
1000
0001
,
0100
0010
1000
0001
1100
0000
0001
0100
0011
0000
0011
0000
0110
0000
1000
0001
,
0100
0010
1100
0000
1000
0100
0011
0100
1000
0100
0011
0000
1001
0000
0010
0100
,
0000
0100
0011
0000
0010
1000
0101
0000
1001
0000
1001
0000
0110
0000
1000
0011
,
0000
0011
1000
0100
0011
0000
1000
0001
1100
0000
1100
0000
0011
0000
1000
0011
,
0000
0011
1000
0100
0011
0000
0100
0010
1100
0000
1100
0000
0011
0000
1000
0011
,
0000
1000
0011
0000
1001
0100
0010
0100
1001
0100
0010
0100
1001
0000
1000
0011
,
0000
0011
1000
0000
0001
1000
0001
0000
1001
0000
1001
0000
0110
0000
1000
0001
,
0100
0010
1000
0100
0011
0000
1000
0001
1100
0000
1000
0100
0011
0000
1000
0001
,
0100
0010
1100
0000
0100
0001
0100
0001
1100
0000
1100
0000
1001
0000
1000
0001
,
0100
0010
1100
0000
1000
0001
1000
0001
1000
0001
1000
0100
0011
0000
1000
0011
,
0000
1000
0011
0000
0100
0010
1100
0000
1001
0000
1001
0000
0101
0000
0010
0001
,
0100
0010
1000
0100
0011
0000
1000
0001
1100
0000
1100
0000
0011
0000
1000
0100
,
0010
0001
1100
0000
0010
0100
0010
0100
0010
1000
0001
0100
0001
1000
0000
0001
,
0000
0001
0100
0001
1000
0010
1100
0000
0010
0100
0010
0000
1001
0000
0000
0000
;

//---------------dance-single - ----------------
#NOTES:
     dance-single:
     :
     Edit:
     15:
     1.000,1.000,1.000,1.000,1.000,1149.000,712.000,148.000,0.000,333.000:
0000
0000
0000
0000
,
1000
0100
0010
0001
0010
0100
1000
0100
,
0010
0001
0000
0000
0000
0022
0000
0100
,
1033
0100
0010
0001
0010
0100
1000
0100
,
0010
0001
0000
0000
2200
0000
3322
0000
,
1033
0100
0010
0001
0010
0100
1000
0100
,
0010
0000
0000
0220
0000
0000
0000
0000
,
1330
0100
0010
0001
0010
0100
1000
0022
,
0033
0220
0330
2200
0000
0010
3301
0010
,
0100
1000
0100
0010
0001
0010
0100
1000
,
0100
0000
0000
0000
0000
0022
0000
1000
,
0133
1000
0010
0001
0100
0010
1000
0001
,
0100
0010
0000
0000
0000
0000
0000
0000
,
0102
0000
0000
0000
0103
0000
0000
0100
0000
0100
0010
1000
0001
0000
0000
0000
,
0100
0000
0100
0000
0010
0000
0000
2100
0000
0001
0100
0010
3100
0000
0000
0000
,
1020
0000
1000
0000
0001
0000
0000
1000
0000
1000
0001
0100
1000
0001
0000
0001
,
1000
0000
1000
0000
0001
0000
0000
0001
0030
0001
0010
0100
1000
0000
0000
0000
,
0000
0010
0100
1000
0011
1000
0000
0010
1001
0010
1000
0100
0011
1000
0000
0010
,
1001
0010
0100
1000
0011
1000
0000
0010
1001
0010
1000
0100
0011
1000
0000
0010
,
1001
0010
0100
1000
0011
1000
0000
0010
1001
0010
1000
0100
0011
1000
0000
0010
,
1001
0010
0100
1000
0011
1000
0000
0010
1001
0010
1000
0100
0011
1000
0000
0100
,
0011
1000
0011
0100
0011
1000
0011
0100
0011
1000
0011
0100
0011
1000
0011
0100
,
0011
1000
0011
0100
0011
1000
0011
0100
0011
1000
0011
0100
0011
1000
0011
1100
,
0011
1100
0011
1100
0011
1100
0011
1100
0011
1100
0011
1100
0011
1100
0011
1100
,
0021
0000
0000
0000
0000
0000
0000
0000
1132
0000
1103
0000
1011
0000
0011
0100
,
0011
1000
0011
0100
1011
0000
1100
0010
1101
0000
0011
0100
1011
0000
0101
0010
,
1100
0010
2101
0000
3011
0100
1001
0100
1012
0000
0113
1000
0111
0000
0101
0010
,
1100
0010
1101
0000
1100
0001
1010
0100
1010
0001
1100
0010
1101
0000
1100
0010
,
1100
0001
1110
0000
1001
0100
1010
0100
1021
0000
1031
0000
0111
0000
1001
0100
,
0011
1000
1100
0010
1101
0000
0101
0010
1101
0000
1010
0100
1011
0000
1100
0001
,
1210
0000
1311
0000
0011
1000
0011
0100
2011
0000
0101
0000
3111
0000
1100
0010
,
1100
0001
1110
0000
1001
0010
0201
1300
0011
0100
2001
3010
1101
0000
0201
1310
,
0000
0010
1101
0010
1001
0010
1101
0010
2101
0010
3101
0000
1011
0000
0101
0010
,
1100
0001
1100
0010
1101
0000
1001
0010
1100
0001
1100
0010
1101
0000
0110
0001
,
1100
0010
2101
0000
0111
0000
3011
0100
0021
1000
0101
0000
1131
0000
1100
0010
,
0101
0010
1101
0000
1001
0100
0011
1000
0011
0100
1010
0000
1110
0000
2001
3100
,
0021
0130
2011
0000
3110
0001
1110
0001
1020
0001
1100
0000
1101
0000
1100
0031
,
1100
0010
1100
0001
1110
0000
1001
0100
1011
0000
1100
0010
1101
0000
2011
0100
,
0011
0100
3011
0000
1101
0010
1100
0010
1101
0010
1101
0010
1101
0010
1100
0001
,
1100
0001
1110
0001
1100
0001
1100
0010
1100
0001
1100
0010
1100
0001
1100
0010
,
0101
0000
0000
0000
1121
0030
0000
0000
1100
0000
0112
0003
0110
0001
2110
3000
,
0011
0000
2011
3100
0011
1000
0211
0300
1001
0000
0211
1300
0011
0100
2011
3000
,
0101
0000
1100
0010
1100
0000
1102
0013
1001
0000
1021
0130
1001
0100
1021
0030
,
1100
0010
1102
0013
1100
0010
1102
0003
1100
0000
1120
0031
1100
0010
1201
0300
,
1001
0100
0011
0100
1011
0100
0011
0000
0111
0000
1120
0031
1100
0010
1102
0013
,
1101
0000
0211
1300
0011
0100
1021
0130
1011
0000
2011
3100
0011
1000
2111
3000
,
1110
0000
1001
0010
1100
0010
1102
0003
1011
0000
1012
0103
1001
0100
1021
0030
,
1001
0010
1102
0013
1100
0001
2110
3000
0111
0000
1102
0013
1100
0010
1102
0003
,
1110
0000
0000
0000
1201
0000
0300
0000
1011
0000
0000
0000
0000
0000
0102
0003
0010
0000
0021
0030
1101
0000
0010
0000
2101
0000
3010
0000
1101
0000
0010
0000
,
1201
0310
1101
0000
2011
3100
1011
0100
2011
3000
1101
0000
0011
0100
1011
0000
,
1121
0030
0111
0000
1102
0013
1101
0010
1201
0300
1011
0100
1021
0130
1011
0100
,
1021
0030
1111
0000
2011
3100
1011
0100
1021
0030
1101
0010
1001
0000
1101
0000
,
1001
0000
1111
0000
1102
0013
1100
0010
1102
0013
1101
0000
2011
3100
1011
0000
,
1211
0300
1101
0000
1021
0130
1010
0001
1210
0300
1011
0000
1000
0001
1110
0000
,
1201
0300
1011
0000
0121
1030
0011
0100
1012
0003
1010
0000
1112
0000
0003
0000
,
1121
0000
0030
0000
1211
0000
0300
0000
1100
0000
0000
0000
0011
0000
1111
0110
,
1111
0000
1011
0000
1120
0031
1010
0100
1021
0130
1011
0000
1210
0301
1110
0000
,
1121
0030
1011
0000
1210
0301
1100
0010
1102
0003
1011
0000
1010
0001
1110
0000
,
0211
0300
1011
0000
1102
0013
1100
0001
1210
0300
1010
0001
1120
0030
1101
0010
,
0102
0003
1011
0000
0211
1300
0011
1000
0211
0300
1010
0001
1110
0001
0110
0001
,
1110
0000
1011
0100
2011
3100
0011
0100
1021
0130
1011
0000
0112
1003
0111
0000
,
1201
0300
1011
0000
0112
1003
0011
0100
1012
0003
0111
0000
1100
0010
1101
0000
,
0211
0300
1011
0000
0121
1030
0011
0100
2011
3000
0001
0010
1100
0011
1100
0011
,
1100
0011
1100
0011
1100
0011
1100
0011
1100
0011
1100
0011
1100
0011
1100
0000
,
1111
0000
1102
0013
1001
0010
1201
0300
1011
0000
1102
0013
1101
0000
1211
0300
,
1110
0000
1210
0301
1100
0010
1102
0003
1011
0000
1101
0000
0101
1010
0101
1010
,
0101
1010
0101
1010
0101
0000
0101
1010
0101
1010
0101
1010
0101
1010
0101
0000
,
1111
0000
1120
0031
0110
0001
2110
3000
1001
0100
2011
3100
2011
3000
0101
0000
,
1101
0000
2011
3100
0011
0100
2011
3100
1011
0000
1120
0031
1110
0000
0121
0030
,
1101
0000
2011
3100
1001
0100
1021
0030
0101
1000
0211
0300
1110
0000
1102
0003
,
0110
0000
1102
0003
1110
0000
1102
0003
1110
0000
1112
0000
0003
0000
1121
0000
,
0030
0000
1211
0000
1301
0110
1001
0110
1001
0000
0000
0000
1001
0110
1001
0000
,
1001
0000
0101
0010
1100
0001
1100
0010
1101
0000
0101
0010
1101
0000
1110
0000
,
1011
0000
0101
0010
1100
0010
1121
0030
1211
0300
1012
0103
1211
0300
1110
0000
,
1011
0000
1010
0100
1001
0100
1011
0000
1001
0100
1011
0100
1001
0100
1011
0100
,
1011
0000
0010
1101
0000
1011
0100
0000
0101
1000
0111
0000
1021
0000
1131
0000
,
0111
0000
1100
0010
1100
0010
1001
0100
1011
0000
0110
0001
1110
0000
1011
0000
,
1101
0000
1010
0001
1100
0001
1112
0003
1120
0031
1102
0013
2101
3010
0101
0000
,
1011
0000
1100
0011
1100
0011
1100
0000
0011
1000
0110
1000
0011
1000
0101
1000
,
0111
0000
1100
0011
0000
1100
0011
0000
1100
0110
0011
0000
1101
0000
1101
0000
,
1111
0000
1100
0001
1100
0010
1100
0001
1110
0000
0011
0100
1011
0000
1100
0010
,
1101
0000
1010
0100
0011
0100
1011
0000
1011
0100
1001
0100
1011
0000
0111
0000
,
1011
0000
0110
0001
1100
0001
1110
0000
1010
0001
1100
0010
1100
0001
1010
0100
,
1011
0000
1100
0011
0000
1100
0011
0000
1001
0100
0011
0000
1110
0000
1011
0000
,
1101
0000
1010
0001
1100
0010
1100
0001
1110
0000
1001
0100
1011
0000
0111
0000
,
1011
0000
0101
0010
1100
0010
1101
0000
1011
0000
1010
0100
0011
1000
0110
1000
,
0111
1000
0110
1000
0110
1000
0111
1000
0110
1000
0111
1000
0110
1000
0110
0000
,
1111
0000
2222
0000
0000
0000
3333
0000
0110
1001
0110
0000
1001
0000
1100
0011
,
1100
0001
1100
0010
1101
0000
0110
0001
1110
0000
1101
0000
1011
0000
1100
0001
,
1100
0010
1100
0001
1110
0000
1001
0100
1011
0000
0111
0000
1110
0000
1010
0001
,
1100
0010
1101
0000
1001
0100
1011
0100
1001
0100
1011
0000
1101
0000
0011
1100
,
0000
1100
0011
0000
0110
1000
0111
0000
1101
0000
1011
0000
1110
0000
1100
0011
,
0000
0011
1100
0010
0101
0000
1010
0001
1110
0000
1101
0000
1011
0000
1100
0011
,
0000
0011
1100
0010
0101
0000
1100
0010
1101
0000
1110
0000
0111
0000
1100
0011
,
0000
1100
0011
0000
1011
0100
1010
0100
1011
0100
1010
0100
1011
0000
1100
0011
,
0000
0011
1100
0000
0011
1100
0011
0000
1101
0000
1011
0000
1111
0000
1100
0001
,
1100
0010
1001
0100
1011
0000
1100
0001
1110
0000
1001
0100
1011
0000
1010
0001
,
1100
0010
1101
0000
0110
0001
1100
0001
1110
0000
1101
0000
1101
0000
1010
0001
,
1100
0010
1101
0000
1100
0001
1010
0001
1100
0001
1010
0100
1011
0000
1100
0011
,
0000
1100
0011
0000
1100
0010
1101
0000
1101
0000
1011
0000
1101
0000
1010
0001
,
1100
0010
1001
0100
1011
0000
1010
0001
1110
0000
1101
0000
1011
0000
1010
0100
,
1010
0001
1110
0000
1001
0110
1001
0110
1001
0110
1001
0110
1001
0110
0000
0001
,
0000
0001
1100
0001
1100
0010
1101
0000
0011
1100
0011
0000
1111
0000
0000
0000
;
